We returned to the old address EMTREK.ORG
 

Offline

volodya133

Longevity:
6 years
Posts:
2855

Apocalyptica - Cell-0
Страна: Finland
Жанр: Cello-Metal, Symphonic-Metal
Год выпуска: 2020
Формат: FLAC (tracks)
Битрейт аудио: lossless
Продолжительность: 00:53:40

01. Ashes Of The Modern World (6:30)
02. Cell-0 (9:57)
03. Rise (5:22)
04. En Route To Mayhem (5:28)
05. Call My Name (3:56)
06. Fire & Ice (5:21)
07. Scream For The Silent (5:13)
08. Catharsis (4:59)
09. Beyond The Stars (6:54)

DR

foobar2000 1.5 / Замер динамического диапазона (DR) 1.1.1
Дата отчёта: 2020-01-12 07:57:20
--------------------------------------------------------------------------------
Анализ: Apocalyptica / Cell-0
--------------------------------------------------------------------------------
DR Пики RMS Продолжительность трека
--------------------------------------------------------------------------------
DR5 0.00 дБ -7.81 дБ 6:30 01-Ashes Of The Modern World
DR6 0.00 дБ -8.30 дБ 9:57 02-Cell-0
DR6 0.00 дБ -8.48 дБ 5:22 03-Rise
DR6 0.00 дБ -8.24 дБ 5:28 04-En Route To Mayhem
DR7 0.00 дБ -8.30 дБ 3:56 05-Call My Name
DR6 0.00 дБ -9.18 дБ 5:21 06-Fire & Ice
DR6 0.00 дБ -8.08 дБ 5:13 07-Scream For The Silent
DR6 0.00 дБ -9.15 дБ 4:59 08-Catharsis
DR6 0.00 дБ -8.43 дБ 6:54 09-Beyond The Stars
--------------------------------------------------------------------------------
Количество треков: 9
Реальные значения DR: DR6
Частота: 44100 Гц
Каналов: 2
Разрядность: 24
Битрейт: 1564 кбит/с
Кодек: FLAC

От Volodya133

_________________
[Profile] [PM]
Display posts from previous:    

The time now is: Today 18:00

All times are GMT + 3 Hours



You cannot post new topics in this forum
You cannot reply to topics in this forum
You cannot edit your posts in this forum
You cannot delete your posts in this forum
You cannot vote in polls in this forum
You cannot attach files in this forum
You cannot download files in this forum