Today is free to download without increasing Download
 

Offline

Direktor_49

Longevity:
2 months 4 days
Posts:
10

Lionel Hampton - Lionel Hampton's Paris All Stars (1953) 1997, BMG France - Год выпуска: 1997
Жанр: Джаз
Издание: BMG France - 74321511502
Источник: (релизёр:) fiks22
Продолжительность: 01:19:14
Кодек: FLAC
Битрейт: Lossless
Тип рипа: tracks + .cue
Википедия
Треклист:
01. September in the Rain (Warren) - 8:11
02. Blue Panassie (Hampton) - 13:23
03. Always (Berlin) - 8:02
04. Free Press Oui (Hampton) - 12:57
05. I Only Have Eyes for You (Warren) - 3:33
06. Walking at the Trocadero (Hampton) - 11:12
07. Real Crazy (Hampton) - 9:33
08. More Crazy (Hampton) - 5:23
09. More and More Crazy (Hampton) - 3:42
10. Completely Crazy (Hampton) - 3:18

Отчёт EAC:

Код:
Exact Audio Copy V1.3 from 2. September 2016
EAC extraction logfile from 17. December 2019, 13:23
Lionel Hampton / Lionel Hampton's Paris All Stars
Used drive  : PBDS    DVD+-RW DS-8W1P   Adapter: 1  ID: 0
Read mode               : Secure
Utilize accurate stream : Yes
Defeat audio cache      : Yes
Make use of C2 pointers : No
Read offset correction                      : 594
Overread into Lead-In and Lead-Out          : No
Fill up missing offset samples with silence : Yes
Delete leading and trailing silent blocks   : No
Null samples used in CRC calculations       : Yes
Used interface                              : Native Win32 interface for Win NT & 2000
Gap handling                                : Appended to previous track
Used output format              : User Defined Encoder
Selected bitrate                : 1024 kBit/s
Quality                         : High
Add ID3 tag                     : No
Command line compressor         : C:\Program Files (x86)\Exact Audio Copy\Flac\flac.exe
Additional command line options : -8 -V -T "ARTIST=%artist%" -T "TITLE=%title%" -T "ALBUM=%albumtitle%" -T "DATE=%year%" -T "TRACKNUMBER=%tracknr%" -T "GENRE=%genre%" -T "PERFORMER=%albuminterpret%" -T "COMPOSER=%composer%" %haslyrics%--tag-from-file=LYRICS="%lyricsfile%"%haslyrics% -T "ALBUMARTIST=%albumartist%" -T "DISCNUMBER=%cdnumber%" -T "TOTALDISCS=%totalcds%" -T "TOTALTRACKS=%numtracks%" -T "COMMENT=%comment%" %source% -o %dest%
TOC of the extracted CD
     Track |   Start  |  Length  | Start sector | End sector
    ---------------------------------------------------------
        1  |  0:00.33 |  8:11.22 |        33    |    36879
        2  |  8:11.55 | 13:23.05 |     36880    |    97109
        3  | 21:34.60 |  8:02.05 |     97110    |   133264
        4  | 29:36.65 | 12:57.03 |    133265    |   191542
        5  | 42:33.68 |  3:33.10 |    191543    |   207527
        6  | 46:07.03 | 11:12.37 |    207528    |   257964
        7  | 57:19.40 |  9:32.53 |    257965    |   300917
        8  | 66:52.18 |  5:22.65 |    300918    |   325132
        9  | 72:15.08 |  3:41.50 |    325133    |   341757
       10  | 75:56.58 |  3:17.50 |    341758    |   356582
Track  1
     Filename C:\Users\olivi\Desktop\Rips3\01 - Lionel Hampton - September In The Rain.wav
     Pre-gap length  0:00:02.44
     Peak level 98.1 %
     Extraction speed 2.2 X
     Track quality 100.0 %
     Test CRC C877B0F6
     Copy CRC C877B0F6
     Accurately ripped (confidence 3)  [170B956A]  (AR v2)
     Copy OK
Track  2
     Filename C:\Users\olivi\Desktop\Rips3\02 - Lionel Hampton - Blue Panassié.wav
     Pre-gap length  0:00:02.66
     Peak level 97.9 %
     Extraction speed 2.3 X
     Track quality 100.0 %
     Test CRC 75FF830D
     Copy CRC 75FF830D
     Accurately ripped (confidence 2)  [2B9E1046]  (AR v2)
     Copy OK
Track  3
     Filename C:\Users\olivi\Desktop\Rips3\03 - Lionel Hampton - Always.wav
     Pre-gap length  0:00:02.66
     Peak level 98.2 %
     Extraction speed 1.9 X
     Track quality 99.9 %
     Test CRC 55AF05CB
     Copy CRC 55AF05CB
     Accurately ripped (confidence 3)  [2968DC1F]  (AR v2)
     Copy OK
Track  4
     Filename C:\Users\olivi\Desktop\Rips3\04 - Lionel Hampton - Free Press Oui.wav
     Pre-gap length  0:00:01.66
     Peak level 95.7 %
     Extraction speed 2.3 X
     Track quality 100.0 %
     Test CRC 2D1B9618
     Copy CRC 2D1B9618
     Accurately ripped (confidence 3)  [DA4B952C]  (AR v2)
     Copy OK
Track  5
     Filename C:\Users\olivi\Desktop\Rips3\05 - Lionel Hampton - I Only Have Eyes For You.wav
     Pre-gap length  0:00:01.33
     Peak level 71.7 %
     Extraction speed 1.4 X
     Track quality 99.9 %
     Test CRC C1D0C4FC
     Copy CRC C1D0C4FC
     Accurately ripped (confidence 3)  [2CDCA3B8]  (AR v2)
     Copy OK
Track  6
     Filename C:\Users\olivi\Desktop\Rips3\06 - Lionel Hampton - Walking At The Trocadéro.wav
     Pre-gap length  0:00:01.66
     Peak level 98.2 %
     Extraction speed 2.3 X
     Track quality 100.0 %
     Test CRC E5BF32FD
     Copy CRC E5BF32FD
     Accurately ripped (confidence 3)  [895A9DB9]  (AR v2)
     Copy OK
Track  7
     Filename C:\Users\olivi\Desktop\Rips3\07 - Lionel Hampton - Real Crazy.wav
     Pre-gap length  0:00:01.00
     Peak level 98.1 %
     Extraction speed 1.9 X
     Track quality 99.9 %
     Test CRC 909046DE
     Copy CRC 909046DE
     Accurately ripped (confidence 3)  [8993D6AE]  (AR v2)
     Copy OK
Track  8
     Filename C:\Users\olivi\Desktop\Rips3\08 - Lionel Hampton - More Crazy.wav
     Peak level 98.2 %
     Extraction speed 2.2 X
     Track quality 100.0 %
     Test CRC A63793DE
     Copy CRC A63793DE
     Accurately ripped (confidence 3)  [90796BEC]  (AR v2)
     Copy OK
Track  9
     Filename C:\Users\olivi\Desktop\Rips3\09 - Lionel Hampton - More And More Crazy.wav
     Peak level 98.2 %
     Extraction speed 2.1 X
     Track quality 100.0 %
     Test CRC E82FDA5B
     Copy CRC E82FDA5B
     Accurately ripped (confidence 3)  [BDCCB6B8]  (AR v2)
     Copy OK
Track 10
     Filename C:\Users\olivi\Desktop\Rips3\10 - Lionel Hampton - Completely Crazy.wav
     Pre-gap length  0:00:01.00
     Peak level 99.3 %
     Extraction speed 2.1 X
     Track quality 100.0 %
     Test CRC ABFCC9E8
     Copy CRC ABFCC9E8
     Accurately ripped (confidence 3)  [E8FBDF09]  (AR v2)
     Copy OK
All tracks accurately ripped
No errors occurred
End of status report
---- CUETools DB Plugin V2.1.6
[CTDB TOCID: hxIgF56Sa9pJM3yRar.icL4Oo3Q-] found
Submit result: hxIgF56Sa9pJM3yRar.icL4Oo3Q- has been confirmed
Track | CTDB Status
  1   | (8/8) Accurately ripped
  2   | (7/8) Accurately ripped
  3   | (8/8) Accurately ripped
  4   | (8/8) Accurately ripped
  5   | (8/8) Accurately ripped
  6   | (8/8) Accurately ripped
  7   | (8/8) Accurately ripped
  8   | (8/8) Accurately ripped
  9   | (8/8) Accurately ripped
10   | (8/8) Accurately ripped
==== Log checksum 3D005A60381F5CD848D5DD2F9629644A47456806F1A279A4810764BA4C430A4F ====


Last edited by Direktor_49 on 2019-12-20 12:51; edited 1 time in total
[Profile] [PM]
Display posts from previous:    

The time now is: Today 16:14

All times are GMT + 3 Hours



You cannot post new topics in this forum
You cannot reply to topics in this forum
You cannot edit your posts in this forum
You cannot delete your posts in this forum
You cannot vote in polls in this forum
You cannot attach files in this forum
You cannot download files in this forum