Today is free to download without increasing Download
 

Offline

Direktor_49

Longevity:
23 days
Posts:
9

The Sextet Of Orchestra U.S.A. / Mack The Knife
Страна: USA
Жанр: Post Bop, Contemporary Jazz
Год выпуска: 2016
Формат: FLAC (image + .cue)
Битрейт аудио: lossless
Продолжительность: 00:47:58
Трэклист:
1 Alabama Song 5:22
2 Havanna Song 6:19
3 As You Make Your Bed 5:29
4 Mack The Knife [aka Moritat] 5:07
5 Bilbao Song 3:49
6 Barbara Song 5:08
7 Pirate Jenny 3:35
Bonus Tracrs - Not On Original LP
8 Mack The Knife [aka Moritat] (Alternate Take) 4:52
9 Bilbao Song (Alternate Take) 3:47
10 Pirate Jenny (Alternate Take) 4:25

Лог создания рипа

Exact Audio Copy V1.0 beta 3 from 29. August 2011
EAC extraction logfile from 17. November 2017, 23:41
The Sextet Of Orchestra / Mack The Knife
Used drive : TSSTcorpCDDVDW SH-224FB Adapter: 1 ID: 0
Read mode : Secure
Utilize accurate stream : Yes
Defeat audio cache : Yes
Make use of C2 pointers : No
Read offset correction : 6
Overread into Lead-In and Lead-Out : No
Fill up missing offset samples with silence : Yes
Delete leading and trailing silent blocks : No
Null samples used in CRC calculations : Yes
Used interface : Native Win32 interface for Win NT & 2000
Used output format : User Defined Encoder
Selected bitrate : 128 kBit/s
Quality : High
Add ID3 tag : No
Command line compressor : C:\Program Files (x86)\Exact Audio Copy\Flac\flac.exe
Additional command line options : -V -8 -T "Genre=%genre%" -T "Artist=%artist%" -T "Title=%title%" -T "Album=%albumtitle%" -T "Date=%year%" -T "Tracknumber=%tracknr%" -T "Comment=%comment%" %source%
TOC of the extracted CD
Track | Start | Length | Start sector | End sector
---------------------------------------------------------
1 | 0:00.00 | 5:25.65 | 0 | 24439
2 | 5:25.65 | 6:18.50 | 24440 | 52839
3 | 11:44.40 | 5:27.30 | 52840 | 77394
4 | 17:11.70 | 5:07.20 | 77395 | 100439
5 | 22:19.15 | 3:49.30 | 100440 | 117644
6 | 26:08.45 | 5:07.10 | 117645 | 140679
7 | 31:15.55 | 3:37.45 | 140680 | 156999
8 | 34:53.25 | 4:52.00 | 157000 | 178899
9 | 39:45.25 | 3:47.45 | 178900 | 195969
10 | 43:32.70 | 4:25.20 | 195970 | 215864
Range status and errors
Selected range
Filename D:\1\The Sextet Of Orchestra U.S.A. - Mack The Knife (2016)\The Sextet Of Orchestra - Mack The Knife.wav
Peak level 93.9 %
Extraction speed 2.8 X
Range quality 100.0 %
Test CRC 8EB0BB06
Copy CRC 8EB0BB06
Copy OK
No errors occurred
AccurateRip summary
Track 1 accurately ripped (confidence 2) [36DC9024] (AR v2)
Track 2 accurately ripped (confidence 2) [6AAE325A] (AR v2)
Track 3 accurately ripped (confidence 2) [8F68349F] (AR v2)
Track 4 accurately ripped (confidence 2) [D267010A] (AR v2)
Track 5 accurately ripped (confidence 2) [F3E15F6A] (AR v2)
Track 6 accurately ripped (confidence 2) [D14DA34C] (AR v2)
Track 7 accurately ripped (confidence 2) [C9673C22] (AR v2)
Track 8 accurately ripped (confidence 2) [821663C3] (AR v2)
Track 9 accurately ripped (confidence 2) [4EBE8D85] (AR v2)
Track 10 accurately ripped (confidence 2) [2DA3096C] (AR v2)
All tracks accurately ripped
End of status report
==== Log checksum A56AC0D925935789AC8B2F01EC30F54C68FA10216926CD34A038DA1CDC2067B9 ====

Содержание индексной карты (.CUE)

REM GENRE Jazz
REM DATE 2016
REM DISCID 800B3E0A
REM COMMENT "ExactAudioCopy v1.0b3"
CATALOG 0889853086023
PERFORMER "The Sextet Of Orchestra"
TITLE "Mack The Knife "
FILE "The Sextet Of Orchestra - Mack The Knife.flac" WAVE
TRACK 01 AUDIO
TITLE "Alabama Song"
PERFORMER "The Sextet Of Orchestra"
ISRC USBB10100162
INDEX 01 00:00:00
TRACK 02 AUDIO
TITLE "Havannah Song "
PERFORMER "The Sextet Of Orchestra"
ISRC USBB10100163
INDEX 00 05:24:50
INDEX 01 05:25:65
TRACK 03 AUDIO
TITLE "As You Make Your Bed"
PERFORMER "The Sextet Of Orchestra"
ISRC USBB10100164
INDEX 00 11:42:70
INDEX 01 11:44:40
TRACK 04 AUDIO
TITLE "Mack The Knife"
PERFORMER "The Sextet Of Orchestra"
ISRC USBB16501035
INDEX 00 17:11:35
INDEX 01 17:11:70
TRACK 05 AUDIO
TITLE "Bilbao Song"
PERFORMER "The Sextet Of Orchestra"
ISRC USBB16501036
INDEX 00 22:17:45
INDEX 01 22:19:15
TRACK 06 AUDIO
TITLE "Barbara Song"
PERFORMER "The Sextet Of Orchestra"
ISRC USBB16501037
INDEX 00 26:07:15
INDEX 01 26:08:45
TRACK 07 AUDIO
TITLE "Pirate Jenny"
PERFORMER "The Sextet Of Orchestra"
ISRC USBB16501038
INDEX 00 31:14:35
INDEX 01 31:15:55
TRACK 08 AUDIO
TITLE "Mack The Knife (alternate)"
PERFORMER "The Sextet Of Orchestra"
ISRC USBB16501039
INDEX 00 34:52:35
INDEX 01 34:53:25
TRACK 09 AUDIO
TITLE "Bilbao Song (alternate)"
PERFORMER "The Sextet Of Orchestra"
ISRC USBB16501040
INDEX 00 39:44:00
INDEX 01 39:45:25
TRACK 10 AUDIO
TITLE "Pirate Jenny (alternate)"
PERFORMER "The Sextet Of Orchestra"
ISRC USBB16501041
INDEX 00 43:31:30
INDEX 01 43:32:70
[Profile] [PM]
Display posts from previous:    

The time now is: Today 11:09

All times are GMT + 3 Hours



You cannot post new topics in this forum
You cannot reply to topics in this forum
You cannot edit your posts in this forum
You cannot delete your posts in this forum
You cannot vote in polls in this forum
You cannot attach files in this forum
You cannot download files in this forum