Today is free to download without increasing Download
 

Offline

DED

Longevity:
9 years 1 month
Posts:
10312

--Ляпис Трубецкой - Звездная серия-- Год выпуска: 1999
Жанр: Punk
Издание: Star Records - ZS-055-99
Исполнитель: Ляпис Трубецкой
Продолжительность: 01:19:58
Кодек: FLAC
Битрейт: Lossless
Тип рипа: image + .cue
-ТРЕКЛИСТ:
01. Снежная королева [03:17]
02. В платье белом [04:54]
03. Ты кинула [03:53]
04. Яблони [05:30]
05. Ау [03:49]
06. Розочка [04:10]
07. Паренек под следствием [04:06]
08. Красота [03:19]
09. Любовь [03:56]
10. Ранетое сердце [05:42]
11. Ливни осенние [05:22]
-

Продолжение треклиста:

12. Евпатория [05:49]
13. Метелица [04:25]
14. Облака [04:51]
15. Цыки-цыки [02:31]
16. Зеленоглазое такси [02:39]
17. Сказочка [04:14]
18. Русалки [04:19]
19. Петька-морячок [03:04]
-

Отчёт EAC:

Exact Audio Copy V1.0 beta 3 from 29. August 2011
Отчёт EAC об извлечении, выполненном 19. октября 2019, 14:27
Ляпис Трубецкой / Звездная серия
Дисковод: Optiarc DVD RW AD-7280S Adapter: 1 ID: 0
Режим чтения : Достоверность
Использование точного потока : Да
Отключение кэша аудио : Да
Использование указателей C2 : Нет
Коррекция смещения при чтении : 48
Способность читать области Lead-in и Lead-out : Нет
Заполнение пропущенных сэмплов тишиной : Да
Удаление блоков с тишиной в начале и конце : Нет
При вычислениях CRC использовались нулевые сэмплы : Да
Интерфейс : Встроенный Win32-интерфейс для Win NT/2000
Выходной формат : Пользовательский кодировщик
Выбранный битрейт : 768 kBit/s
Качество : Высокий
Добавление ID3-тега : Нет
Утилита сжатия : C:\Program Files (x86)\Exact Audio Copy\FLAC\FLAC.EXE
Дополнительные параметры : -8 -V -T "ARTIST=%artist%" -T "TITLE=%title%" -T "ALBUM=%albumtitle%" -T "DATE=%year%" -T "TRACKNUMBER=%tracknr%" -T "GENRE=%genre%" -T "COMMENT=%comment%" -T "BAND=%albuminterpret%" -T "ALBUMARTIST=%albuminterpret%" -T "COMPOSER=%composer%" %haslyrics%--tag-from-file=LYRICS="%lyricsfile%"%haslyrics% -T "DISCNUMBER=%cdnumber%" -T "TOTALDISCS=%totalcds%" -T "TOTALTRACKS=%numtracks%" %hascover%--picture="%coverfile%"%hascover% %source% -o %dest%
TOC извлечённого CD
Трек | Старт | Длительность | Начальный сектор | Конечный сектор
---------------------------------------------------------------------
1 | 0:00.00 | 3:17.13 | 0 | 14787
2 | 3:17.13 | 4:54.43 | 14788 | 36880
3 | 8:11.56 | 3:53.37 | 36881 | 54392
4 | 12:05.18 | 5:30.44 | 54393 | 79186
5 | 17:35.62 | 3:49.45 | 79187 | 96406
6 | 21:25.32 | 4:10.42 | 96407 | 115198
7 | 25:35.74 | 4:06.14 | 115199 | 133662
8 | 29:42.13 | 3:19.14 | 133663 | 148601
9 | 33:01.27 | 3:56.14 | 148602 | 166315
10 | 36:57.41 | 5:42.44 | 166316 | 192009
11 | 42:40.10 | 5:22.02 | 192010 | 216161
12 | 48:02.12 | 5:49.37 | 216162 | 242373
13 | 53:51.49 | 4:25.73 | 242374 | 262321
14 | 58:17.47 | 4:51.73 | 262322 | 284219
15 | 63:09.45 | 2:31.05 | 284220 | 295549
16 | 65:40.50 | 2:39.05 | 295550 | 307479
17 | 68:19.55 | 4:14.05 | 307480 | 326534
18 | 72:33.60 | 4:19.71 | 326535 | 346030
19 | 76:53.56 | 3:04.03 | 346031 | 359833
Характеристики диапазона извлечения и сообщения об ошибках
Выбранный диапазон
Имя файла D:\РАЗДАЧИ\Ляпис Трубецкой-Звездная серия (1999)\Ляпис Трубецкой - Звездная серия.wav
Пиковый уровень 100.0 %
Скорость извлечения 3.6 X
Качество диапазона 100.0 %
CRC теста BF18B629
CRC копии BF18B629
Копирование... OK
Ошибок не произошло
AccurateRip: сводка
Трек 1 отсутствует в базе данных
Трек 2 отсутствует в базе данных
Трек 3 отсутствует в базе данных
Трек 4 отсутствует в базе данных
Трек 5 отсутствует в базе данных
Трек 6 отсутствует в базе данных
Трек 7 отсутствует в базе данных
Трек 8 отсутствует в базе данных
Трек 9 отсутствует в базе данных
Трек 10 отсутствует в базе данных
Трек 11 отсутствует в базе данных
Трек 12 отсутствует в базе данных
Трек 13 отсутствует в базе данных
Трек 14 отсутствует в базе данных
Трек 15 отсутствует в базе данных
Трек 16 отсутствует в базе данных
Трек 17 отсутствует в базе данных
Трек 18 отсутствует в базе данных
Трек 19 отсутствует в базе данных
Ни одного трека нет в базе AccurateRip
Конец отчёта
==== Контрольная сумма отчёта 20FC7606C4F0A1C221F67ED8C61692309DDD18A98AC77BDD34DFF5D33B49169F ====
-

_________________
[Profile] [PM]
Display posts from previous:    

The time now is: Today 02:10

All times are GMT + 3 Hours



You cannot post new topics in this forum
You cannot reply to topics in this forum
You cannot edit your posts in this forum
You cannot delete your posts in this forum
You cannot vote in polls in this forum
You cannot attach files in this forum
You cannot download files in this forum