Today is free to download without increasing Download
 

Offline

sergej644

Longevity:
6 years 9 months
Posts:
919

-Пикник - В руках великана--
Год издания: 2019
Страна: Russia
Жанр: Rock
Продолжительность: 00:40:01-Лейбл издания: Vektor
Страна-выпуска диска: Russia
Номер по каталогу: VEK-CD-70-Формат: FLAC
Битрейт аудио: Lossless
Тип рипа: image +.cue
Наличие сканов в содержимом раздачи: да
-

Трэклист


01. Счастливчик (4:19)
02. В руках великана (4:30)
03. Лиловый корсет (4:36)
04. Сияние (5:12)
05. Такая их карма (4:47)
06. Разноцветные ленты (3:17)
07. Фильм окончен (3:53)
08. Душа самурая-меч (4:15)
09. Где душа летает… (2:58)
10. Эпизод № 10 (1:01)
11. Grand finale (1:12)
-

Лог создания рипа

Код:
Exact Audio Copy V1.3 from 2. September 2016
Отчёт EAC об извлечении, выполненном 16. сентября 2019, 21:36
Пикник  / В руках великана
Дисковод: ASUS    DVD-E818A9T   Adapter: 1  ID: 1
Режим чтения                 : Достоверность
Использование точного потока : Да
Отключение кэша аудио        : Да
Использование указателей C2  : Нет
Коррекция смещения при чтении                     : 6
Способность читать области Lead-in и Lead-out     : Нет
Заполнение пропущенных сэмплов тишиной            : Да
Удаление блоков с тишиной в начале и конце        : Нет
При вычислениях CRC использовались нулевые сэмплы : Да
Интерфейс                                         : Встроенный Win32-интерфейс для Win NT/2000
Выходной формат          : Пользовательский кодировщик
Выбранный битрейт        : 128 kBit/s
Качество                 : Высокий
Добавление ID3-тега      : Нет
Утилита сжатия           : C:\Program Files (x86)\Exact Audio Copy\Flac\flac.exe
Дополнительные параметры : -V -8 -T "Date=%year%" -T "Genre=%genre%" %source%
TOC извлечённого CD
     Трек |   Старт  | Длительность | Начальный сектор | Конечный сектор
    ---------------------------------------------------------------------
       1  |  0:00.00 |    4:18.64   |           0      |      19413
       2  |  4:18.64 |    4:30.00   |       19414      |      39663
       3  |  8:48.64 |    4:36.21   |       39664      |      60384
       4  | 13:25.10 |    5:12.34   |       60385      |      83818
       5  | 18:37.44 |    4:47.28   |       83819      |     105371
       6  | 23:24.72 |    3:17.08   |      105372      |     120154
       7  | 26:42.05 |    3:53.17   |      120155      |     137646
       8  | 30:35.22 |    4:14.39   |      137647      |     156735
       9  | 34:49.61 |    2:58.12   |      156736      |     170097
      10  | 37:47.73 |    1:01.04   |      170098      |     174676
      11  | 38:49.02 |    1:11.61   |      174677      |     180062
Характеристики диапазона извлечения и сообщения об ошибках
Выбранный диапазон
     Имя файла D:\Desktop\Пикник - В руках великана (2019)\Пикник  - В руках великана.wav
     Пиковый уровень 96.6 %
     Скорость извлечения 6.1 X
     Качество диапазона 100.0 %
     CRC теста 32584DE9
     CRC копии 32584DE9
     Копирование... OK
Ошибок не произошло
AccurateRip: сводка
Трек  1  отсутствует в базе данных
Трек  2  отсутствует в базе данных
Трек  3  отсутствует в базе данных
Трек  4  отсутствует в базе данных
Трек  5  отсутствует в базе данных
Трек  6  отсутствует в базе данных
Трек  7  отсутствует в базе данных
Трек  8  отсутствует в базе данных
Трек  9  отсутствует в базе данных
Трек 10  отсутствует в базе данных
Трек 11  отсутствует в базе данных
Ни одного трека нет в базе AccurateRip
Конец отчёта

Индексная карта (non-compilant .cue)

Код:
REM GENRE Rock
REM DATE 2019
REM DISCID 7E09600B
REM COMMENT "ExactAudioCopy v1.3"
PERFORMER "Пикник "
TITLE "В руках великана"
REM COMPOSER ""
FILE "Пикник  - В руках великана.flac" WAVE
  TRACK 01 AUDIO
    TITLE "Счастливчик"
    PERFORMER "Пикник "
    REM COMPOSER ""
    INDEX 01 00:00:00
  TRACK 02 AUDIO
    TITLE "В руках великана"
    PERFORMER "Пикник "
    REM COMPOSER ""
    INDEX 01 04:18:64
  TRACK 03 AUDIO
    TITLE "Лиловый корсет"
    PERFORMER "Пикник "
    REM COMPOSER ""
    INDEX 01 08:48:64
  TRACK 04 AUDIO
    TITLE "Сияние"
    PERFORMER "Пикник "
    REM COMPOSER ""
    INDEX 01 13:25:10
  TRACK 05 AUDIO
    TITLE "Такая их карма"
    PERFORMER "Пикник "
    REM COMPOSER ""
    INDEX 01 18:37:44
  TRACK 06 AUDIO
    TITLE "Разноцветные ленты"
    PERFORMER "Пикник "
    REM COMPOSER ""
    INDEX 01 23:24:72
  TRACK 07 AUDIO
    TITLE "Фильм окончен"
    PERFORMER "Пикник "
    REM COMPOSER ""
    INDEX 01 26:42:05
  TRACK 08 AUDIO
    TITLE "Душа самурая-меч"
    PERFORMER "Пикник "
    REM COMPOSER ""
    INDEX 01 30:35:22
  TRACK 09 AUDIO
    TITLE "Где душа летает…"
    PERFORMER "Пикник "
    REM COMPOSER ""
    INDEX 01 34:49:61
  TRACK 10 AUDIO
    TITLE "Эпизод № 10"
    PERFORMER "Пикник "
    REM COMPOSER ""
    INDEX 01 37:47:73
  TRACK 11 AUDIO
    TITLE "Grand finale"
    PERFORMER "Пикник "
    REM COMPOSER ""
    INDEX 01 38:49:02
--

_________________
Разница между теорией и практикой в том, что теоретически разницы между теорией и практикой нет, а на практике она есть.
[Profile] [PM]

Online

andrew6572

Longevity:
7 years
Posts:
6096

sergej644, Спасибо, Сергей! Пикник радует и ростом качества и новинками. Группа, по существу, "вечная", поскольку стиль философский. Но они не забывают добавлять и новинки.

_________________
"Любая война – всего лишь трусливое бегство от проблем мирного времени." Томас Манн.
[Profile] [PM]
Display posts from previous:    

The time now is: Today 17:24

All times are GMT + 3 Hours



You cannot post new topics in this forum
You cannot reply to topics in this forum
You cannot edit your posts in this forum
You cannot delete your posts in this forum
You cannot vote in polls in this forum
You cannot attach files in this forum
You cannot download files in this forum