Today is free to download without increasing Download
 

Offline

dybrik13

Longevity:
10 months
Posts:
123

Suzi Quatro - 24 альбома, 1 Box-set, 41 CD (1973-2019) - -Жанр: Glam Rock, Classic Rock, Pop Rock | Страна: Detroit, Michigan, U.S. | Продолжительность: 25:54:45 | Кодек: FLAC | Битрейт: Lossles | Тип рипа: image + .cue | tracks + .cue | Наличие сканов: full
Производитель дисков:
Japan - USA - EU - Russia - Netherlands - UK - Germany -


Описание:

Легендарная бас-гитаристка нашей планеты – Сьюзи Кватро, участник и основатель одноименной рок-группы «Suzi Quatro», первая женщина-рокер, которая выбила дверь в мир рок-музыки для следующих поколений девушек. За короткое время Suzi Quatro стала популярной певицей с международным именем. Трудно сказать, какой считает себя блистательная Сьюзи: американской или британской. Но и та и другая страна гордится тем, что на ее долю пришелся определенный период её творчества. Автор песен, продюсер, актриса, радиоведущая. В 1970-х на волне глэм-рока была успешной в Британии, Европе и Австралии, издав серию хитов тиражом более 45 млн. За сорок лет своей музыкальной деятельности Сьюзи Кватро записала 15 полноценных студийных альбомов, два альбома собственных каверов и один альбом альтернативной музыки. Также она выпустила один "живой" альбом, шесть сборников (на виниле) и бесчисленное количество синглов. Исполнитель входит в "ТОП-5" мирового рока!
-Треклист:
Список альбомов:
1973 | Suzi Quatro
1974 | Quatro
1975 | Your Mamma Won't Like Me
1976 | Aggro Phobia
1977 | Live And Kickin
1978 | If You Knew Suzi
1979 | Suzi...And Other Four Letter Words
1980 | Rock Hard
1982 | Main Attraction
1991 | Oh Suzi Q.
1983 | Unreleased Emotion
2006 | Back To The Drive
2011 | In The Spotlight
2017 | Quatro, Scott & Powell
2019 | No Control
Compilation
1990 | The Wild One
1992 | Rock 'Til Ya Drop
1995 | Original Hits
1996 | Quatro | Aggro-Phobia
1996 | The Best Of Suzi Quatro
1999 | Greatest Hits
2004 | A's B's & Rarities
2011 | Essential
2014 | The Girl From Detroit (4CD Box)
2015 | The Very Best Of
-

1973 | Suzi Quatro

1973 | Suzi Quatro (1989 | Toshiba-EMI Ltd.)

Страна-производитель диска: Japan
Номер по каталогу: TOCP-3144 (SRAK-605)
Тип раздачи: image+.cue
Особенность релиза: Series: Coolprise
Источник (релизер): ReadyZP
Треклист:
--------------------------

01. 48 Crash (3:59)
02. Glycerine Queen (3:52)
03. Shine My Machine (3:54)
04. Official Suburbian Superman (3:11)
05. I Wanna Be Your Man (3:24)
06. Primitive Love (4:17)
07. Can the Can (3:38)
08. All Shook Up (3:53)
09. Sticks and Stones (3:45)
10. Skin Tight Skin (4:24)
11. Get Back Mama (5:59)
12. Rockin' Moonbeam (2:57)
13. Shakin' All Over (3:34)

Лог создания рипа

Exact Audio Copy V1.0 beta 3 from 29. August 2011
EAC extraction logfile from 2. April 2016, 14:57
Suzi Quatro / Suzi Quatro (TOCP 3144)
Used drive : SONY CD-RW CRX210E1 Adapter: 0 ID: 0
Read mode : Secure
Utilize accurate stream : Yes
Defeat audio cache : Yes
Make use of C2 pointers : No
Read offset correction : 6
Overread into Lead-In and Lead-Out : No
Fill up missing offset samples with silence : Yes
Delete leading and trailing silent blocks : No
Null samples used in CRC calculations : Yes
Used interface : Native Win32 interface for Win NT & 2000
Used output format : Internal WAV Routines
Sample format : 44.100 Hz; 16 Bit; Stereo
TOC of the extracted CD
Track | Start | Length | Start sector | End sector
---------------------------------------------------------
1 | 0:00.00 | 3:59.00 | 0 | 17924
2 | 3:59.00 | 3:52.02 | 17925 | 35326
3 | 7:51.02 | 3:54.28 | 35327 | 52904
4 | 11:45.30 | 3:10.50 | 52905 | 67204
5 | 14:56.05 | 3:24.32 | 67205 | 82536
6 | 18:20.37 | 4:17.23 | 82537 | 101834
7 | 22:37.60 | 3:37.47 | 101835 | 118156
8 | 26:15.32 | 3:52.45 | 118157 | 135601
9 | 30:08.02 | 3:44.60 | 135602 | 152461
10 | 33:52.62 | 4:24.33 | 152462 | 172294
11 | 38:17.20 | 5:58.67 | 172295 | 199211
12 | 44:16.12 | 2:56.45 | 199212 | 212456
13 | 47:12.57 | 3:34.20 | 212457 | 228526
Range status and errors
Selected range
Filename D:\Share\Ready.zp\Suzi Quatro - Suzi Quatro (TOCP 3144).wav
Peak level 100.0 %
Extraction speed 14.2 X
Range quality 100.0 %
Test CRC 52184C83
Copy CRC 52184C83
Copy OK
No errors occurred
AccurateRip summary
Track 1 cannot be verified as accurate (confidence 7) [6642275F], AccurateRip returned [83B09BCB] (AR v2)
Track 2 cannot be verified as accurate (confidence 7) [DFA80552], AccurateRip returned [C675DEBB] (AR v2)
Track 3 cannot be verified as accurate (confidence 7) [67CE435E], AccurateRip returned [DF9C21DA] (AR v2)
Track 4 cannot be verified as accurate (confidence 7) [F8BC818C], AccurateRip returned [205C89FC] (AR v2)
Track 5 cannot be verified as accurate (confidence 7) [4D2C27A8], AccurateRip returned [DC72F1EC] (AR v2)
Track 6 cannot be verified as accurate (confidence 7) [FEB7B7DC], AccurateRip returned [AEC1BDF1] (AR v2)
Track 7 cannot be verified as accurate (confidence 7) [A72EE693], AccurateRip returned [12ADE076] (AR v2)
Track 8 cannot be verified as accurate (confidence 7) [EC36AC79], AccurateRip returned [A77681F9] (AR v2)
Track 9 cannot be verified as accurate (confidence 7) [D6E785CF], AccurateRip returned [3FBA0A9F] (AR v2)
Track 10 cannot be verified as accurate (confidence 7) [8733B418], AccurateRip returned [83590E35] (AR v2)
Track 11 cannot be verified as accurate (confidence 7) [5A4826C4], AccurateRip returned [EFBD7F8C] (AR v2)
Track 12 cannot be verified as accurate (confidence 7) [843011EA], AccurateRip returned [A9239C96] (AR v2)
Track 13 cannot be verified as accurate (confidence 7) [C380B9C9], AccurateRip returned [9C1C19F6] (AR v2)
No tracks could be verified as accurate
You may have a different pressing from the one(s) in the database
End of status report
---- CUETools DB Plugin V2.1.3
[CTDB TOCID: WP_mZGXxun3hYXZeMpKM9EYd0HY-] found, Submit result: WP_mZGXxun3hYXZeMpKM9EYd0HY- has been confirmed
[44c28219] (09/10) Accurately ripped
[71251cbd] (01/10) No match
==== Log checksum 9D3F151B40E4843238E78682D0C808BD11B36CC574327FAAE266FA98FDAB8B47 ====
Прoдолжительность: 00:50:47

1973 | Suzi Quatro (2011 | 7T's Records)

Страна-производитель диска: UK
Номер по каталогу: GLAM CD 118
Тип раздачи: tracks+.cue
Особенность релиза: Reissue, Remastered
Источник (релизер): SergeyJD
Треклист:
--------------------------

01. 48 Crash (3:56)
02. Glycerine Queen (3:49)
03. Shine My Machine (3:51)
04. Official Suburbian Superman (3:08)
05. I Wanna Be Your Man (3:20)
06. Primitive Love (4:15)
07. All Shook Up (3:51)
08. Sticks And Stones (3:42)
09. Skin Tight Skin (4:22)
10. Get Back Mama (5:57)
11. Rockin' Moonbeam (2:55)
12. Shakin' All Over (3:34)
13. Rolling Stone (2:47)
14. Brain Confusion (For All The Lonely People) (3:12)
15. Can The Can (3:36)
16. Ain't Ya Somethin' Honey (4:08)
17. Little Bitch Blue (3:27)
18. Daytona Demon (4:03)
19. Roman Fingers (3:49)
20. Ain't Got No Home (2:19)

Лог создания рипа

Exact Audio Copy V1.3 from 2. September 2016
EAC extraction logfile from 8. January 2018, 13:57
Suzi Quatro / Suzi Quatro (GLAM CD 118)
Used drive : ASUS BW-16D1HT Adapter: 1 ID: 0
Read mode : Secure
Utilize accurate stream : Yes
Defeat audio cache : Yes
Make use of C2 pointers : No
Read offset correction : 6
Overread into Lead-In and Lead-Out : No
Fill up missing offset samples with silence : Yes
Delete leading and trailing silent blocks : No
Null samples used in CRC calculations : Yes
Used interface : Native Win32 interface for Win NT & 2000
Gap handling : Appended to previous track
Used output format : User Defined Encoder
Selected bitrate : 1024 kBit/s
Quality : High
Add ID3 tag : No
Command line compressor : C:\Program Files (x86)\Exact Audio Copy\FLAC\FLAC.EXE
Additional command line options : -T "COMMENT=Ripped by SergeyJD for .org" -8 -V -T "ARTIST=%artist%" -T "TITLE=%title%" -T "ALBUM=%albumtitle%" -T "DATE=%year%" -T "TRACKNUMBER=%tracknr%" -T "GENRE=%genre%" %source%
TOC of the extracted CD
Track | Start | Length | Start sector | End sector
---------------------------------------------------------
1 | 0:00.00 | 3:55.46 | 0 | 17670
2 | 3:55.46 | 3:49.19 | 17671 | 34864
3 | 7:44.65 | 3:50.70 | 34865 | 52184
4 | 11:35.60 | 3:07.41 | 52185 | 66250
5 | 14:43.26 | 3:20.25 | 66251 | 81275
6 | 18:03.51 | 4:14.70 | 81276 | 100395
7 | 22:18.46 | 3:50.55 | 100396 | 117700
8 | 26:09.26 | 3:41.49 | 117701 | 134324
9 | 29:51.00 | 4:22.21 | 134325 | 153995
10 | 34:13.21 | 5:57.03 | 153996 | 180773
11 | 40:10.24 | 2:54.65 | 180774 | 193888
12 | 43:05.14 | 3:34.14 | 193889 | 209952
13 | 46:39.28 | 2:46.54 | 209953 | 222456
14 | 49:26.07 | 3:11.46 | 222457 | 236827
15 | 52:37.53 | 3:36.14 | 236828 | 253041
16 | 56:13.67 | 4:07.74 | 253042 | 271640
17 | 60:21.66 | 3:27.15 | 271641 | 287180
18 | 63:49.06 | 4:02.50 | 287181 | 305380
19 | 67:51.56 | 3:48.57 | 305381 | 322537
20 | 71:40.38 | 2:19.34 | 322538 | 332996
Track 1
Filename D:\РАЗДАЧИ!!!!\Suzi Quatro - Collection (4CD, 4CD Album) - 2011 - 2012\Suzi Quatro - Suzi Quatro (GLAM CD 118) - 2011\01 48 Crash.wav
Pre-gap length 0:00:02.00
Peak level 97.7 %
Extraction speed 4.6 X
Track quality 100.0 %
Test CRC 451D54BB
Copy CRC 451D54BB
Accurately ripped (confidence 19) [3A66DBEE] (AR v2)
Copy OK
Track 2
Filename D:\РАЗДАЧИ!!!!\Suzi Quatro - Collection (4CD, 4CD Album) - 2011 - 2012\Suzi Quatro - Suzi Quatro (GLAM CD 118) - 2011\02 Glycerine Queen.wav
Peak level 97.7 %
Extraction speed 5.0 X
Track quality 100.0 %
Test CRC 43523FE7
Copy CRC 43523FE7
Accurately ripped (confidence 19) [107307B3] (AR v2)
Copy OK
Track 3
Filename D:\РАЗДАЧИ!!!!\Suzi Quatro - Collection (4CD, 4CD Album) - 2011 - 2012\Suzi Quatro - Suzi Quatro (GLAM CD 118) - 2011\03 Shine My Machine.wav
Peak level 97.7 %
Extraction speed 5.4 X
Track quality 100.0 %
Test CRC 1026776B
Copy CRC 1026776B
Accurately ripped (confidence 19) [EE99B884] (AR v2)
Copy OK
Track 4
Filename D:\РАЗДАЧИ!!!!\Suzi Quatro - Collection (4CD, 4CD Album) - 2011 - 2012\Suzi Quatro - Suzi Quatro (GLAM CD 118) - 2011\04 Official Suburbian Superman.wav
Peak level 97.7 %
Extraction speed 4.4 X
Track quality 99.9 %
Test CRC 1278E51D
Copy CRC 1278E51D
Accurately ripped (confidence 19) [BDADD0BD] (AR v2)
Copy OK
Track 5
Filename D:\РАЗДАЧИ!!!!\Suzi Quatro - Collection (4CD, 4CD Album) - 2011 - 2012\Suzi Quatro - Suzi Quatro (GLAM CD 118) - 2011\05 I Wanna Be Your Man.wav
Peak level 97.7 %
Extraction speed 5.9 X
Track quality 100.0 %
Test CRC BE3BC880
Copy CRC BE3BC880
Accurately ripped (confidence 19) [4363E3E3] (AR v2)
Copy OK
Track 6
Filename D:\РАЗДАЧИ!!!!\Suzi Quatro - Collection (4CD, 4CD Album) - 2011 - 2012\Suzi Quatro - Suzi Quatro (GLAM CD 118) - 2011\06 Primitive Love.wav
Peak level 97.7 %
Extraction speed 5.3 X
Track quality 99.9 %
Test CRC 18D904EB
Copy CRC 18D904EB
Accurately ripped (confidence 19) [0D792907] (AR v2)
Copy OK
Track 7
Filename D:\РАЗДАЧИ!!!!\Suzi Quatro - Collection (4CD, 4CD Album) - 2011 - 2012\Suzi Quatro - Suzi Quatro (GLAM CD 118) - 2011\07 All Shook Up.wav
Peak level 97.7 %
Extraction speed 5.4 X
Track quality 99.9 %
Test CRC 88F68D8C
Copy CRC 88F68D8C
Accurately ripped (confidence 19) [3E37A592] (AR v2)
Copy OK
Track 8
Filename D:\РАЗДАЧИ!!!!\Suzi Quatro - Collection (4CD, 4CD Album) - 2011 - 2012\Suzi Quatro - Suzi Quatro (GLAM CD 118) - 2011\08 Sticks And Stones.wav
Peak level 97.7 %
Extraction speed 6.9 X
Track quality 100.0 %
Test CRC 70A8B8FC
Copy CRC 70A8B8FC
Accurately ripped (confidence 19) [C42E4D4A] (AR v2)
Copy OK
Track 9
Filename D:\РАЗДАЧИ!!!!\Suzi Quatro - Collection (4CD, 4CD Album) - 2011 - 2012\Suzi Quatro - Suzi Quatro (GLAM CD 118) - 2011\09 Skin Tight Skin.wav
Peak level 97.7 %
Extraction speed 6.1 X
Track quality 99.9 %
Test CRC A3213F1F
Copy CRC A3213F1F
Accurately ripped (confidence 19) [A14314B5] (AR v2)
Copy OK
Track 10
Filename D:\РАЗДАЧИ!!!!\Suzi Quatro - Collection (4CD, 4CD Album) - 2011 - 2012\Suzi Quatro - Suzi Quatro (GLAM CD 118) - 2011\10 Get Back Mama.wav
Peak level 97.7 %
Extraction speed 7.9 X
Track quality 100.0 %
Test CRC 6E8AE632
Copy CRC 6E8AE632
Accurately ripped (confidence 19) [012FE719] (AR v2)
Copy OK
Track 11
Filename D:\РАЗДАЧИ!!!!\Suzi Quatro - Collection (4CD, 4CD Album) - 2011 - 2012\Suzi Quatro - Suzi Quatro (GLAM CD 118) - 2011\11 Rockin' Moonbeam.wav
Peak level 97.7 %
Extraction speed 7.4 X
Track quality 100.0 %
Test CRC 3CFA95D6
Copy CRC 3CFA95D6
Accurately ripped (confidence 19) [0AAE7D5E] (AR v2)
Copy OK
Track 12
Filename D:\РАЗДАЧИ!!!!\Suzi Quatro - Collection (4CD, 4CD Album) - 2011 - 2012\Suzi Quatro - Suzi Quatro (GLAM CD 118) - 2011\12 Shakin' All Over.wav
Peak level 97.7 %
Extraction speed 7.9 X
Track quality 100.0 %
Test CRC 00B78DBF
Copy CRC 00B78DBF
Accurately ripped (confidence 19) [8CB64E6D] (AR v2)
Copy OK
Track 13
Filename D:\РАЗДАЧИ!!!!\Suzi Quatro - Collection (4CD, 4CD Album) - 2011 - 2012\Suzi Quatro - Suzi Quatro (GLAM CD 118) - 2011\13 Rolling Stone.wav
Peak level 97.7 %
Extraction speed 7.7 X
Track quality 100.0 %
Test CRC 772FD66E
Copy CRC 772FD66E
Accurately ripped (confidence 19) [AE95A333] (AR v2)
Copy OK
Track 14
Filename D:\РАЗДАЧИ!!!!\Suzi Quatro - Collection (4CD, 4CD Album) - 2011 - 2012\Suzi Quatro - Suzi Quatro (GLAM CD 118) - 2011\14 Brain Confusion (For All The Lonely People).wav
Peak level 97.7 %
Extraction speed 8.2 X
Track quality 100.0 %
Test CRC 0DA67971
Copy CRC 0DA67971
Accurately ripped (confidence 19) [D5788ED4] (AR v2)
Copy OK
Track 15
Filename D:\РАЗДАЧИ!!!!\Suzi Quatro - Collection (4CD, 4CD Album) - 2011 - 2012\Suzi Quatro - Suzi Quatro (GLAM CD 118) - 2011\15 Can The Can.wav
Peak level 97.7 %
Extraction speed 8.5 X
Track quality 100.0 %
Test CRC ABDE60ED
Copy CRC ABDE60ED
Accurately ripped (confidence 19) [3523EBB8] (AR v2)
Copy OK
Track 16
Filename D:\РАЗДАЧИ!!!!\Suzi Quatro - Collection (4CD, 4CD Album) - 2011 - 2012\Suzi Quatro - Suzi Quatro (GLAM CD 118) - 2011\16 Ain't Ya Somethin' Honey.wav
Peak level 97.7 %
Extraction speed 7.3 X
Track quality 99.9 %
Test CRC 3FB1E8D9
Copy CRC 3FB1E8D9
Accurately ripped (confidence 19) [433D38BD] (AR v2)
Copy OK
Track 17
Filename D:\РАЗДАЧИ!!!!\Suzi Quatro - Collection (4CD, 4CD Album) - 2011 - 2012\Suzi Quatro - Suzi Quatro (GLAM CD 118) - 2011\17 Little Bitch Blue.wav
Peak level 97.7 %
Extraction speed 8.8 X
Track quality 100.0 %
Test CRC 7023AE16
Copy CRC 7023AE16
Accurately ripped (confidence 19) [DA530A78] (AR v2)
Copy OK
Track 18
Filename D:\РАЗДАЧИ!!!!\Suzi Quatro - Collection (4CD, 4CD Album) - 2011 - 2012\Suzi Quatro - Suzi Quatro (GLAM CD 118) - 2011\18 Daytona Demon.wav
Peak level 97.7 %
Extraction speed 7.6 X
Track quality 99.9 %
Test CRC DC092411
Copy CRC DC092411
Accurately ripped (confidence 19) [8F551009] (AR v2)
Copy OK
Track 19
Filename D:\РАЗДАЧИ!!!!\Suzi Quatro - Collection (4CD, 4CD Album) - 2011 - 2012\Suzi Quatro - Suzi Quatro (GLAM CD 118) - 2011\19 Roman Fingers.wav
Peak level 97.7 %
Extraction speed 7.6 X
Track quality 99.9 %
Test CRC 4E9B3FBB
Copy CRC 4E9B3FBB
Accurately ripped (confidence 19) [779404C8] (AR v2)
Copy OK
Track 20
Filename D:\РАЗДАЧИ!!!!\Suzi Quatro - Collection (4CD, 4CD Album) - 2011 - 2012\Suzi Quatro - Suzi Quatro (GLAM CD 118) - 2011\20 Ain't Got No Home.wav
Peak level 97.7 %
Extraction speed 6.4 X
Track quality 99.9 %
Test CRC ABA73F45
Copy CRC ABA73F45
Accurately ripped (confidence 19) [84D21727] (AR v2)
Copy OK
All tracks accurately ripped
No errors occurred
End of status report
---- CUETools DB Plugin V2.1.6
[CTDB TOCID: y140E1Jq5Q49TzBBYiOVnUS0inM-] found
Submit result: y140E1Jq5Q49TzBBYiOVnUS0inM- has been confirmed
Track | CTDB Status
1 | (23/23) Accurately ripped
2 | (23/23) Accurately ripped
3 | (23/23) Accurately ripped
4 | (23/23) Accurately ripped
5 | (23/23) Accurately ripped
6 | (23/23) Accurately ripped
7 | (23/23) Accurately ripped
8 | (23/23) Accurately ripped
9 | (23/23) Accurately ripped
10 | (23/23) Accurately ripped
11 | (23/23) Accurately ripped
12 | (23/23) Accurately ripped
13 | (23/23) Accurately ripped
14 | (23/23) Accurately ripped
15 | (23/23) Accurately ripped
16 | (23/23) Accurately ripped
17 | (23/23) Accurately ripped
18 | (23/23) Accurately ripped
19 | (23/23) Accurately ripped
20 | (23/23) Accurately ripped
==== Log checksum 691366A7F8027B489172108EF6B53A22F4DA22A38892344D42B62CB2B41901FE ====
Прoдолжительность: 01:14:00

Об альбоме (сборнике):

Кто был самой первой «Королевой шума»? Конечно же, Сьюзи Кватро. Этот миниатюрный генератор из Детройта добился успеха среди царивших тогда мачо в мейкапе. К тому же, никому другому или другой так не шел облегающий кожаный комбинезон, как ей. Сьюзи Кватро в кожаном комбинезоне была с восторгом встречена тогдашним молодежным сообществом фанатов рок-музыки. Этот образ впоследствии стал примером для других женщин-музыкантов. Но это уже были лишь ее копии, хоть временами и вполне удачные.
Suzi Quatro — дебютный студийный альбом американской исполнительницы Сюзи Кватро, вышедший в октябре 1973 года на лейбле Rak Records. В Австралии, альбом увидел свет под заголовком «Can the Can».
Продюсерами альбома стали неоднократно сотрудничавшие с Сьюзи Майк Чэпмен и Никки Чинн, отточившие до этого своё мастерство на британской группе "Sweet".
Известно, что часть композиций была написана исполнительницей в соавторстве с гитаристом Ленни Таки. Частично это были кавер-версии уже популярных синглов, но основные хиты принадлежали тандему Чинн-Чепмен.
ИСТОРИЯ
Сюзи Куатро (настоящее имя Susan Kay Quatrocchio) родилась на родине рок-н-ролла, в Детройте, США - в семье музыкантов. Мать - венгерка. Ее отец Арт Куатроччио, итальянского происхождения, был джазовым музыкантом. В его группе Art Quatro Trio Сьюзи сделала свой дебют, когда ей было 8 лет. Согласно семейным традициям, ее обучали классическому фортепиано, однако Сюзи была бунтовщица и девчонка-сорванец и с 14 лет начала играть и петь рок-н-ролл под псевдонимом Сюзи Соул.
В 1964 году ее сестра Патти Куатро организовала группу The Pleasure Seekers - первая рок-н-ролльная банда, в которой участвовала Сюзи. Она была там главной вокалисткой и играла на басу. Ее первой бас-гитарой был Fender Precision 1957-го года, подаренный отцом. После несколько недель репетиций, Патти Куатро осмелилась попросить выступить в популярном ночном клубе Детройта The Hideout. Через пару недель им разрешили. С первого же вечера The Pleasure Seekers имели большой успех и активно влились в бурно процветавшую тогда музыкальную сцену Детройта. Одним из друзей Сюзи тогда стал Винсент Фюрнье - будущий Алис Купер.
Suzy Quatro в группе Pleasure Searchers
Группа базировалась в Детройте, но успешно гастролировала по всем Соединенным Штатам. В их программе были песни из битловских альбомов Sgt. Pepper и Magical Mystery Tour, а также репертуар детройтского лейбла Motown Records (R&B и соул чернокожих исполнителей). The Pleasure Seekers позже переименовались в Cradle, в группе кроме Патти и Сюзи собрались их подросшие младшие сестры - Нэнси и Арлен. Они выпустили несколько синглов, в 1967 ездили во Вьетнам и в госпиталь на острове Гуам развлекать войска.
В 1971 году известный британский продюссер Микки Мост записывал в Детройте Джеффа Бека и увидел на концерте группу Cradle. Группа к тому времени потихоньку рассыпалась, и Микки предложил Сюзи уехать с ним в Англию, обещая сделать из нее звезду. В конце 1971-го Сюзи прибыла в Лондон с чемоданом в одной и бас-гитарой в другой руке. Два года она упорно писала песни и записывалась у Микки Моста на его лейбле RAK Records. Первый сингл с песней "Rolling Stone" провалился повсюду, кроме Португалии, где он, на удивление, стал хитом №1. К тому времени Сюзи собрала собственную группу и горела желанием гастролировать.
Suzy QuatroКогда Мост подписал себе на фирму двух новых сочинителей песен Мика Чапмэна и Никки Чинна, они написали для Сюзи ее первый хит "Can the Can", который стал в 1973 году №1 в хит-парадах Соединенного Королевства, Японии, Австралии и многих европейских стран. На тот момент Suzy Quatro стала одной из первых женщин-рокерш, покоривших чарт-Олимп. Затем был еще мегахит - "48 Crash" и другие. Когда Сюзи приехала на свои первые гастроли по Австралии, в аэропорту ее встретила банда байкеров "Ангелы ада" и проводила торжественным эскортом до гостиницы в Мельбурне.
Сюзи вскоре быстро стала знаменитой с ее боевым кожаным - в обтяжку - прикидом и забойным уличным рок-н-роллом. Ее первое появление в популярнейшей в Англии музыкальной телепередаче Top Of The Pops бросило в дрожь и трепет родителей по всей стране: затянутая в черную кожу блондинка ростом чуть выше полтора метра потрясала здоровенной бас-гитарой с тремя крепкими парнями за спиной, а когда она заорала свою "Can the Can" голосом в тысячу децибелл, можно было подумать, что перед вами атаманша молодежной банды, которую вы повстречали ночью в темной аллее.
Сюзи написала много песен в соавторстве со своим бессменным гитаристом Леном Такки, за которого в 1976 году вышла замуж. Сюзи показала недюжинный талант переделывать на свой манер старые добрые рок-н-ролльные хиты, жарко вдыхая в них новую жизнь. Ее версия, например, "I Wanna Be Your Man" заставляет забыть, что Битлз написали эту песню для Роллинг Стоунз. А когда Сюзи записала кавер песни Элвиса Пресли "All Shook Up", Королю Рок-н-Ролла так понравился этот вариант, что он пригласил певицу к себе в Грэйсланд, но Сьюзи отказалась. "Я была не готова к встрече с ним", - прокомментировала позже Сьюзи. - "У меня было в то время всего три хита."
Альбом Suzy Quatro - это сплошной рок-н-ролльный драйв, золотой фонд рок-меломана.

Line-up / Musicians:
- Suzi Quatro / Bass and Lead Vocals
- Len Tuckey / Guitar, Slide Guitar and Backing Vocals
- Alastair McKenzie / Electric Piano, Grand Piano, Mellotron and Backing Vocals
- Dave Neal / Drums and Backing Vocals

Producer – Mike Chapman, Nicky Chinn
All tracks composed by Suzi Quatro and Len Tuckey, except where indicated.
Notes:
Released: October 1973
Produced by Mike Chapman & Nicky Chinn
Engineer: Pete Coleman
Mastered by: Chris Blair at EMI Studios, Abbey Road
Cover photograph by: Gered Mankowitz
Label: (p) 1973 RAK Records Ltd.
Dynamic Range: DR12 / DR8

1974 | Quatro

1974 | Quatro (1990 | Toshiba-EMI Ltd.)

Страна-производитель диска: Japan
Номер по каталогу: TOCP-6396
Тип раздачи: image+.cue
Особенность релиза: Series: Pastmasters II
Источник (релизер): kurok79
Треклист:
--------------------------

01. The Wild One (2:55)
02. Keep A-Knocking (3:17)
03. Too Big (3:24)
04. Klondyke Kate (3:32)
05. Savage Silk (3:38)
06. Move It (3:40)
07. Hit The Road Jack (4:00)
08. Trouble (3:48)
09. Cat Size (4:40)
10. Shot Of Rhythm And Blues (4:55)
11. Friday (3:53)
12. Devil Gate Drive (3:48)

Лог создания рипа

Exact Audio Copy V0.99 prebeta 5 from 4. May 2009
Отчёт EAC об извлечении, выполненном 22. декабря 2010, 21:06
Suzi Quatro / Quatro
Дисковод: HL-DT-STDVDRAM GSA-T20N Adapter: 1 ID: 0
Режим чтения : Достоверность
Использование точного потока : Да
Отключение кэша аудио : Да
Использование указателей C2 : Нет
Коррекция смещения при чтении : 667
Способность читать области Lead-in и Lead-out : Нет
Заполнение пропущенных сэмплов тишиной : Да
Удаление блоков с тишиной в начале и конце : Нет
При вычислениях CRC использовались нулевые сэмплы : Да
Интерфейс : Встроенный Win32-интерфейс для Win NT/2000
Выходной формат : Пользовательский кодировщик
Выбранный битрейт : 768 kBit/s
Качество : Высокий
Добавление ID3-тэга : Нет
Утилита сжатия : C:\Program Files\Exact Audio Copy\FLAC\FLAC.EXE
Дополнительные параметры : -8 -V %s
TOC извлечённого CD
Трек | Старт | Длительность | Начальный сектор | Конечный сектор
---------------------------------------------------------------------
1 | 0:00.00 | 2:55.05 | 0 | 13129
2 | 2:55.05 | 3:16.60 | 13130 | 27889
3 | 6:11.65 | 3:24.20 | 27890 | 43209
4 | 9:36.10 | 3:32.02 | 43210 | 59111
5 | 13:08.12 | 3:38.13 | 59112 | 75474
6 | 16:46.25 | 3:39.55 | 75475 | 91954
7 | 20:26.05 | 4:00.30 | 91955 | 109984
8 | 24:26.35 | 3:48.32 | 109985 | 127116
9 | 28:14.67 | 4:40.08 | 127117 | 148124
10 | 32:55.00 | 4:55.07 | 148125 | 170256
11 | 37:50.07 | 3:53.33 | 170257 | 187764
12 | 41:43.40 | 3:48.27 | 187765 | 204891
Характеристики диапазона извлечения и сообщения об ошибках
Выбранный диапазон
Имя файла D:\uTorrent.compl\Suzi Quatro - 'Suzi Quatro' 1973, 'Quatro' 1974, 'Aggro-Phobia' 1976 ( Japan 1st Press )\'Quatro' 1974 ( 1990 TOSHIBA-EMI TOCP-6396 )\Suzi Quatro - Quatro.wav
Пиковый уровень 100.0 %
Качество диапазона 99.9 %
CRC теста D5557F24
CRC копии D5557F24
Копирование... OK
Ошибок не произошло
AccurateRip: сводка
Трек 1 точность не определена (достоверность 4) [48E3EA93], AccurateRip вернул [4E0C3EFB]
Трек 2 точность не определена (достоверность 4) [E1394F01], AccurateRip вернул [1B19F469]
Трек 3 точность не определена (достоверность 4) [7CDC37E3], AccurateRip вернул [0DA6C50F]
Трек 4 точность не определена (достоверность 4) [0DA62428], AccurateRip вернул [BDBD5944]
Трек 5 точность не определена (достоверность 4) [160A675B], AccurateRip вернул [6185A80B]
Трек 6 точность не определена (достоверность 4) [6C9F53E1], AccurateRip вернул [E0EC4C71]
Трек 7 точность не определена (достоверность 4) [C8CAD41A], AccurateRip вернул [18598316]
Трек 8 точность не определена (достоверность 4) [D409F6B2], AccurateRip вернул [CDD270CE]
Трек 9 точность не определена (достоверность 4) [FAA1F969], AccurateRip вернул [E5ECE595]
Трек 10 точность не определена (достоверность 4) [4E766E2C], AccurateRip вернул [43A96E44]
Трек 11 точность не определена (достоверность 4) [AE522293], AccurateRip вернул [58D11E1F]
Трек 12 точность не определена (достоверность 4) [D79D2D7E], AccurateRip вернул [4F2A401F]
Ни один трек не прошёл проверки на точность
В вашей базе может быть иной вариант штамповки диска
Конец отчёта
Прoдолжительность: 00:45:32

1974 | Quatro (Not On Label (Suzi Quatro))

[img=right]https://funkyimg.com/i/2UM2B.jpg[/img]
Страна-производитель диска: Russia
Номер по каталогу: ‎GRCD 014
Тип раздачи: tracks+.cue
Особенность релиза: Unofficial Release, non-remastered CD release
Источник (релизер): olisichkin
Треклист:
--------------------------

01. The Wild One (2:54)
02. Keep A-Knocking (3:17)
03. Too Big (3:24)
04. Klondyke Kate (3:32)
05. Savage Silk (3:38)
06. Move It (3:40)
07. Hit The Road Jack (4:01)
08. Trouble (3:48)
09. Cat Size (4:40)
10. Shot Of Rhythm And Blues (4:55)
11. Friday (3:53)
12. Devil Gate Drive (3:50)

Лог создания рипа

Код:
Exact Audio Copy V1.0 beta 1 from 15. November 2010
EAC extraction logfile from 9. March 2011, 10:26
Suzi Quatro / Quatro
Used drive  : MATSHITADVD-RAM UJ-860   Adapter: 1  ID: 0
Read mode               : Secure
Utilize accurate stream : Yes
Defeat audio cache      : Yes
Make use of C2 pointers : No
Read offset correction                      : 102
Overread into Lead-In and Lead-Out          : No
Fill up missing offset samples with silence : Yes
Delete leading and trailing silent blocks   : No
Null samples used in CRC calculations       : Yes
Used interface                              : Native Win32 interface for Win NT & 2000
Gap handling                                : Appended to previous track
Used output format              : User Defined Encoder
Selected bitrate                : 1024 kBit/s
Quality                         : High
Add ID3 tag                     : No
Command line compressor         : C:\Program Files\Exact Audio Copy\FLAC\FLAC.EXE
Additional command line options : -8 -V -T "ARTIST=%a" -T "TITLE=%t" -T "ALBUM=%g" -T "DATE=%y" -T "TRACKNUMBER=%n" -T "GENRE=%m" -T "COMMENT=EAC FLAC -8" %s
TOC of the extracted CD
Track |   Start  |  Length  | Start sector | End sector
---------------------------------------------------------
1  |  0:00.25 |  2:54.25 |        25    |    13099
2  |  2:54.50 |  3:16.50 |     13100    |    27849
3  |  6:11.25 |  3:24.25 |     27850    |    43174
4  |  9:35.50 |  3:32.00 |     43175    |    59074
5  | 13:07.50 |  3:38.12 |     59075    |    75436
6  | 16:45.62 |  3:39.38 |     75437    |    91899
7  | 20:25.25 |  4:00.50 |     91900    |   109949
8  | 24:26.00 |  3:48.25 |    109950    |   127074
9  | 28:14.25 |  4:40.00 |    127075    |   148074
10  | 32:54.25 |  4:55.00 |    148075    |   170199
11  | 37:49.25 |  3:53.37 |    170200    |   187711
12  | 41:42.62 |  3:49.38 |    187712    |   204924
Track  1
Filename C:\My torrents\Suzi Quatro - Quatro (1974) [FLAC (tracks+.cue)]\01 - The Wild One.wav
Pre-gap length  0:00:02.33
Peak level 72.4 %
Extraction speed 0.8 X
Track quality 99.9 %
Test CRC 6B290045
Copy CRC 6B290045
Accurately ripped (confidence 1)  [275D6B6A]
Copy OK
Track  2
Filename C:\My torrents\Suzi Quatro - Quatro (1974) [FLAC (tracks+.cue)]\02 - Keep A-Knocking.wav
Pre-gap length  0:00:02.33
Peak level 71.8 %
Extraction speed 1.0 X
Track quality 100.0 %
Test CRC E2D4699A
Copy CRC E2D4699A
Cannot be verified as accurate (confidence 1)  [0FD83022], AccurateRip returned [9E5F061A]
Copy OK
Track  3
Filename C:\My torrents\Suzi Quatro - Quatro (1974) [FLAC (tracks+.cue)]\03 - Too Big.wav
Pre-gap length  0:00:02.33
Peak level 71.3 %
Extraction speed 1.0 X
Track quality 100.0 %
Test CRC 3700D0CA
Copy CRC 3700D0CA
Cannot be verified as accurate (confidence 1)  [E448984C], AccurateRip returned [7C443B7A]
Copy OK
Track  4
Filename C:\My torrents\Suzi Quatro - Quatro (1974) [FLAC (tracks+.cue)]\04 - Klondyke Kate.wav
Pre-gap length  0:00:02.66
Peak level 65.9 %
Extraction speed 1.1 X
Track quality 100.0 %
Test CRC 9DD18657
Copy CRC 9DD18657
Accurately ripped (confidence 1)  [61370D15]
Copy OK
Track  5
Filename C:\My torrents\Suzi Quatro - Quatro (1974) [FLAC (tracks+.cue)]\05 - Savage Silk.wav
Pre-gap length  0:00:02.33
Peak level 63.4 %
Extraction speed 1.0 X
Track quality 99.9 %
Test CRC 4FBA5136
Copy CRC 4FBA5136
Accurately ripped (confidence 1)  [24AE6F59]
Copy OK
Track  6
Filename C:\My torrents\Suzi Quatro - Quatro (1974) [FLAC (tracks+.cue)]\06 - Move It.wav
Pre-gap length  0:00:02.49
Peak level 68.1 %
Extraction speed 1.0 X
Track quality 99.9 %
Test CRC 4521EB38
Copy CRC 4521EB38
Accurately ripped (confidence 1)  [1A7BD8C0]
Copy OK
Track  7
Filename C:\My torrents\Suzi Quatro - Quatro (1974) [FLAC (tracks+.cue)]\07 - Hit The Road Jack.wav
Pre-gap length  0:00:02.00
Peak level 77.8 %
Extraction speed 1.2 X
Track quality 100.0 %
Test CRC 115040C1
Copy CRC 115040C1
Accurately ripped (confidence 1)  [CF0DA362]
Copy OK
Track  8
Filename C:\My torrents\Suzi Quatro - Quatro (1974) [FLAC (tracks+.cue)]\08 - Trouble.wav
Pre-gap length  0:00:02.33
Peak level 70.7 %
Extraction speed 1.2 X
Track quality 100.0 %
Test CRC 56C00579
Copy CRC 56C00579
Accurately ripped (confidence 1)  [C586A180]
Copy OK
Track  9
Filename C:\My torrents\Suzi Quatro - Quatro (1974) [FLAC (tracks+.cue)]\09 - Cat Size.wav
Pre-gap length  0:00:02.66
Peak level 68.0 %
Extraction speed 1.3 X
Track quality 100.0 %
Test CRC D172A491
Copy CRC D172A491
Accurately ripped (confidence 1)  [5D0EC09B]
Copy OK
Track 10
Filename C:\My torrents\Suzi Quatro - Quatro (1974) [FLAC (tracks+.cue)]\10 - Shot Of Rhythm And Blues.wav
Pre-gap length  0:00:02.33
Peak level 79.2 %
Extraction speed 1.3 X
Track quality 100.0 %
Test CRC 8E70EF2E
Copy CRC 8E70EF2E
Accurately ripped (confidence 1)  [6A5E0EB0]
Copy OK
Track 11
Filename C:\My torrents\Suzi Quatro - Quatro (1974) [FLAC (tracks+.cue)]\11 - Friday.wav
Pre-gap length  0:00:02.33
Peak level 77.8 %
Extraction speed 1.3 X
Track quality 100.0 %
Test CRC 92AFFB1E
Copy CRC 92AFFB1E
Accurately ripped (confidence 1)  [8F9885E5]
Copy OK
Track 12
Filename C:\My torrents\Suzi Quatro - Quatro (1974) [FLAC (tracks+.cue)]\12 - Devil Gate Drive.wav
Pre-gap length  0:00:02.16
Peak level 80.3 %
Extraction speed 1.3 X
Track quality 100.0 %
Test CRC 44FD699F
Copy CRC 44FD699F
Accurately ripped (confidence 1)  [15C4D3A0]
Copy OK
10 track(s) accurately ripped
2 track(s) could not be verified as accurate
Some tracks could not be verified as accurate
No errors occurred
End of status report
==== Log checksum B12A384AD0BBA2B76F4390B9DDA79DF9A9804B65AE80B71FC3DD5A64EEB68E70 ====
Прoдолжительность: 00:45:32

1974 | Quatro (2011 | 7T's Records)

Страна-производитель диска: UK
Номер по каталогу: GLAM CD 119
Тип раздачи: tracks+.cue
Особенность релиза: Reissue, Remastered
Источник (релизер): SergeyJD
Треклист:
--------------------------

01. The Wild One (3:47)
02. Keep A Knockin' (3:14)
03. Too Big (3:22)
04. Klondyke Kate (3:30)
05. Savage Silk (3:36)
06. Move It (3:38)
07. Hit The Road Jack (3:57)
08. Trouble (3:46)
09. Cat Size (4:37)
10. A Shot Of Rhythm & Blues (4:53)
11. Friday (3:52)
12. Devil Gate Drive (3:49)
13. In The Morning (2:38)
14. I Wanna Be Free (3:12)
15. The Wild One (Single Version) (2:54)
16. Shake My Sugar (3:59)

Лог создания рипа

Exact Audio Copy V1.3 from 2. September 2016
EAC extraction logfile from 8. January 2018, 14:51
Suzi Quatro / Quatro (GLAM CD 119)
Used drive : ASUS BW-16D1HT Adapter: 1 ID: 0
Read mode : Secure
Utilize accurate stream : Yes
Defeat audio cache : Yes
Make use of C2 pointers : No
Read offset correction : 6
Overread into Lead-In and Lead-Out : No
Fill up missing offset samples with silence : Yes
Delete leading and trailing silent blocks : No
Null samples used in CRC calculations : Yes
Used interface : Native Win32 interface for Win NT & 2000
Gap handling : Appended to previous track
Used output format : User Defined Encoder
Selected bitrate : 1024 kBit/s
Quality : High
Add ID3 tag : No
Command line compressor : C:\Program Files (x86)\Exact Audio Copy\FLAC\FLAC.EXE
Additional command line options : -T "COMMENT=Ripped by SergeyJD for .org" -8 -V -T "ARTIST=%artist%" -T "TITLE=%title%" -T "ALBUM=%albumtitle%" -T "DATE=%year%" -T "TRACKNUMBER=%tracknr%" -T "GENRE=%genre%" %source%
TOC of the extracted CD
Track | Start | Length | Start sector | End sector
---------------------------------------------------------
1 | 0:00.00 | 3:46.66 | 0 | 17015
2 | 3:46.66 | 3:14.14 | 17016 | 31579
3 | 7:01.05 | 3:22.11 | 31580 | 46740
4 | 10:23.16 | 3:30.19 | 46741 | 62509
5 | 13:53.35 | 3:36.08 | 62510 | 78717
6 | 17:29.43 | 3:37.51 | 78718 | 95043
7 | 21:07.19 | 3:57.13 | 95044 | 112831
8 | 25:04.32 | 3:45.39 | 112832 | 129745
9 | 28:49.71 | 4:37.24 | 129746 | 150544
10 | 33:27.20 | 4:53.07 | 150545 | 172526
11 | 38:20.27 | 3:51.53 | 172527 | 189904
12 | 42:12.05 | 3:48.70 | 189905 | 207074
13 | 46:01.00 | 2:37.61 | 207075 | 218910
14 | 48:38.61 | 3:11.48 | 218911 | 233283
15 | 51:50.34 | 2:53.47 | 233284 | 246305
16 | 54:44.06 | 3:58.57 | 246306 | 264212
Track 1
Filename D:\РАЗДАЧИ!!!!\Suzi Quatro - Collection (4CD, 4CD Album) - 2011 - 2012\Suzi Quatro - Quatro (GLAM CD 119) - 2011\01 The Wild One.wav
Pre-gap length 0:00:02.00
Peak level 97.7 %
Extraction speed 2.0 X
Track quality 100.0 %
Test CRC 08E9090A
Copy CRC 08E9090A
Accurately ripped (confidence 7) [08BFFD90] (AR v2)
Copy OK
Track 2
Filename D:\РАЗДАЧИ!!!!\Suzi Quatro - Collection (4CD, 4CD Album) - 2011 - 2012\Suzi Quatro - Quatro (GLAM CD 119) - 2011\02 Keep A Knockin'.wav
Peak level 97.7 %
Extraction speed 1.5 X
Track quality 99.9 %
Test CRC 2247ADC1
Copy CRC 2247ADC1
Accurately ripped (confidence 7) [D61C6B79] (AR v2)
Copy OK
Track 3
Filename D:\РАЗДАЧИ!!!!\Suzi Quatro - Collection (4CD, 4CD Album) - 2011 - 2012\Suzi Quatro - Quatro (GLAM CD 119) - 2011\03 Too Big.wav
Peak level 97.7 %
Extraction speed 1.6 X
Track quality 99.9 %
Test CRC 7571951A
Copy CRC 7571951A
Accurately ripped (confidence 7) [7B427041] (AR v2)
Copy OK
Track 4
Filename D:\РАЗДАЧИ!!!!\Suzi Quatro - Collection (4CD, 4CD Album) - 2011 - 2012\Suzi Quatro - Quatro (GLAM CD 119) - 2011\04 Klondyke Kate.wav
Peak level 97.7 %
Extraction speed 2.5 X
Track quality 100.0 %
Test CRC C2DF1B69
Copy CRC C2DF1B69
Accurately ripped (confidence 7) [E6135288] (AR v2)
Copy OK
Track 5
Filename D:\РАЗДАЧИ!!!!\Suzi Quatro - Collection (4CD, 4CD Album) - 2011 - 2012\Suzi Quatro - Quatro (GLAM CD 119) - 2011\05 Savage Silk.wav
Peak level 97.7 %
Extraction speed 1.9 X
Track quality 99.9 %
Test CRC 5212682D
Copy CRC 5212682D
Accurately ripped (confidence 7) [B28713F1] (AR v2)
Copy OK
Track 6
Filename D:\РАЗДАЧИ!!!!\Suzi Quatro - Collection (4CD, 4CD Album) - 2011 - 2012\Suzi Quatro - Quatro (GLAM CD 119) - 2011\06 Move It.wav
Peak level 97.7 %
Extraction speed 2.8 X
Track quality 100.0 %
Test CRC 8A471C07
Copy CRC 8A471C07
Accurately ripped (confidence 7) [0D66843F] (AR v2)
Copy OK
Track 7
Filename D:\РАЗДАЧИ!!!!\Suzi Quatro - Collection (4CD, 4CD Album) - 2011 - 2012\Suzi Quatro - Quatro (GLAM CD 119) - 2011\07 Hit The Road Jack.wav
Peak level 97.7 %
Extraction speed 3.0 X
Track quality 100.0 %
Test CRC BBF52FA8
Copy CRC BBF52FA8
Accurately ripped (confidence 7) [8A823490] (AR v2)
Copy OK
Track 8
Filename D:\РАЗДАЧИ!!!!\Suzi Quatro - Collection (4CD, 4CD Album) - 2011 - 2012\Suzi Quatro - Quatro (GLAM CD 119) - 2011\08 Trouble.wav
Peak level 97.7 %
Extraction speed 3.0 X
Track quality 100.0 %
Test CRC 072865BB
Copy CRC 072865BB
Accurately ripped (confidence 7) [2B66E5F4] (AR v2)
Copy OK
Track 9
Filename D:\РАЗДАЧИ!!!!\Suzi Quatro - Collection (4CD, 4CD Album) - 2011 - 2012\Suzi Quatro - Quatro (GLAM CD 119) - 2011\09 Cat Size.wav
Peak level 97.7 %
Extraction speed 3.3 X
Track quality 100.0 %
Test CRC FEC3B058
Copy CRC FEC3B058
Accurately ripped (confidence 7) [3661E4C0] (AR v2)
Copy OK
Track 10
Filename D:\РАЗДАЧИ!!!!\Suzi Quatro - Collection (4CD, 4CD Album) - 2011 - 2012\Suzi Quatro - Quatro (GLAM CD 119) - 2011\10 A Shot Of Rhythm & Blues.wav
Peak level 97.7 %
Extraction speed 3.5 X
Track quality 100.0 %
Test CRC A4757A63
Copy CRC A4757A63
Accurately ripped (confidence 7) [BA4E2F1F] (AR v2)
Copy OK
Track 11
Filename D:\РАЗДАЧИ!!!!\Suzi Quatro - Collection (4CD, 4CD Album) - 2011 - 2012\Suzi Quatro - Quatro (GLAM CD 119) - 2011\11 Friday.wav
Peak level 97.7 %
Extraction speed 2.6 X
Track quality 99.9 %
Test CRC DD9C7273
Copy CRC DD9C7273
Accurately ripped (confidence 7) [B0DC38CE] (AR v2)
Copy OK
Track 12
Filename D:\РАЗДАЧИ!!!!\Suzi Quatro - Collection (4CD, 4CD Album) - 2011 - 2012\Suzi Quatro - Quatro (GLAM CD 119) - 2011\12 Devil Gate Drive.wav
Peak level 97.7 %
Extraction speed 3.7 X
Track quality 100.0 %
Test CRC 5B43099D
Copy CRC 5B43099D
Accurately ripped (confidence 7) [F6F39BF4] (AR v2)
Copy OK
Track 13
Filename D:\РАЗДАЧИ!!!!\Suzi Quatro - Collection (4CD, 4CD Album) - 2011 - 2012\Suzi Quatro - Quatro (GLAM CD 119) - 2011\13 In The Morning.wav
Peak level 97.7 %
Extraction speed 3.5 X
Track quality 100.0 %
Test CRC 624988AF
Copy CRC 624988AF
Accurately ripped (confidence 7) [8BEC3D80] (AR v2)
Copy OK
Track 14
Filename D:\РАЗДАЧИ!!!!\Suzi Quatro - Collection (4CD, 4CD Album) - 2011 - 2012\Suzi Quatro - Quatro (GLAM CD 119) - 2011\14 I Wanna Be Free.wav
Peak level 97.7 %
Extraction speed 3.7 X
Track quality 100.0 %
Test CRC 53B6C4E0
Copy CRC 53B6C4E0
Accurately ripped (confidence 7) [19BD279F] (AR v2)
Copy OK
Track 15
Filename D:\РАЗДАЧИ!!!!\Suzi Quatro - Collection (4CD, 4CD Album) - 2011 - 2012\Suzi Quatro - Quatro (GLAM CD 119) - 2011\15 The Wild One (Single Version).wav
Peak level 97.7 %
Extraction speed 2.5 X
Track quality 99.9 %
Test CRC 510F0335
Copy CRC 510F0335
Accurately ripped (confidence 7) [24B295BC] (AR v2)
Copy OK
Track 16
Filename D:\РАЗДАЧИ!!!!\Suzi Quatro - Collection (4CD, 4CD Album) - 2011 - 2012\Suzi Quatro - Quatro (GLAM CD 119) - 2011\16 Shake My Sugar.wav
Peak level 97.7 %
Extraction speed 4.0 X
Track quality 100.0 %
Test CRC 4A17CDC1
Copy CRC 4A17CDC1
Accurately ripped (confidence 7) [AFD7841A] (AR v2)
Copy OK
All tracks accurately ripped
No errors occurred
End of status report
---- CUETools DB Plugin V2.1.6
[CTDB TOCID: AZfeAQ3KiOufDO5_gDcWEsBFYBw-] found
Submit result: AZfeAQ3KiOufDO5_gDcWEsBFYBw- has been confirmed
Track | CTDB Status
1 | (18/18) Accurately ripped
2 | (18/18) Accurately ripped
3 | (18/18) Accurately ripped
4 | (18/18) Accurately ripped
5 | (18/18) Accurately ripped
6 | (18/18) Accurately ripped
7 | (18/18) Accurately ripped
8 | (18/18) Accurately ripped
9 | (18/18) Accurately ripped
10 | (18/18) Accurately ripped
11 | (18/18) Accurately ripped
12 | (18/18) Accurately ripped
13 | (18/18) Accurately ripped
14 | (18/18) Accurately ripped
15 | (18/18) Accurately ripped
16 | (18/18) Accurately ripped
==== Log checksum B01FD3C3A1ABE9474F11CD7124279456ACACC4F00F1C668CCB44B9B1F2209CFA ====
Прoдолжительность: 00:58:43

Об альбоме (сборнике):

"Quatro" - второй студийный альбом англо-американской певицы, композитора и бас-гитаристки Сюзи Кватро, выпушенный в октябре 1974 года на RAK Records в Англии и некоторых других европейских странах, на EMI Electrola - в Германии, EMI Columbia - в Италии, Bell Records - в США и Канаде, в Австралии – на лейбле EMI RAK (номер 8319792).
На протяжении 6 недель диск был на вершине австралийских чартов и очень хорошо продавался в Австралии. В Норвегии альбом оказался на пятом месте в чартах, в Германии на пятнадцатом, в Новой Зеландии на шестнадцатом. В том же году альбом вошёл в список двухсот лучших альбомов «The Billboard 200 Albums Chart», заняв в нём 126 место. В США, диск вошёл в список топ-150. Запись пластинки проходила в Лондоне, на студии Audio International studio. Продюсерами альбома снова, как и в случае с дебютным альбомом, выступили Майк Чэпмен и Никки Чинн.
В оригинальной британской версии альбома нет песни "Devil Gate Drive", что не помешало добавить её в версии альбома, выходивших в других странах. На американском выпуске композиция "The Wild One" появилась в совершенно другом, блюзовом варианте.
Мне кажется, что в рок музыке есть только один безукоризненный исполнитель, это Сюзи Кватро в альбоме 1974 года "Quatro". И вообще, судя по клипам и фотографиям, это какое-то образцовое существо, я не заметил ни капли пошлости, ни фальши (удивительно). Непонятно, как можно было среди всех этих марихуан, свободных любовей, дринков иметь такой чистый образ. Это настоящее воплощение юности и чистоты.
Как рассказывала Сюзи, по контракту с RAK Records, она должна была обеспечивать 50% песен в альбоме. "К большой моей досаде, на этом альбоме так не получилось. Мы записали, я считаю, одну из самых лучших наших песен - семиминутный "Angel Flight" (Полет ангела) - эпос о смене времен года, в прекрасной оркестровке, великолепный номер, выходящий за рамки своего времени, напоминающий группу Queen. Чапмэн тут постарался на записи, а мы все расправили свои творческие крылышки.
Но этому "Ангелу" не суждено было полететь. В это время в Англию приехали люди из немецкого преставительства EMI, чтобы познакомиться с намечаемой новой продукцией, и им прокрутили эту вещь. Конечно, это было не типично для Сюзи Кватро, и это их смутило. Глядя на их реакцию, Микки решил не включать этот номер в альбом и вообще пересмотреть то, что мы записали. Он решил, что еще рановато менять наш стиль так радикально. Я до сих пор думаю, что он сделал тогда большую ошибку, и этот номер просто потряс бы как публику, так и критиков и поднял бы нас на новый уровень. (Эту песню можно послушать в альбоме As and Bs and Rarities, вышедшем на EMI в 2004 году.)"
В итоге, в альбом вошли только три песни сочинения Сюзи и ее мужа - гитариста Лена Такки - "Klondyke Kate" ("Катя Клондайк"), "Cat Size" ("Размером с кошку") и "Friday" ("Пятница"). Несколько хитов команды Чинн-Чапмэн - "The Wild One", например. Причем Микки Мост, с его боязнью что-либо менять, поместил сюда медленный вариант этой песни. Сюзи и Лену понадобились усилия, чтобы убедить Моста издать более быструю версию, и она стала хитом.
"Devil Gate Drive" вышла еще в начале 1974 года на сорокопятке и стала вторым и последним для Сюзи Кватро хитом №1 в Британии. Это был второй хит №1 для начинающей команды Чинн-Чапмэн, первым стала для них песня в исполнении группы Mud "Tiger Feet".
Из каверов здесь представлены классические "Hit the Road Jack" (Катись отсюда, Джек), например. Эту песню сочинил и записал в 1960 году в исполнении а-капелла ритм-н-блюзовый музыкант Перси Мэфилд, но она стала особенно популярной в исполнении Рэя Чарльза и Марджи Хендрикс. Песня представляет собой комичный диалог между мужчиной и женщиной. Последняя прогоняет его, сытая по горло пустыми обещаниями. Мужчина упрашивает ее оставить все как есть, но она непреклонна: "Катись отсюда, Джек, ведь это же ясно, у тебя нет денег и вообще в тебе нет ничего хорошего." В записи Рэя Чарльза "Hit the Road Jack" получила в 1961 году премию Грэмми, а журнал Rolling Stone включил ее в список 500 лучших песен всех времен (№ 387).
В альбоме есть еще одна песня из этого списка - "Keep A-Knockin'" (Продолжай стучаться, но я не разрешаю входить). Это вообще старая, весьма популярная песня конца 1920-х годов, которая обрела новую жизнь в сентябре 1957, когда ее записал известный рок-н-ролльщик Литтл Ричард. Песня была большим хитом и породила с тех пор массу каверов. Она стоит под номером 442 в том же списке Rolling Stone. Вступление на барабанах, которое сыграл на записи Литтл Ричарда ударник Чарльз Коннор вдохновило Джона Бонэма из Led Zeppelin на вступление к песне "Rock and Roll" в альбоме Led Zeppelin IV.
Песню "Trouble" (Проблемы) записал в 1958 году Элвис Пресли, это одна из песен творческого тандема Джерри Лайбер - Майк Столлер, который регулярно снабжал короля рок-н-ролла хитами. Элвис исполнил эту песню в фильме King Creole, вышедшем на экраны в 1968 году, потом она вышла в одноименном альбоме-саундтреке.

Line-up / Musicians:
- Suzi Quatro / Bass guitar and Lead Vocals
- Len Tuckey / Guitars and Backing Vocals
- Alastair Mc Kenzie / Keyboards and Backing Vocals
- Dave Neal / Drums and Backing Vocals

Written-By – Chinn And Chapman (tracks: 1, 3, 5, 12), Ian Samwell (tracks: 6), Leiber & Stoller (tracks: 8), Len Tuckey (tracks: 4, 9, 11), Percy Mayfield (tracks: 7), Richard Penniman (tracks: 2), Suzi Quatro (tracks: 4, 9, 10), Terry Thompson (2) (tracks: 10)
Released: October 1974
Produced by Mike Chapman & Nicky Chinn
Recorded at Audio International Studios, London
Label: Rak Records
Dynamic Range: 11 / 8

1975 | Your Mamma Won't Like Me

1975 | Your Mamma Won't Like Me (RAK Records)

Страна-производитель диска: Russia
Номер по каталогу: SRAK 514, 0C 062 96454
Тип раздачи: tracks+.cue
Особенность релиза: Reissue, Unofficial Release, Mini LP Papersleeve, Russian made vinyl replica CD
Источник (релизер): SergeyJD
Треклист:
--------------------------

01. I Bit Off More Than I Could Chew (3:47)
02. Strip Me (3:11)
03. Paralysed (2:48)
[color

_________________
[Profile] [PM]
Display posts from previous:    

The time now is: Today 19:34

All times are GMT + 3 Hours



You cannot post new topics in this forum
You cannot reply to topics in this forum
You cannot edit your posts in this forum
You cannot delete your posts in this forum
You cannot vote in polls in this forum
You cannot attach files in this forum
You cannot download files in this forum