Today is free to download without increasing Download
 

Offline

volodya133

Longevity:
5 years
Posts:
1864

Bay City Rollers - Best Of(1994) Страна-производитель: Europe
Жанр: Rock
Год выпуска: 1994
Формат: FLAC (image + .cue)
Битрейт аудио: lossless
Продолжительность: 00:34:09---Трэклист:
01. Keep On Dancing
02. Remember
03. Shang A Lang
04. Summerlove Sensation
05. Bye Bye Baby
06. Give A Little Love
07. Money Honey
08. Love Me Like I Love You
09. I Only Wanna Be With You
10. You Made Me Believe In Magic
11. Rock And Roll Loveletter

Отчёт EAC

Exact Audio Copy V1.0 beta 3 from 29. August 2011
Отчёт EAC об извлечении, выполненном 16. января 2019, 18:43
Bay City Rollers / Best Of
Дисковод: SONY CD-RW CRX230ED Adapter: 2 ID: 1
Режим чтения : Достоверность
Использование точного потока : Да
Отключение кэша аудио : Да
Использование указателей C2 : Нет
Коррекция смещения при чтении : 6
Способность читать области Lead-in и Lead-out : Нет
Заполнение пропущенных сэмплов тишиной : Да
Удаление блоков с тишиной в начале и конце : Нет
При вычислениях CRC использовались нулевые сэмплы : Да
Интерфейс : Встроенный Win32-интерфейс для Win NT/2000
Выходной формат : Пользовательский кодировщик
Выбранный битрейт : 768 kBit/s
Качество : Высокий
Добавление ID3-тега : Нет
Утилита сжатия : C:\Program Files\FLAC\flac.exe
Дополнительные параметры : -V -8 -T "Date=%year%" -T "Genre=%genre%" %source%
TOC извлечённого CD
Трек | Старт | Длительность | Начальный сектор | Конечный сектор
---------------------------------------------------------------------
1 | 0:00.00 | 2:20.45 | 0 | 10544
2 | 2:20.45 | 2:35.70 | 10545 | 22239
3 | 4:56.40 | 3:37.17 | 22240 | 38531
4 | 8:33.57 | 3:41.70 | 38532 | 55176
5 | 12:15.52 | 2:41.33 | 55177 | 67284
6 | 14:57.10 | 3:19.12 | 67285 | 82221
7 | 18:16.22 | 2:50.30 | 82222 | 95001
8 | 21:06.52 | 3:10.33 | 95002 | 109284
9 | 24:17.10 | 3:22.45 | 109285 | 124479
10 | 27:39.55 | 2:38.47 | 124480 | 136376
11 | 30:18.27 | 3:50.18 | 136377 | 153644
Характеристики диапазона извлечения и сообщения об ошибках
Выбранный диапазон
Имя файла F:\Best Of Bay City Rollers (music Reflexion) [MC] - 1996 (lossless)\Bay City Rollers - Best Of.wav
Пиковый уровень 92.1 %
Скорость извлечения 6.7 X
Качество диапазона 100.0 %
CRC теста 58396F49
CRC копии 58396F49
Копирование... OK
Ошибок не произошло
AccurateRip: сводка
Трек 1 : извлечено точно (доверие 2) [722181F3] (AR v2)
Трек 2 : извлечено точно (доверие 2) [4A5955EA] (AR v2)
Трек 3 : извлечено точно (доверие 2) [0E389937] (AR v2)
Трек 4 : извлечено точно (доверие 2) [3F4F964B] (AR v2)
Трек 5 : извлечено точно (доверие 2) [31009C70] (AR v2)
Трек 6 : извлечено точно (доверие 2) [163AAB0B] (AR v2)
Трек 7 : извлечено точно (доверие 2) [6EC3E039] (AR v2)
Трек 8 : извлечено точно (доверие 2) [926F609E] (AR v2)
Трек 9 : извлечено точно (доверие 2) [1744AC2F] (AR v2)
Трек 10 : извлечено точно (доверие 2) [05B8086F] (AR v2)
Трек 11 : извлечено точно (доверие 2) [E54953FF] (AR v2)
Все треки извлечены точно
Конец отчёта
==== Контрольная сумма отчёта BC07C31FDF551DB6EA8342D16EE1960FFC61F4DB083C4AFB8E2E2281AC73B3A6 ====

От Volodya133

_________________
[Profile] [PM]
Display posts from previous:    

The time now is: Today 19:33

All times are GMT + 3 Hours



You cannot post new topics in this forum
You cannot reply to topics in this forum
You cannot edit your posts in this forum
You cannot delete your posts in this forum
You cannot vote in polls in this forum
You cannot attach files in this forum
You cannot download files in this forum