Золотые дни идет свободное скачивание без начисления Download
 

Офлайн

volodya133

Стаж:
4 года 3 месяца
Сообщений:
1633

The Sweet - Greatest Hits
Жанр: Hard Rock, Glam
Год выпуска: 2000
Формат: FLAC (image + .cue)
Битрейт аудио: lossless
Продолжительность: 01:07:11

Треклист

01. Blockbuster !(3:14)
02. Hell Raiser (3:18)
03. The Ballroom Blitz (4:03)
04. Teenage Rampage (Live) (3:34)
05. Little Willy (3:15)
06. Wig Wam Bam (3:02)
07. Action (3:19)
08. New York Connection (3:36)
09. The Lies In Your Eyes (3:47)
10. Reflections (2:52)
11. Turn It Down (3:30)
12. Done Me Wrong All Right (2:55)
13. Co-Co (3:11)
14. Funny Funny (2:46)
15. Poppa Joe (3:07)
16. Alexander Graham Bell (2:54)
17. Peppermint Twist (3:29)
18. Rock & Roll Disgrace (3:52)
19. The Six Teens (4:03)
20. Fox On The Run (3:22)

Отчёт EAC

Exact Audio Copy V1.3 from 2. September 2016
EAC extraction logfile from 1. October 2018, 18:36
Sweet / The Greatest Hits
Used drive : TSSTcorpCDDVDW SH-224GB Adapter: 1 ID: 0
Read mode : Secure
Utilize accurate stream : Yes
Defeat audio cache : Yes
Make use of C2 pointers : No
Read offset correction : 6
Overread into Lead-In and Lead-Out : No
Fill up missing offset samples with silence : Yes
Delete leading and trailing silent blocks : No
Null samples used in CRC calculations : Yes
Used interface : Native Win32 interface for Win NT & 2000
Used output format : User Defined Encoder
Selected bitrate : 128 kBit/s
Quality : High
Add ID3 tag : No
Command line compressor : C:\Program Files (x86)\Exact Audio Copy\FLAC\FLAC.EXE
Additional command line options : -V -8 -T "Date=%year%" -T "Genre=%genre%" %source%
TOC of the extracted CD
Track | Start | Length | Start sector | End sector
---------------------------------------------------------
1 | 0:00.00 | 3:14.17 | 0 | 14566
2 | 3:14.17 | 3:18.35 | 14567 | 29451
3 | 6:32.52 | 4:03.00 | 29452 | 47676
4 | 10:35.52 | 3:34.20 | 47677 | 63746
5 | 14:09.72 | 3:15.15 | 63747 | 78386
6 | 17:25.12 | 3:02.05 | 78387 | 92041
7 | 20:27.17 | 3:18.73 | 92042 | 106964
8 | 23:46.15 | 3:35.62 | 106965 | 123151
9 | 27:22.02 | 3:47.13 | 123152 | 140189
10 | 31:09.15 | 2:51.60 | 140190 | 153074
11 | 34:01.00 | 3:30.12 | 153075 | 168836
12 | 37:31.12 | 2:55.15 | 168837 | 181976
13 | 40:26.27 | 3:10.43 | 181977 | 196269
14 | 43:36.70 | 2:46.20 | 196270 | 208739
15 | 46:23.15 | 3:07.02 | 208740 | 222766
16 | 49:30.17 | 2:54.03 | 222767 | 235819
17 | 52:24.20 | 3:29.10 | 235820 | 251504
18 | 55:53.30 | 3:51.62 | 251505 | 268891
19 | 59:45.17 | 4:03.05 | 268892 | 287121
20 | 63:48.22 | 3:22.30 | 287122 | 302301
Range status and errors
Selected range
Filename F:\ЕАС\rwa12\Sweet - The Greatest Hits.wav
Peak level 97.7 %
Extraction speed 3.3 X
Range quality 100.0 %
Test CRC 909F766E
Copy CRC 909F766E
Copy OK
No errors occurred
AccurateRip summary
Track 1 accurately ripped (confidence 9) [4501DD56] (AR v2)
Track 2 accurately ripped (confidence 9) [6A4D519A] (AR v2)
Track 3 accurately ripped (confidence 9) [545A5ECF] (AR v2)
Track 4 accurately ripped (confidence 9) [37666C4C] (AR v2)
Track 5 accurately ripped (confidence 9) [ECDC7705] (AR v2)
Track 6 accurately ripped (confidence 9) [EFE2456C] (AR v2)
Track 7 accurately ripped (confidence 9) [7E2FD043] (AR v2)
Track 8 accurately ripped (confidence 9) [F4D8D7FA] (AR v2)
Track 9 accurately ripped (confidence 9) [6DB63482] (AR v2)
Track 10 accurately ripped (confidence 9) [610D03DB] (AR v2)
Track 11 accurately ripped (confidence 9) [129A3019] (AR v2)
Track 12 accurately ripped (confidence 9) [39AC56CF] (AR v2)
Track 13 accurately ripped (confidence 9) [8E6F0DC2] (AR v2)
Track 14 accurately ripped (confidence 9) [8B8DFF65] (AR v2)
Track 15 accurately ripped (confidence 9) [11FF0056] (AR v2)
Track 16 accurately ripped (confidence 9) [F118BE9E] (AR v2)
Track 17 accurately ripped (confidence 9) [A470F4B0] (AR v2)
Track 18 accurately ripped (confidence 9) [57B5F4AA] (AR v2)
Track 19 accurately ripped (confidence 9) [2DC42340] (AR v2)
Track 20 accurately ripped (confidence 9) [00A6B7BC] (AR v2)
All tracks accurately ripped
End of status report
---- CUETools DB Plugin V2.1.6
[CTDB TOCID: F2KzgI5nyqhfbqfHnmwReNJZ798-] found
Submit result: F2KzgI5nyqhfbqfHnmwReNJZ798- has been confirmed
Track | CTDB Status
1 | (257/257) Accurately ripped
2 | (257/257) Accurately ripped
3 | (257/257) Accurately ripped
4 | (257/257) Accurately ripped
5 | (255/257) Accurately ripped
6 | (256/257) Accurately ripped
7 | (257/257) Accurately ripped
8 | (257/257) Accurately ripped
9 | (257/257) Accurately ripped
10 | (257/257) Accurately ripped
11 | (255/257) Accurately ripped
12 | (257/257) Accurately ripped
13 | (257/257) Accurately ripped
14 | (257/257) Accurately ripped
15 | (257/257) Accurately ripped
16 | (257/257) Accurately ripped
17 | (256/257) Accurately ripped
18 | (255/257) Accurately ripped
19 | (254/257) Accurately ripped
20 | (253/257) Accurately ripped
==== Log checksum F391A64290F1C752F0ADB38067B0BF176E2DDA92474B5161C572A192A78601C4 ====

От Volodya133

_________________
[Профиль] [ЛС]
Показать сообщения:    

Текущее время: Сегодня 17:56

Часовой пояс: GMT + 3



Вы не можете начинать темы
Вы не можете отвечать на сообщения
Вы не можете редактировать свои сообщения
Вы не можете удалять свои сообщения
Вы не можете голосовать в опросах
Вы не можете прикреплять файлы к сообщениям
Вы не можете скачивать файлы