Золотые дни идет свободное скачивание без начисления Download
 

Офлайн

sergej644

Стаж:
5 лет 8 месяцев
Сообщений:
891

-UFO - Best Ballads--
Год издания: 1995
Страна: UK
Жанр: Rock, Hard Rock
Продолжительность: -Лейбл издания: ?
Страна-выпуска диска: Russia
Номер по каталогу: UFO-3945BB-Z-Формат: FLAC
Битрейт аудио: Lossless
Тип рипа: image +.cue
Наличие сканов в содержимом раздачи: front
-

Трэклист


01. Born To Loose (1980) (3:33)
02. Belladonna (1976) (4:27)
03. Try Me (1977) (4:47)
04. Profession Of Violence (1981) (4:20)
05. Terri (1982) (3:49)
06. Melinda (1971) (5:06)
07. Crystal Light (1974) (3:45)
08. High Flyer (1975) (4:03)
09. Looking Out For No. 1 (1978) (4:30)
10. Take It Or Leave It (1976) (3:04)
11. Martin Landscape (1976) (5:05)
12. Love To Love (1977) (7:38)
13. Treacle People (1971) (5:47)
14. Mama Coming Home (1975) (3:25)
15. Ain't No Baby (1978) (3:59)
16. Space Child (1974) (4:00)
17. Arboby Hill (1978) (1:13)
-

Лог создания рипа

Код:
Exact Audio Copy V0.99 prebeta 3 from 28. July 2007
Отчёт EAC об извлечении, выполненном 2. апреля 2008, 14:24
UFO / Best Ballads
Дисковод: HL-DT-STDVD-ROM GDR8163B   Adapter: 1  ID: 0
Режим чтения                 : Достоверность
Использование точного потока : Да
Отключение кэша аудио        : Да
Использование указателей C2  : Нет
Коррекция смещения при чтении                     : 102
Способность читать области Lead-in и Lead-out     : Нет
Заполнение пропущенных сэмплов тишиной            : Да
Удаление блоков с тишиной в начале и конце        : Нет
При вычислениях CRC использовались нулевые сэмплы : Нет
Интерфейс                                         : Встроенный Win32-интерфейс для Win NT/2000
Выходной формат          : Пользовательский кодировщик
Выбранный битрейт        : 768 kBit/s
Качество                 : Высокий
Добавление ID3-тэга      : Нет
Утилита сжатия           : C:\Program Files\Exact Audio Copy\FLAC\FLAC.EXE
Дополнительные параметры : -6 -V -T "ARTIST=%a" -T "TITLE=%t" -T "ALBUM=%g" -T "DATE=%y" -T "TRACKNUMBER=%n" -T "GENRE=%m" -T "COMMENT=%e" %s -o %d
TOC извлечённого CD
     Трек |   Старт  | Длительность | Начальный сектор | Конечный сектор
    ---------------------------------------------------------------------
       1  |  0:00.00 |    3:32.49   |           0      |      15948
       2  |  3:32.49 |    4:27.15   |       15949      |      35988
       3  |  7:59.64 |    4:46.60   |       35989      |      57498
       4  | 12:46.49 |    4:19.52   |       57499      |      76975
       5  | 17:06.26 |    3:49.35   |       76976      |      94185
       6  | 20:55.61 |    5:05.53   |       94186      |     117113
       7  | 26:01.39 |    3:45.31   |      117114      |     134019
       8  | 29:46.70 |    4:02.72   |      134020      |     152241
       9  | 33:49.67 |    4:30.21   |      152242      |     172512
      10  | 38:20.13 |    3:03.56   |      172513      |     186293
      11  | 41:23.69 |    5:05.08   |      186294      |     209176
      12  | 46:29.02 |    7:38.24   |      209177      |     243550
      13  | 54:07.26 |    5:47.16   |      243551      |     269591
      14  | 59:54.42 |    3:24.41   |      269592      |     284932
      15  | 63:19.08 |    3:59.05   |      284933      |     302862
      16  | 67:18.13 |    3:59.41   |      302863      |     320828
      17  | 71:17.54 |    1:12.43   |      320829      |     326271
Характеристики диапазона извлечения и сообщения об ошибках
Выбранный диапазон
     Имя файла C:\UFO - Best Ballads\UFO - Best Ballads.wav
     Пиковый уровень 99.9 %
     Качество диапазона 100.0 %
     CRC копии 6C717E6F
     Копирование... OK
Ошибок не произошло
AccurateRip: сводка
Трек  1  нет в базе данных
Трек  2  нет в базе данных
Трек  3  нет в базе данных
Трек  4  нет в базе данных
Трек  5  нет в базе данных
Трек  6  нет в базе данных
Трек  7  нет в базе данных
Трек  8  нет в базе данных
Трек  9  нет в базе данных
Трек 10  нет в базе данных
Трек 11  нет в базе данных
Трек 12  нет в базе данных
Трек 13  нет в базе данных
Трек 14  нет в базе данных
Трек 15  нет в базе данных
Трек 16  нет в базе данных
Трек 17  нет в базе данных
Ни одного трека нет в базе AccurateRip
Конец отчёта

Индексная карта (non-compilant .cue)

Код:
REM DISCID F210FE11
REM COMMENT "ExactAudioCopy v0.99pb3"
PERFORMER "UFO"
TITLE "Best Ballads"
FILE "UFO - Best Ballads.flac" WAVE
  TRACK 01 AUDIO
    TITLE "Born To Loose"
    PERFORMER "UFO"
    INDEX 01 00:00:00
  TRACK 02 AUDIO
    TITLE "Belladonna"
    PERFORMER "UFO"
    INDEX 00 03:30:50
    INDEX 01 03:32:49
  TRACK 03 AUDIO
    TITLE "Try Me"
    PERFORMER "UFO"
    INDEX 00 07:57:66
    INDEX 01 07:59:64
  TRACK 04 AUDIO
    TITLE "Profession Of Violence"
    PERFORMER "UFO"
    INDEX 00 12:44:50
    INDEX 01 12:46:49
  TRACK 05 AUDIO
    TITLE "Terri"
    PERFORMER "UFO"
    INDEX 00 17:04:28
    INDEX 01 17:06:26
  TRACK 06 AUDIO
    TITLE "Melinda"
    PERFORMER "UFO"
    INDEX 00 20:53:62
    INDEX 01 20:55:61
  TRACK 07 AUDIO
    TITLE "Crystal Light"
    PERFORMER "UFO"
    INDEX 00 25:59:40
    INDEX 01 26:01:39
  TRACK 08 AUDIO
    TITLE "High Flyer"
    PERFORMER "UFO"
    INDEX 00 29:44:71
    INDEX 01 29:46:70
  TRACK 09 AUDIO
    TITLE "Looking Out For No. 1"
    PERFORMER "UFO"
    INDEX 00 33:47:68
    INDEX 01 33:49:67
  TRACK 10 AUDIO
    TITLE "Take It Or Leave It"
    PERFORMER "UFO"
    INDEX 00 38:18:14
    INDEX 01 38:20:13
  TRACK 11 AUDIO
    TITLE "Martin Landscape"
    PERFORMER "UFO"
    INDEX 00 41:21:70
    INDEX 01 41:23:69
  TRACK 12 AUDIO
    TITLE "Love To Love"
    PERFORMER "UFO"
    INDEX 00 46:27:03
    INDEX 01 46:29:02
  TRACK 13 AUDIO
    TITLE "Treacle People"
    PERFORMER "UFO"
    INDEX 00 54:05:27
    INDEX 01 54:07:26
  TRACK 14 AUDIO
    TITLE "Mama Coming Home"
    PERFORMER "UFO"
    INDEX 00 59:52:43
    INDEX 01 59:54:42
  TRACK 15 AUDIO
    TITLE "Ain't No Baby"
    PERFORMER "UFO"
    INDEX 00 63:17:09
    INDEX 01 63:19:08
  TRACK 16 AUDIO
    TITLE "Space Child"
    PERFORMER "UFO"
    INDEX 00 67:16:14
    INDEX 01 67:18:13
  TRACK 17 AUDIO
    TITLE "Arboby Hill"
    PERFORMER "UFO"
    INDEX 00 71:15:55
    INDEX 01 71:17:54
-

для ознакомления:

https://www.youtube.com/watch?v=Qxz3hMf0PhI
--

_________________
Разница между теорией и практикой в том, что теоретически разницы между теорией и практикой нет, а на практике она есть.
[Профиль] [ЛС]
Показать сообщения:    

Текущее время: Сегодня 04:01

Часовой пояс: GMT + 3



Вы не можете начинать темы
Вы не можете отвечать на сообщения
Вы не можете редактировать свои сообщения
Вы не можете удалять свои сообщения
Вы не можете голосовать в опросах
Вы не можете прикреплять файлы к сообщениям
Вы не можете скачивать файлы