Золотые дни идет свободное скачивание без начисления Download
 

Офлайн

sergej644

Стаж:
5 лет 8 месяцев
Сообщений:
891

-Cauldron - New Gods--
Год издания: 2018
Страна: Canada
Жанр: Heavy Metal
Продолжительность: 00:40:59-Лейбл издания: The End Records
Страна-выпуска диска: Eu
Номер по каталогу: DISS0129CDD-Формат: FLAC
Битрейт аудио: Lossless
Тип рипа: image +.cue
Наличие сканов в содержимом раздачи: да
-

Трэклист


01. soner of the Past (3:35)
02. Letting Go (4:29)
03. No Longer (5:09)
04. Save the Truth - Syracuse (5:53)
05. Never Be Found (5:04)
06. Drown (4:49)
07. Together as None (4:32)
08. Isolation (2:47)
09. Last Request (4:41)
-

Лог создания рипа

Код:
Exact Audio Copy V1.3 from 2. September 2016
Отчёт EAC об извлечении, выполненном 7. сентября 2018, 23:05
Cauldron / New Gods
Дисковод: HL-DT-STDVDRAM GU40N   Adapter: 0  ID: 1
Режим чтения                 : Достоверность
Использование точного потока : Да
Отключение кэша аудио        : Да
Использование указателей C2  : Нет
Коррекция смещения при чтении                     : 103
Способность читать области Lead-in и Lead-out     : Нет
Заполнение пропущенных сэмплов тишиной            : Да
Удаление блоков с тишиной в начале и конце        : Нет
При вычислениях CRC использовались нулевые сэмплы : Да
Интерфейс                                         : Установленный внешний ASPI-интерфейс
Выходной формат          : Пользовательский кодировщик
Выбранный битрейт        : 1024 kBit/s
Качество                 : Высокий
Добавление ID3-тега      : Нет
Утилита сжатия           : C:\Program Files (x86)\Exact Audio Copy\Flac\flac.exe
Дополнительные параметры :  -V -8 -T "Date=%year%" -T "Genre=%genre%" %source%
TOC извлечённого CD
     Трек |   Старт  | Длительность | Начальный сектор | Конечный сектор
    ---------------------------------------------------------------------
       1  |  0:00.00 |    3:35.05   |           0      |      16129
       2  |  3:35.05 |    4:29.30   |       16130      |      36334
       3  |  8:04.35 |    5:09.11   |       36335      |      59520
       4  | 13:13.46 |    5:52.57   |       59521      |      85977
       5  | 19:06.28 |    5:04.02   |       85978      |     108779
       6  | 24:10.30 |    4:49.35   |      108780      |     130489
       7  | 28:59.65 |    4:31.42   |      130490      |     150856
       8  | 33:31.32 |    2:46.66   |      150857      |     163372
       9  | 36:18.23 |    4:40.63   |      163373      |     184435
Характеристики диапазона извлечения и сообщения об ошибках
Выбранный диапазон
     Имя файла C:\Users\workutagin\Desktop\CAULDRON - NEW GODS 2018\Cauldron - New Gods.wav
     Пиковый уровень 100.0 %
     Скорость извлечения 1.8 X
     Качество диапазона 99.9 %
     CRC теста 85C206E6
     CRC копии 85C206E6
     Копирование... OK
Ошибок не произошло
AccurateRip: сводка
Трек  1  отсутствует в базе данных
Трек  2  отсутствует в базе данных
Трек  3  отсутствует в базе данных
Трек  4  отсутствует в базе данных
Трек  5  отсутствует в базе данных
Трек  6  отсутствует в базе данных
Трек  7  отсутствует в базе данных
Трек  8  отсутствует в базе данных
Трек  9  отсутствует в базе данных
Ни одного трека нет в базе AccurateRip
Конец отчёта

Индексная карта (non-compilant .cue)

Код:
REM GENRE "Heavy Metal"
REM DATE 2018
REM DISCID 6B099B09
REM COMMENT "ExactAudioCopy v1.3"
PERFORMER "Cauldron"
TITLE "New Gods"
REM COMPOSER ""
FILE "Cauldron - New Gods.flac" WAVE
  TRACK 01 AUDIO
    TITLE "soner of the Past"
    PERFORMER "Cauldron"
    REM COMPOSER ""
    FLAGS DCP
    INDEX 01 00:00:00
  TRACK 02 AUDIO
    TITLE "Letting Go"
    PERFORMER "Cauldron"
    REM COMPOSER ""
    FLAGS DCP
    INDEX 01 03:35:05
  TRACK 03 AUDIO
    TITLE "No Longer"
    PERFORMER "Cauldron"
    REM COMPOSER ""
    FLAGS DCP
    INDEX 01 08:04:35
  TRACK 04 AUDIO
    TITLE "Save the Truth - Syracuse"
    PERFORMER "Cauldron"
    REM COMPOSER ""
    FLAGS DCP
    INDEX 01 13:13:46
  TRACK 05 AUDIO
    TITLE "Never Be Found"
    PERFORMER "Cauldron"
    REM COMPOSER ""
    FLAGS DCP
    INDEX 01 19:06:28
  TRACK 06 AUDIO
    TITLE "Drown"
    PERFORMER "Cauldron"
    REM COMPOSER ""
    FLAGS DCP
    INDEX 01 24:10:30
  TRACK 07 AUDIO
    TITLE "Together as None"
    PERFORMER "Cauldron"
    REM COMPOSER ""
    FLAGS DCP
    INDEX 01 28:59:65
  TRACK 08 AUDIO
    TITLE "Isolation"
    PERFORMER "Cauldron"
    REM COMPOSER ""
    FLAGS DCP
    INDEX 01 33:31:32
  TRACK 09 AUDIO
    TITLE "Last Request"
    PERFORMER "Cauldron"
    REM COMPOSER ""
    FLAGS DCP
    INDEX 01 36:18:23
-

для ознакомления:

https://www.youtube.com/watch?v=fmXNLOiMOgs
--

_________________
Разница между теорией и практикой в том, что теоретически разницы между теорией и практикой нет, а на практике она есть.
[Профиль] [ЛС]
Показать сообщения:    

Текущее время: Сегодня 03:01

Часовой пояс: GMT + 3



Вы не можете начинать темы
Вы не можете отвечать на сообщения
Вы не можете редактировать свои сообщения
Вы не можете удалять свои сообщения
Вы не можете голосовать в опросах
Вы не можете прикреплять файлы к сообщениям
Вы не можете скачивать файлы