Золотые дни идет свободное скачивание без начисления Download
 

Офлайн

sergej644

Стаж:
5 лет 8 месяцев
Сообщений:
891

-Nils Patrik Johansson - Evil Deluxe (Japanese Edition)--
Год издания: 2018
Страна: Sweden
Жанр: Melodic Power Metal
Продолжительность: 01:01:38-Лейбл издания: Rubicon Music
Страна-выпуска диска: Japan
Номер по каталогу: RBNCD-1262-Формат: FLAC
Битрейт аудио: Lossless
Тип рипа: image +.cue
Наличие сканов в содержимом раздачи: да
-

Трэклист


01. Baal (0:32)
02. Evil Deluxe (3:59)
03. Estonia (7:49)
04. Gasoline (5:14)
05. How The West Was Won (6:38)
06. September Black (5:54)
07. Kings And Queens (4:09)
08. Burning (4:17)
09. Metalhead (4:01)
10. Cricle In The Sky (4:54)
11. Dark Evolution (4:39)
12. A Waltz For Paris (5:34)
13. Metalhead (Original Version) (Bonus Track) (3:59)
-

Лог создания рипа

Код:
Exact Audio Copy V1.3 from 2. September 2016
EAC extraction logfile from 7. September 2018, 12:28
Nils Patrik Johansson / Evil Deluxe (Japan)
Used drive  : ATAPI   iHAS122   W   Adapter: 2  ID: 0
Read mode               : Secure
Utilize accurate stream : Yes
Defeat audio cache      : Yes
Make use of C2 pointers : No
Read offset correction                      : 48
Overread into Lead-In and Lead-Out          : No
Fill up missing offset samples with silence : Yes
Delete leading and trailing silent blocks   : No
Null samples used in CRC calculations       : Yes
Used interface                              : Installed external ASPI interface
Used output format              : User Defined Encoder
Selected bitrate                : 1024 kBit/s
Quality                         : High
Add ID3 tag                     : No
Command line compressor         : C:\Program Files\FLAC\flac.exe
Additional command line options : -V -8 -T "Date=%year%" -T "Genre=%genre%" -T"COMMENT=Ripped by  Ilijan [MeTaLMaDNeSS.TeaM]" -8 -V %source%
TOC of the extracted CD
     Track |   Start  |  Length  | Start sector | End sector
    ---------------------------------------------------------
        1  |  0:00.00 |  0:31.72 |         0    |     2396
        2  |  0:31.72 |  3:58.64 |      2397    |    20310
        3  |  4:30.61 |  7:48.45 |     20311    |    55455
        4  | 12:19.31 |  5:13.65 |     55456    |    78995
        5  | 17:33.21 |  6:38.03 |     78996    |   108848
        6  | 24:11.24 |  5:54.31 |    108849    |   135429
        7  | 30:05.55 |  4:09.29 |    135430    |   154133
        8  | 34:15.09 |  4:16.57 |    154134    |   173390
        9  | 38:31.66 |  4:00.53 |    173391    |   191443
       10  | 42:32.44 |  4:53.41 |    191444    |   213459
       11  | 47:26.10 |  4:38.52 |    213460    |   234361
       12  | 52:04.62 |  5:34.06 |    234362    |   259417
       13  | 57:38.68 |  3:58.69 |    259418    |   277336
Range status and errors
Selected range
     Filename D:\Vknish+Devastator+ungern666+g.y.m.+deminbek(angelito)=3.14дарасы (Upload On Rutracker, DIE!!!)\Nils Patrik Johansson - Evil Deluxe (Japan).wav
     Peak level 98.6 %
     Extraction speed 3.9 X
     Range quality 99.9 %
     Test CRC F8AE3590
     Copy CRC F8AE3590
     Copy OK
No errors occurred
AccurateRip summary
Track  1  not present in database
Track  2  not present in database
Track  3  not present in database
Track  4  not present in database
Track  5  not present in database
Track  6  not present in database
Track  7  not present in database
Track  8  not present in database
Track  9  not present in database
Track 10  not present in database
Track 11  not present in database
Track 12  not present in database
Track 13  not present in database
None of the tracks are present in the AccurateRip database
End of status report

Индексная карта (non-compilant .cue)

Код:
REM GENRE "Heavy/Power Metal"
REM DATE 2018
REM DISCID 9D0E710D
REM COMMENT "ExactAudioCopy v1.3"
PERFORMER "Nils Patrik Johansson"
TITLE "Evil Deluxe (Japan)"
FILE "Nils Patrik Johansson - Evil Deluxe (Japan).flac" WAVE
  TRACK 01 AUDIO
    TITLE "Baal"
    PERFORMER "Nils Patrik Johansson"
    INDEX 01 00:00:00
  TRACK 02 AUDIO
    TITLE "Evil Deluxe"
    PERFORMER "Nils Patrik Johansson"
    INDEX 01 00:31:72
  TRACK 03 AUDIO
    TITLE "Estonia"
    PERFORMER "Nils Patrik Johansson"
    INDEX 00 04:28:61
    INDEX 01 04:30:61
  TRACK 04 AUDIO
    TITLE "Gasoline"
    PERFORMER "Nils Patrik Johansson"
    INDEX 00 12:17:31
    INDEX 01 12:19:31
  TRACK 05 AUDIO
    TITLE "How The West Was Won"
    PERFORMER "Nils Patrik Johansson"
    INDEX 00 17:31:21
    INDEX 01 17:33:21
  TRACK 06 AUDIO
    TITLE "September Black"
    PERFORMER "Nils Patrik Johansson"
    INDEX 00 24:09:24
    INDEX 01 24:11:24
  TRACK 07 AUDIO
    TITLE "Kings And Queens"
    PERFORMER "Nils Patrik Johansson"
    INDEX 00 30:03:55
    INDEX 01 30:05:55
  TRACK 08 AUDIO
    TITLE "Burning"
    PERFORMER "Nils Patrik Johansson"
    INDEX 00 34:12:42
    INDEX 01 34:15:09
  TRACK 09 AUDIO
    TITLE "Metalhead"
    PERFORMER "Nils Patrik Johansson"
    INDEX 00 38:29:66
    INDEX 01 38:31:66
  TRACK 10 AUDIO
    TITLE "Cricle In The Sky"
    PERFORMER "Nils Patrik Johansson"
    INDEX 00 42:30:44
    INDEX 01 42:32:44
  TRACK 11 AUDIO
    TITLE "Dark Evolution"
    PERFORMER "Nils Patrik Johansson"
    INDEX 00 47:24:10
    INDEX 01 47:26:10
  TRACK 12 AUDIO
    TITLE "A Waltz For Paris"
    PERFORMER "Nils Patrik Johansson"
    INDEX 00 52:02:62
    INDEX 01 52:04:62
  TRACK 13 AUDIO
    TITLE "Metalhead (Original Version) (Bonus Track)"
    PERFORMER "Nils Patrik Johansson"
    INDEX 00 57:36:68
    INDEX 01 57:38:68
-

для ознакомления:

https://www.youtube.com/watch?v=0oWf-drIQ8I
--

_________________
Разница между теорией и практикой в том, что теоретически разницы между теорией и практикой нет, а на практике она есть.
[Профиль] [ЛС]
Показать сообщения:    

Текущее время: Сегодня 04:12

Часовой пояс: GMT + 3



Вы не можете начинать темы
Вы не можете отвечать на сообщения
Вы не можете редактировать свои сообщения
Вы не можете удалять свои сообщения
Вы не можете голосовать в опросах
Вы не можете прикреплять файлы к сообщениям
Вы не можете скачивать файлы