Золотые дни идет свободное скачивание без начисления Download
 

Офлайн

sergej644

Стаж:
5 лет 9 месяцев
Сообщений:
892

-VA - 100 Hits The Best Rock Album (5CD)--
Год издания: 2018
Страна: n/a
Жанр: Rock
Продолжительность: 06:04:10-Лейбл издания: Demon Music Group
Страна-выпуска диска: EU
Номер по каталогу: DMGN 1000217-Формат: FLAC
Битрейт аудио: Lossless
Тип рипа: tracks +.cue
Наличие сканов в содержимом раздачи: да
-

Трэклист

CD 1 | 01:13:36


01. Alice Cooper - Poison (4:25)
02. Judas Priest - Breaking The Law (2:36)
03. RUN-DMC Feat. Aerosmith - Walk This Way (3:39)
04. Toto - Hold The Line (3:33)
05. Blue Oyster Cult - (Don't Fear) The Reaper (3:50)
06. Survivor - Eye Of The Tiger (3:48)
07. Europe - The Final Countdown (3:59)
08. Meat Loaf With Cher - Dead Ringer For Love (4:23)
09. REO Speedwagon - Can't Fight This Feeling (3:46)
10. John Farnham - You're The Voice (3:58)
11. Heart - Barracuda (3:30)
12. Gillan - Trouble (2:41)
13. Bonnie Tyler - Faster Than The Speed Of Night (4:41)
14. Graham Bonnet - Night Games (3:24)
15. Rick Springfield - Jessie's Girl (3:14)
16. Kenny Loggins - Danger Zone (3:32)
17. Men At Work - Who Can It Be Now? (3:21)
18. Bruce Hornsby & The Range - The Way It Is (3:58)
19. Patti Smith Group - Because The Night (3:23)
20. Lou Reed - Walk On The Wild Side (3:53)

CD 2 | 01:02:54


01. Boston - More Than A Feeling (3:29)
02. The Guess Who - American Woman (3:52)
03. Ram Jam - Black Betty (2:30)
04. Santana - She's Not There (3:20)
05. Big Brother & The Holding Company Feat. Janis Joplin - Piece Of My Heart (4:15)
06. Mountain - Mississippi Queen (2:32)
07. Argent - Hold Your Head Up (3:18)
08. Fleetwood Mac - Black Magic Woman (2:53)
09. Chicken Shack - I'd Rather Go Blind (3:16)
10. Family - Burlesque (4:04)
11. Crazy Horse - Rock And Roll Band (3:11)
12. Kansas - Carry On Wayward Son (3:28)
13. Captain Beefheart & His Magic Band - Sure 'Nuff 'N' Yes, I Do (2:15)
14. Iggy & The Stooges - Raw Power (Iggy Pop Mix) (4:18)
15. Redbone - The Witch Queen Of New Orleans (2:44)
16. The Gun - Race With The Devil (3:34)
17. Spirit - Fresh Garbage (3:13)
18. The Byrds - So You Want To Be A Rock 'N' Roll Star (2:06)
19. The Lovin' Spoonful - Summer In The City (2:41)
20. The Box Tops - The Letter (1:53)

CD 3 | 01:19:55


01. Bonnie Tyler - Holding Out For A Hero (4:20)
02. Meat Loaf - Bat Out Of Hell (4:53)
03. Jim Steinman - Rock And Roll Dreams Come Through (5:26)
04. Cyndi Lauper - I Drove All Night (4:11)
05. The Bangles - Hazy Shade Of Winter (2:47)
06. Toto - Rosanna (4:02)
07. Survivor - Burning Heart (3:50)
08. Europe - Rock The Night (4:06)
09. REO Speedwagon - Keep On Loving You (3:21)
10. Mr. Mister - Kyrie (4:13)
11. Kansas - Dust In The Wind (3:25)
12. Rick Springfield - Human Touch (3:56)
13. Boston - Peace Of Mind (5:02)
14. Hanoi Rocks - Up Around The Bend (3:03)
15. Quiet Riot - Come On Feel The Noize (3:49)
16. Ted Nugent - Cat Scratch Fever (3:39)
17. Stevie Ray Vaughan & Double Trouble - Pride And Joy (3:40)
18. Alice Cooper - Hey Stoopid (4:35)
19. Warrant - Cherry Pie (3:21)
20. Bad English - When I See You Smile (4:17)

CD 4 | 01:11:53


01. Mott The Hoople - All The Young Dudes (3:31)
02. Argent - God Gave Rock And Roll To You (3:22)
03. Albert Hammond - The Free Electric Band (3:25)
04. Lou Reed - Vicious (2:56)
05. Iggy & The Stooges - Search And Destroy (Iggy Pop Mix) (3:30)
06. Judas Priest - Living After Midnight (3:12)
07. Cheap Trick - I Want You To Want Me (3:42)
08. The Only Ones - Another Girl Another Planet (3:02)
09. Big Audio Dynamite - E=MC2 (4:28)
10. The Psychedelic Furs - Pretty In Pink (4:00)
11. The Hooters - Satellite (4:18)
12. Deacon Blue - Real Gone Kid (4:05)
13. Patti Smith Group - Frederick (3:03)
14. Justin Hayward - Forever Autumn (4:09)
15. Fleetwood Mac - Albatross (3:10)
16. Big Brother & The Holding Company - I Need A Man To Love (4:54)
17. Santana - Evil Ways (2:58)
18. Captain Beefheart & His Magic Band - Zig Zag Wanderer (2:39)
19. Ram Jam - Let It All Out (4:01)
20. The Edgar Winter Group - Frankenstein (3:25)

CD 5 | 01:15:52


01. The Stone Roses - I Wanna Be Adored (3:30)
02. Manic Street Preachers - Motorcycle Emptiness (3:35)
03. Primal Scream - Rocks (3:36)
04. Reef - Place Your Hands (3:39)
05. The Mooney Suzuki - Alive & Amplified (3:06)
06. Wheatus - Teenage Dirtbag (4:04)
07. Bowling For Soup - Girl All The Bad Guys Want (3:19)
08. Lit - My Own Worst Enemy (2:50)
09. Jeff Buckley - Grace (5:24)
10. Dinosaur Jr. - Feel The Pain (4:19)
11. Sugar - If I Can't Change Your Mind (3:21)
12. Train - Drops Of Jupiter (4:21)
13. The Fray - How To Save A Life (4:02)
14. The Calling - Wherever You Will Go (3:29)
15. Soul Asylum - Runaway Train (3:27)
16. Screaming Trees - Dollar Bill (4:35)
17. Living Colour - Love Rears It's Ugly Head (4:20)
18. The Jeff Healey Band - While My Guitar Gently Weeps (4:13)
19. JJ Cale - Hold On Baby (3:02)
20. Status Quo - Don't Stop (3:40)
-

Лог создания рипа

CD 1

Код:
Exact Audio Copy V1.3 from 2. September 2016
EAC extraction logfile from 23. June 2018, 14:21
Various / 100 Hits - The Best - Rock Album - CD1
Used drive  : HL-DT-STDVDRAM GSA-E40N   Adapter: 1  ID: 1
Read mode               : Secure
Utilize accurate stream : Yes
Defeat audio cache      : No
Make use of C2 pointers : Yes
Read offset correction                      : 667
Overread into Lead-In and Lead-Out          : No
Fill up missing offset samples with silence : Yes
Delete leading and trailing silent blocks   : No
Null samples used in CRC calculations       : Yes
Used interface                              : Native Win32 interface for Win NT & 2000
Gap handling                                : Not detected, thus appended to previous track
Used output format              : User Defined Encoder
Selected bitrate                : 896 kBit/s
Quality                         : High
Add ID3 tag                     : No
Command line compressor         : C:\Program Files (x86)\Exact Audio Copy\FLAC\FLAC.EXE
Additional command line options : -6 -V -T "ARTIST=%artist%" -T "TITLE=%title%" -T "ALBUM=%albumtitle%" -T "DATE=%year%" -T "TRACKNUMBER=%tracknr%" -T "GENRE=%genre%" -T "COMMENT=%comment%" -T "BAND=%albuminterpret%" -T "ALBUMARTIST=%albuminterpret%" -T "COMPOSER=%composer%" %haslyrics%--tag-from-file=LYRICS="%lyricsfile%"%haslyrics% -T "DISCNUMBER=%cdnumber%" -T "TOTALDISCS=%totalcds%" -T "TOTALTRACKS=%numtracks%" %hascover%--picture="%coverfile%"%hascover% %source% -o %dest%
TOC of the extracted CD
     Track |   Start  |  Length  | Start sector | End sector
    ---------------------------------------------------------
        1  |  0:00.00 |  4:25.35 |         0    |    19909
        2  |  4:25.35 |  2:36.05 |     19910    |    31614
        3  |  7:01.40 |  3:39.22 |     31615    |    48061
        4  | 10:40.62 |  3:32.54 |     48062    |    64015
        5  | 14:13.41 |  3:50.29 |     64016    |    81294
        6  | 18:03.70 |  3:48.02 |     81295    |    98396
        7  | 21:51.72 |  3:58.38 |     98397    |   116284
        8  | 25:50.35 |  4:22.62 |    116285    |   135996
        9  | 30:13.22 |  3:46.24 |    135997    |   152970
       10  | 33:59.46 |  3:57.53 |    152971    |   170798
       11  | 37:57.24 |  3:29.63 |    170799    |   186536
       12  | 41:27.12 |  2:40.69 |    186537    |   198605
       13  | 44:08.06 |  4:41.24 |    198606    |   219704
       14  | 48:49.30 |  3:24.15 |    219705    |   235019
       15  | 52:13.45 |  3:14.14 |    235020    |   249583
       16  | 55:27.59 |  3:32.04 |    249584    |   265487
       17  | 58:59.63 |  3:21.31 |    265488    |   280593
       18  | 62:21.19 |  3:58.19 |    280594    |   298462
       19  | 66:19.38 |  3:23.02 |    298463    |   313689
       20  | 69:42.40 |  3:53.33 |    313690    |   331197
Track  1
     Filename A:\PsPBuRnOuT's MUSIC\100 HITS\- 100 HITS - THE BEST -\100 HITS - THE BEST - ROCK ALBUM\100 HITS - THE BEST - ROCK ALBUM - DISC 01\01.Alice Cooper - Poison.wav
     Peak level 72.8 %
     Extraction speed 12.5 X
     Track quality 99.7 %
     Copy CRC 6C168193
     Track not present in AccurateRip database
     Copy OK
Track  2
     Filename A:\PsPBuRnOuT's MUSIC\100 HITS\- 100 HITS - THE BEST -\100 HITS - THE BEST - ROCK ALBUM\100 HITS - THE BEST - ROCK ALBUM - DISC 01\02.Judas Priest - Breaking The Law.wav
     Peak level 80.8 %
     Extraction speed 11.3 X
     Track quality 99.7 %
     Copy CRC 190FAB57
     Track not present in AccurateRip database
     Copy OK
Track  3
     Filename A:\PsPBuRnOuT's MUSIC\100 HITS\- 100 HITS - THE BEST -\100 HITS - THE BEST - ROCK ALBUM\100 HITS - THE BEST - ROCK ALBUM - DISC 01\03.RUN-DMC Feat. Aerosmith - Walk This Way.wav
     Peak level 78.5 %
     Extraction speed 21.5 X
     Track quality 100.0 %
     Copy CRC 692CFB54
     Track not present in AccurateRip database
     Copy OK
Track  4
     Filename A:\PsPBuRnOuT's MUSIC\100 HITS\- 100 HITS - THE BEST -\100 HITS - THE BEST - ROCK ALBUM\100 HITS - THE BEST - ROCK ALBUM - DISC 01\04.Toto - Hold The Line.wav
     Peak level 88.0 %
     Extraction speed 20.4 X
     Track quality 100.0 %
     Copy CRC 45B454E6
     Track not present in AccurateRip database
     Copy OK
Track  5
     Filename A:\PsPBuRnOuT's MUSIC\100 HITS\- 100 HITS - THE BEST -\100 HITS - THE BEST - ROCK ALBUM\100 HITS - THE BEST - ROCK ALBUM - DISC 01\05.Blue Oyster Cult - (Don't Fear) The Reaper.wav
     Peak level 85.1 %
     Extraction speed 20.4 X
     Track quality 99.9 %
     Copy CRC 202E6345
     Track not present in AccurateRip database
     Copy OK
Track  6
     Filename A:\PsPBuRnOuT's MUSIC\100 HITS\- 100 HITS - THE BEST -\100 HITS - THE BEST - ROCK ALBUM\100 HITS - THE BEST - ROCK ALBUM - DISC 01\06.Survivor - Eye Of The Tiger.wav
     Peak level 94.3 %
     Extraction speed 22.7 X
     Track quality 100.0 %
     Copy CRC F3F5F0AA
     Track not present in AccurateRip database
     Copy OK
Track  7
     Filename A:\PsPBuRnOuT's MUSIC\100 HITS\- 100 HITS - THE BEST -\100 HITS - THE BEST - ROCK ALBUM\100 HITS - THE BEST - ROCK ALBUM - DISC 01\07.Europe - The Final Countdown.wav
     Peak level 85.1 %
     Extraction speed 23.0 X
     Track quality 100.0 %
     Copy CRC 62294576
     Track not present in AccurateRip database
     Copy OK
Track  8
     Filename A:\PsPBuRnOuT's MUSIC\100 HITS\- 100 HITS - THE BEST -\100 HITS - THE BEST - ROCK ALBUM\100 HITS - THE BEST - ROCK ALBUM - DISC 01\08.Meat Loaf With Cher - Dead Ringer For Love.wav
     Peak level 82.2 %
     Extraction speed 25.3 X
     Track quality 100.0 %
     Copy CRC F9B37EBB
     Track not present in AccurateRip database
     Copy OK
Track  9
     Filename A:\PsPBuRnOuT's MUSIC\100 HITS\- 100 HITS - THE BEST -\100 HITS - THE BEST - ROCK ALBUM\100 HITS - THE BEST - ROCK ALBUM - DISC 01\09.REO Speedwagon - Can't Fight This Feeling.wav
     Peak level 64.5 %
     Extraction speed 29.1 X
     Track quality 100.0 %
     Copy CRC 583FBEA6
     Track not present in AccurateRip database
     Copy OK
Track 10
     Filename A:\PsPBuRnOuT's MUSIC\100 HITS\- 100 HITS - THE BEST -\100 HITS - THE BEST - ROCK ALBUM\100 HITS - THE BEST - ROCK ALBUM - DISC 01\10.John Farnham - You're The Voice.wav
     Peak level 94.3 %
     Extraction speed 21.9 X
     Track quality 99.9 %
     Copy CRC 22BA5A6D
     Track not present in AccurateRip database
     Copy OK
Track 11
     Filename A:\PsPBuRnOuT's MUSIC\100 HITS\- 100 HITS - THE BEST -\100 HITS - THE BEST - ROCK ALBUM\100 HITS - THE BEST - ROCK ALBUM - DISC 01\11.Heart - Barracuda.wav
     Peak level 82.2 %
     Extraction speed 27.0 X
     Track quality 100.0 %
     Copy CRC DB0543B0
     Track not present in AccurateRip database
     Copy OK
Track 12
     Filename A:\PsPBuRnOuT's MUSIC\100 HITS\- 100 HITS - THE BEST -\100 HITS - THE BEST - ROCK ALBUM\100 HITS - THE BEST - ROCK ALBUM - DISC 01\12.Gillan - Trouble.wav
     Peak level 72.3 %
     Extraction speed 23.8 X
     Track quality 99.8 %
     Copy CRC F385BA48
     Track not present in AccurateRip database
     Copy OK
Track 13
     Filename A:\PsPBuRnOuT's MUSIC\100 HITS\- 100 HITS - THE BEST -\100 HITS - THE BEST - ROCK ALBUM\100 HITS - THE BEST - ROCK ALBUM - DISC 01\13.Bonnie Tyler - Faster Than The Speed Of Night.wav
     Peak level 94.3 %
     Extraction speed 28.2 X
     Track quality 100.0 %
     Copy CRC AD20BF4F
     Track not present in AccurateRip database
     Copy OK
Track 14
     Filename A:\PsPBuRnOuT's MUSIC\100 HITS\- 100 HITS - THE BEST -\100 HITS - THE BEST - ROCK ALBUM\100 HITS - THE BEST - ROCK ALBUM - DISC 01\14.Graham Bonnet - Night Games.wav
     Peak level 85.1 %
     Extraction speed 27.9 X
     Track quality 100.0 %
     Copy CRC D23CF82E
     Track not present in AccurateRip database
     Copy OK
Track 15
     Filename A:\PsPBuRnOuT's MUSIC\100 HITS\- 100 HITS - THE BEST -\100 HITS - THE BEST - ROCK ALBUM\100 HITS - THE BEST - ROCK ALBUM - DISC 01\15.Rick Springfield - Jessie's Girl.wav
     Peak level 82.2 %
     Extraction speed 34.0 X
     Track quality 100.0 %
     Copy CRC 6E75B446
     Track not present in AccurateRip database
     Copy OK
Track 16
     Filename A:\PsPBuRnOuT's MUSIC\100 HITS\- 100 HITS - THE BEST -\100 HITS - THE BEST - ROCK ALBUM\100 HITS - THE BEST - ROCK ALBUM - DISC 01\16.Kenny Loggins - Danger Zone.wav
     Peak level 94.3 %
     Extraction speed 29.7 X
     Track quality 100.0 %
     Copy CRC 7C86CEA7
     Track not present in AccurateRip database
     Copy OK
Track 17
     Filename A:\PsPBuRnOuT's MUSIC\100 HITS\- 100 HITS - THE BEST -\100 HITS - THE BEST - ROCK ALBUM\100 HITS - THE BEST - ROCK ALBUM - DISC 01\17.Men At Work - Who Can It Be Now.wav
     Peak level 85.1 %
     Extraction speed 26.6 X
     Track quality 99.8 %
     Copy CRC 85A27758
     Track not present in AccurateRip database
     Copy OK
Track 18
     Filename A:\PsPBuRnOuT's MUSIC\100 HITS\- 100 HITS - THE BEST -\100 HITS - THE BEST - ROCK ALBUM\100 HITS - THE BEST - ROCK ALBUM - DISC 01\18.Bruce Hornsby & The Range - The Way It Is.wav
     Peak level 73.0 %
     Extraction speed 30.3 X
     Track quality 100.0 %
     Copy CRC A8B73B1D
     Track not present in AccurateRip database
     Copy OK
Track 19
     Filename A:\PsPBuRnOuT's MUSIC\100 HITS\- 100 HITS - THE BEST -\100 HITS - THE BEST - ROCK ALBUM\100 HITS - THE BEST - ROCK ALBUM - DISC 01\19.Patti Smith Group - Because The Night.wav
     Peak level 82.9 %
     Extraction speed 34.6 X
     Track quality 100.0 %
     Copy CRC F5CD73AB
     Track not present in AccurateRip database
     Copy OK
Track 20
     Filename A:\PsPBuRnOuT's MUSIC\100 HITS\- 100 HITS - THE BEST -\100 HITS - THE BEST - ROCK ALBUM\100 HITS - THE BEST - ROCK ALBUM - DISC 01\20.Lou Reed - Walk On The Wild Side.wav
     Peak level 90.1 %
     Extraction speed 31.7 X
     Track quality 100.0 %
     Copy CRC D3550074
     Track not present in AccurateRip database
     Copy OK
None of the tracks are present in the AccurateRip database
No errors occurred
End of status report

CD 2

Код:
Exact Audio Copy V1.3 from 2. September 2016
EAC extraction logfile from 24. June 2018, 22:06
Various / 100 Hits - The Best - Rock Album - CD2
Used drive  : HL-DT-STDVDRAM GSA-E40N   Adapter: 1  ID: 1
Read mode               : Secure
Utilize accurate stream : Yes
Defeat audio cache      : No
Make use of C2 pointers : Yes
Read offset correction                      : 667
Overread into Lead-In and Lead-Out          : No
Fill up missing offset samples with silence : Yes
Delete leading and trailing silent blocks   : No
Null samples used in CRC calculations       : Yes
Used interface                              : Native Win32 interface for Win NT & 2000
Gap handling                                : Not detected, thus appended to previous track
Used output format              : User Defined Encoder
Selected bitrate                : 896 kBit/s
Quality                         : High
Add ID3 tag                     : No
Command line compressor         : C:\Program Files (x86)\Exact Audio Copy\FLAC\FLAC.EXE
Additional command line options : -6 -V -T "ARTIST=%artist%" -T "TITLE=%title%" -T "ALBUM=%albumtitle%" -T "DATE=%year%" -T "TRACKNUMBER=%tracknr%" -T "GENRE=%genre%" -T "COMMENT=%comment%" -T "BAND=%albuminterpret%" -T "ALBUMARTIST=%albuminterpret%" -T "COMPOSER=%composer%" %haslyrics%--tag-from-file=LYRICS="%lyricsfile%"%haslyrics% -T "DISCNUMBER=%cdnumber%" -T "TOTALDISCS=%totalcds%" -T "TOTALTRACKS=%numtracks%" %hascover%--picture="%coverfile%"%hascover% %source% -o %dest%
TOC of the extracted CD
     Track |   Start  |  Length  | Start sector | End sector
    ---------------------------------------------------------
        1  |  0:00.00 |  3:28.69 |         0    |    15668
        2  |  3:28.69 |  3:52.34 |     15669    |    33102
        3  |  7:21.28 |  2:30.15 |     33103    |    44367
        4  |  9:51.43 |  3:19.55 |     44368    |    59347
        5  | 13:11.23 |  4:15.22 |     59348    |    78494
        6  | 17:26.45 |  2:31.59 |     78495    |    89878
        7  | 19:58.29 |  3:17.66 |     89879    |   104719
        8  | 23:16.20 |  2:52.45 |    104720    |   117664
        9  | 26:08.65 |  3:15.49 |    117665    |   132338
       10  | 29:24.39 |  4:04.19 |    132339    |   150657
       11  | 33:28.58 |  3:10.64 |    150658    |   164971
       12  | 36:39.47 |  3:28.34 |    164972    |   180605
       13  | 40:08.06 |  2:15.33 |    180606    |   190763
       14  | 42:23.39 |  4:17.61 |    190764    |   210099
       15  | 46:41.25 |  2:44.33 |    210100    |   222432
       16  | 49:25.58 |  3:34.21 |    222433    |   238503
       17  | 53:00.04 |  3:13.24 |    238504    |   253002
       18  | 56:13.28 |  2:06.23 |    253003    |   262475
       19  | 58:19.51 |  2:41.16 |    262476    |   274566
       20  | 61:00.67 |  1:53.28 |    274567    |   283069
Track  1
     Filename A:\PsPBuRnOuT's MUSIC\100 HITS\- 100 HITS - THE BEST -\100 HITS - THE BEST - ROCK ALBUM\100 HITS - THE BEST - ROCK ALBUM - DISC 02\01.Boston - More Than A Feeling.wav
     Peak level 94.3 %
     Extraction speed 10.5 X
     Track quality 99.7 %
     Copy CRC C512F353
     Track not present in AccurateRip database
     Copy OK
Track  2
     Filename A:\PsPBuRnOuT's MUSIC\100 HITS\- 100 HITS - THE BEST -\100 HITS - THE BEST - ROCK ALBUM\100 HITS - THE BEST - ROCK ALBUM - DISC 02\02.The Guess Who - American Woman.wav
     Peak level 70.7 %
     Extraction speed 15.8 X
     Track quality 99.8 %
     Copy CRC 8B9DBBF4
     Track not present in AccurateRip database
     Copy OK
Track  3
     Filename A:\PsPBuRnOuT's MUSIC\100 HITS\- 100 HITS - THE BEST -\100 HITS - THE BEST - ROCK ALBUM\100 HITS - THE BEST - ROCK ALBUM - DISC 02\03.Ram Jam - Black Betty.wav
     Peak level 78.0 %
     Extraction speed 21.1 X
     Track quality 100.0 %
     Copy CRC 8A2E4184
     Track not present in AccurateRip database
     Copy OK
Track  4
     Filename A:\PsPBuRnOuT's MUSIC\100 HITS\- 100 HITS - THE BEST -\100 HITS - THE BEST - ROCK ALBUM\100 HITS - THE BEST - ROCK ALBUM - DISC 02\04.Santana - She's Not There.wav
     Peak level 92.8 %
     Extraction speed 20.1 X
     Track quality 100.0 %
     Copy CRC 37995162
     Track not present in AccurateRip database
     Copy OK
Track  5
     Filename A:\PsPBuRnOuT's MUSIC\100 HITS\- 100 HITS - THE BEST -\100 HITS - THE BEST - ROCK ALBUM\100 HITS - THE BEST - ROCK ALBUM - DISC 02\05.Big Brother & The Holding Company Feat. Janis Joplin - Piece Of My Heart.wav
     Peak level 94.3 %
     Extraction speed 24.4 X
     Track quality 100.0 %
     Copy CRC B8D7BE21
     Track not present in AccurateRip database
     Copy OK
Track  6
     Filename A:\PsPBuRnOuT's MUSIC\100 HITS\- 100 HITS - THE BEST -\100 HITS - THE BEST - ROCK ALBUM\100 HITS - THE BEST - ROCK ALBUM - DISC 02\06.Mountain - Mississippi Queen.wav
     Peak level 94.3 %
     Extraction speed 25.0 X
     Track quality 100.0 %
     Copy CRC 0D09F057
     Track not present in AccurateRip database
     Copy OK
Track  7
     Filename A:\PsPBuRnOuT's MUSIC\100 HITS\- 100 HITS - THE BEST -\100 HITS - THE BEST - ROCK ALBUM\100 HITS - THE BEST - ROCK ALBUM - DISC 02\07.Argent - Hold Your Head Up.wav
     Peak level 91.1 %
     Extraction speed 21.7 X
     Track quality 99.8 %
     Copy CRC 70089A07
     Track not present in AccurateRip database
     Copy OK
Track  8
     Filename A:\PsPBuRnOuT's MUSIC\100 HITS\- 100 HITS - THE BEST -\100 HITS - THE BEST - ROCK ALBUM\100 HITS - THE BEST - ROCK ALBUM - DISC 02\08.Fleetwood Mac - Black Magic Woman.wav
     Peak level 94.3 %
     Extraction speed 22.9 X
     Track quality 100.0 %
     Copy CRC 4A4B6297
     Track not present in AccurateRip database
     Copy OK
Track  9
     Filename A:\PsPBuRnOuT's MUSIC\100 HITS\- 100 HITS - THE BEST -\100 HITS - THE BEST - ROCK ALBUM\100 HITS - THE BEST - ROCK ALBUM - DISC 02\09.Chicken Shack - I'd Rather Go Blind.wav
     Peak level 85.1 %
     Extraction speed 23.7 X
     Track quality 99.8 %
     Copy CRC B6552729
     Track not present in AccurateRip database
     Copy OK
Track 10
     Filename A:\PsPBuRnOuT's MUSIC\100 HITS\- 100 HITS - THE BEST -\100 HITS - THE BEST - ROCK ALBUM\100 HITS - THE BEST - ROCK ALBUM - DISC 02\10.Family - Burlesque.wav
     Peak level 94.3 %
     Extraction speed 25.2 X
     Track quality 100.0 %
     Copy CRC B4497AB4
     Track not present in AccurateRip database
     Copy OK
Track 11
     Filename A:\PsPBuRnOuT's MUSIC\100 HITS\- 100 HITS - THE BEST -\100 HITS - THE BEST - ROCK ALBUM\100 HITS - THE BEST - ROCK ALBUM - DISC 02\11.Crazy Horse - Rock And Roll Band.wav
     Peak level 79.4 %
     Extraction speed 26.0 X
     Track quality 100.0 %
     Copy CRC 103D5B26
     Track not present in AccurateRip database
     Copy OK
Track 12
     Filename A:\PsPBuRnOuT's MUSIC\100 HITS\- 100 HITS - THE BEST -\100 HITS - THE BEST - ROCK ALBUM\100 HITS - THE BEST - ROCK ALBUM - DISC 02\12.Kansas - Carry On Wayward Son.wav
     Peak level 94.3 %
     Extraction speed 29.7 X
     Track quality 100.0 %
     Copy CRC F8F02549
     Track not present in AccurateRip database
     Copy OK
Track 13
     Filename A:\PsPBuRnOuT's MUSIC\100 HITS\- 100 HITS - THE BEST -\100 HITS - THE BEST - ROCK ALBUM\100 HITS - THE BEST - ROCK ALBUM - DISC 02\13.Captain Beefheart & His Magic Band - Sure 'Nuff 'N' Yes, I Do.wav
     Peak level 94.3 %
     Extraction speed 19.1 X
     Track quality 99.8 %
     Copy CRC 3F60955F
     Track not present in AccurateRip database
     Copy OK
Track 14
     Filename A:\PsPBuRnOuT's MUSIC\100 HITS\- 100 HITS - THE BEST -\100 HITS - THE BEST - ROCK ALBUM\100 HITS - THE BEST - ROCK ALBUM - DISC 02\14.Iggy & The Stooges - Raw Power (Iggy Pop Mix).wav
     Peak level 56.1 %
     Extraction speed 27.5 X
     Track quality 99.9 %
     Copy CRC 3908747A
     Track not present in AccurateRip database
     Copy OK
Track 15
     Filename A:\PsPBuRnOuT's MUSIC\100 HITS\- 100 HITS - THE BEST -\100 HITS - THE BEST - ROCK ALBUM\100 HITS - THE BEST - ROCK ALBUM - DISC 02\15.Redbone - The Witch Queen Of New Orleans.wav
     Peak level 94.3 %
     Extraction speed 25.1 X
     Track quality 99.8 %
     Copy CRC AC4BCA47
     Track not present in AccurateRip database
     Copy OK
Track 16
     Filename A:\PsPBuRnOuT's MUSIC\100 HITS\- 100 HITS - THE BEST -\100 HITS - THE BEST - ROCK ALBUM\100 HITS - THE BEST - ROCK ALBUM - DISC 02\16.The Gun - Race With The Devil.wav
     Peak level 94.3 %
     Extraction speed 33.7 X
     Track quality 100.0 %
     Copy CRC EA5E5033
     Track not present in AccurateRip database
     Copy OK
Track 17
     Filename A:\PsPBuRnOuT's MUSIC\100 HITS\- 100 HITS - THE BEST -\100 HITS - THE BEST - ROCK ALBUM\100 HITS - THE BEST - ROCK ALBUM - DISC 02\17.Spirit - Fresh Garbage.wav
     Peak level 94.3 %
     Extraction speed 29.8 X
     Track quality 100.0 %
     Copy CRC F304AD0B
     Track not present in AccurateRip database
     Copy OK
Track 18
     Filename A:\PsPBuRnOuT's MUSIC\100 HITS\- 100 HITS - THE BEST -\100 HITS - THE BEST - ROCK ALBUM\100 HITS - THE BEST - ROCK ALBUM - DISC 02\18.The Byrds - So You Want To Be A Rock 'N' Roll Star.wav
     Peak level 91.1 %
     Extraction speed 30.7 X
     Track quality 100.0 %
     Copy CRC 82B4E96C
     Track not present in AccurateRip database
     Copy OK
Track 19
     Filename A:\PsPBuRnOuT's MUSIC\100 HITS\- 100 HITS - THE BEST -\100 HITS - THE BEST - ROCK ALBUM\100 HITS - THE BEST - ROCK ALBUM - DISC 02\19.The Lovin' Spoonful - Summer In The City.wav
     Peak level 85.2 %
     Extraction speed 27.1 X
     Track quality 99.8 %
     Copy CRC FF6C04FC
     Track not present in AccurateRip database
     Copy OK
Track 20
     Filename A:\PsPBuRnOuT's MUSIC\100 HITS\- 100 HITS - THE BEST -\100 HITS - THE BEST - ROCK ALBUM\100 HITS - THE BEST - ROCK ALBUM - DISC 02\20.The Box Tops - The Letter.wav
     Peak level 94.3 %
     Extraction speed 24.5 X
     Track quality 100.0 %
     Copy CRC 8AA2F62C
     Track not present in AccurateRip database
     Copy OK
None of the tracks are present in the AccurateRip database
No errors occurred
End of status report

CD 3

Код:
Exact Audio Copy V1.3 from 2. September 2016
EAC extraction logfile from 24. June 2018, 22:46
Various / 100 Hits - The Best - Rock Album - CD3
Used drive  : HL-DT-STDVDRAM GSA-E40N   Adapter: 1  ID: 1
Read mode               : Secure
Utilize accurate stream : Yes
Defeat audio cache      : No
Make use of C2 pointers : Yes
Read offset correction                      : 667
Overread into Lead-In and Lead-Out          : No
Fill up missing offset samples with silence : Yes
Delete leading and trailing silent blocks   : No
Null samples used in CRC calculations       : Yes
Used interface                              : Native Win32 interface for Win NT & 2000
Gap handling                                : Not detected, thus appended to previous track
Used output format              : User Defined Encoder
Selected bitrate                : 896 kBit/s
Quality                         : High
Add ID3 tag                     : No
Command line compressor         : C:\Program Files (x86)\Exact Audio Copy\FLAC\FLAC.EXE
Additional command line options : -6 -V -T "ARTIST=%artist%" -T "TITLE=%title%" -T "ALBUM=%albumtitle%" -T "DATE=%year%" -T "TRACKNUMBER=%tracknr%" -T "GENRE=%genre%" -T "COMMENT=%comment%" -T "BAND=%albuminterpret%" -T "ALBUMARTIST=%albuminterpret%" -T "COMPOSER=%composer%" %haslyrics%--tag-from-file=LYRICS="%lyricsfile%"%haslyrics% -T "DISCNUMBER=%cdnumber%" -T "TOTALDISCS=%totalcds%" -T "TOTALTRACKS=%numtracks%" %hascover%--picture="%coverfile%"%hascover% %source% -o %dest%
TOC of the extracted CD
     Track |   Start  |  Length  | Start sector | End sector
    ---------------------------------------------------------
        1  |  0:00.00 |  4:20.36 |         0    |    19535
        2  |  4:20.36 |  4:52.46 |     19536    |    41481
        3  |  9:13.07 |  5:26.04 |     41482    |    65935
        4  | 14:39.11 |  4:11.35 |     65936    |    84795
        5  | 18:50.46 |  2:46.49 |     84796    |    97294
        6  | 21:37.20 |  4:01.57 |     97295    |   115426
        7  | 25:39.02 |  3:49.55 |    115427    |   132656
        8  | 29:28.57 |  4:05.51 |    132657    |   151082
        9  | 33:34.33 |  3:21.28 |    151083    |   166185
       10  | 36:55.61 |  4:12.55 |    166186    |   185140
       11  | 41:08.41 |  3:25.19 |    185141    |   200534
       12  | 44:33.60 |  3:55.38 |    200535    |   218197
       13  | 48:29.23 |  5:02.13 |    218198    |   240860
       14  | 53:31.36 |  3:03.28 |    240861    |   254613
       15  | 56:34.64 |  3:48.63 |    254614    |   271776
       16  | 60:23.52 |  3:39.13 |    271777    |   288214
       17  | 64:02.65 |  3:39.62 |    288215    |   304701
       18  | 67:42.52 |  4:34.61 |    304702    |   325312
       19  | 72:17.38 |  3:20.53 |    325313    |   340365
       20  | 75:38.16 |  4:16.44 |    340366    |   359609
Track  1
     Filename A:\PsPBuRnOuT's MUSIC\100 HITS\- 100 HITS - THE BEST -\100 HITS - THE BEST - ROCK ALBUM\100 HITS - THE BEST - ROCK ALBUM - DISC 03\01.Bonnie Tyler - Holding Out For A Hero.wav
     Peak level 91.1 %
     Extraction speed 16.0 X
     Track quality 99.9 %
     Copy CRC EEDEE460
     Track not present in AccurateRip database
     Copy OK
Track  2
     Filename A:\PsPBuRnOuT's MUSIC\100 HITS\- 100 HITS - THE BEST -\100 HITS - THE BEST - ROCK ALBUM\100 HITS - THE BEST - ROCK ALBUM - DISC 03\02.Meat Loaf - Bat Out Of Hell.wav
     Peak level 79.4 %
     Extraction speed 14.5 X
     Track quality 99.8 %
     Copy CRC 38C2A159
     Track not present in AccurateRip database
     Copy OK
Track  3
     Filename A:\PsPBuRnOuT's MUSIC\100 HITS\- 100 HITS - THE BEST -\100 HITS - THE BEST - ROCK ALBUM\100 HITS - THE BEST - ROCK ALBUM - DISC 03\03.Jim Steinman - Rock And Roll Dreams Come Through.wav
     Peak level 89.1 %
     Extraction speed 22.2 X
     Track quality 100.0 %
     Copy CRC 7082D267
     Track not present in AccurateRip database
     Copy OK
Track  4
     Filename A:\PsPBuRnOuT's MUSIC\100 HITS\- 100 HITS - THE BEST -\100 HITS - THE BEST - ROCK ALBUM\100 HITS - THE BEST - ROCK ALBUM - DISC 03\04.Cyndi Lauper - I Drove All Night.wav
     Peak level 94.3 %
     Extraction speed 23.9 X
     Track quality 100.0 %
     Copy CRC 5BD00857
     Track not present in AccurateRip database
     Copy OK
Track  5
     Filename A:\PsPBuRnOuT's MUSIC\100 HITS\- 100 HITS - THE BEST -\100 HITS - THE BEST - ROCK ALBUM\100 HITS - THE BEST - ROCK ALBUM - DISC 03\05.The Bangles - Hazy Shade Of Winter.wav
     Peak level 94.3 %
     Extraction speed 20.0 X
     Track quality 99.8 %
     Copy CRC DA4A2FC5
     Track not present in AccurateRip database
     Copy OK
Track  6
     Filename A:\PsPBuRnOuT's MUSIC\100 HITS\- 100 HITS - THE BEST -\100 HITS - THE BEST - ROCK ALBUM\100 HITS - THE BEST - ROCK ALBUM - DISC 03\06.Toto - Rosanna.wav
     Peak level 94.3 %
     Extraction speed 21.1 X
     Track quality 99.9 %
     Copy CRC A53E0F51
     Track not present in AccurateRip database
     Copy OK
Track  7
     Filename A:\PsPBuRnOuT's MUSIC\100 HITS\- 100 HITS - THE BEST -\100 HITS - THE BEST - ROCK ALBUM\100 HITS - THE BEST - ROCK ALBUM - DISC 03\07.Survivor - Burning Heart.wav
     Peak level 94.3 %
     Extraction speed 24.1 X
     Track quality 100.0 %
     Copy CRC 155716D7
     Track not present in AccurateRip database
     Copy OK
Track  8
     Filename A:\PsPBuRnOuT's MUSIC\100 HITS\- 100 HITS - THE BEST -\100 HITS - THE BEST - ROCK ALBUM\100 HITS - THE BEST - ROCK ALBUM - DISC 03\08.Europe - Rock The Night.wav
     Peak level 94.3 %
     Extraction speed 22.7 X
     Track quality 99.9 %
     Copy CRC EBEE57B4
     Track not present in AccurateRip database
     Copy OK
Track  9
     Filename A:\PsPBuRnOuT's MUSIC\100 HITS\- 100 HITS - THE BEST -\100 HITS - THE BEST - ROCK ALBUM\100 HITS - THE BEST - ROCK ALBUM - DISC 03\09.REO Speedwagon - Keep On Loving You.wav
     Peak level 94.3 %
     Extraction speed 23.8 X
     Track quality 99.8 %
     Copy CRC C3F75327
     Track not present in AccurateRip database
     Copy OK
Track 10
     Filename A:\PsPBuRnOuT's MUSIC\100 HITS\- 100 HITS - THE BEST -\100 HITS - THE BEST - ROCK ALBUM\100 HITS - THE BEST - ROCK ALBUM - DISC 03\10.Mr. Mister - Kyrie.wav
     Peak level 94.3 %
     Extraction speed 22.3 X
     Track quality 99.9 %
     Copy CRC F29FEDA9
     Track not present in AccurateRip database
     Copy OK
Track 11
     Filename A:\PsPBuRnOuT's MUSIC\100 HITS\- 100 HITS - THE BEST -\100 HITS - THE BEST - ROCK ALBUM\100 HITS - THE BEST - ROCK ALBUM - DISC 03\11.Kansas - Dust In The Wind.wav
     Peak level 86.8 %
     Extraction speed 31.2 X
     Track quality 100.0 %
     Copy CRC 5F501873
     Track not present in AccurateRip database
     Copy OK
Track 12
     Filename A:\PsPBuRnOuT's MUSIC\100 HITS\- 100 HITS - THE BEST -\100 HITS - THE BEST - ROCK ALBUM\100 HITS - THE BEST - ROCK ALBUM - DISC 03\12.Rick Springfield - Human Touch.wav
     Peak level 94.3 %
     Extraction speed 26.4 X
     Track quality 99.9 %
     Copy CRC 9DEA987D
     Track not present in AccurateRip database
     Copy OK
Track 13
     Filename A:\PsPBuRnOuT's MUSIC\100 HITS\- 100 HITS - THE BEST -\100 HITS - THE BEST - ROCK ALBUM\100 HITS - THE BEST - ROCK ALBUM - DISC 03\13.Boston - Peace Of Mind.wav
     Peak level 82.2 %
     Extraction speed 32.9 X
     Track quality 100.0 %
     Copy CRC C4740831
     Track not present in AccurateRip database
     Copy OK
Track 14
     Filename A:\PsPBuRnOuT's MUSIC\100 HITS\- 100 HITS - THE BEST -\100 HITS - THE BEST - ROCK ALBUM\100 HITS - THE BEST - ROCK ALBUM - DISC 03\14.Hanoi Rocks - Up Around The Bend.wav
     Peak level 74.1 %
     Extraction speed 33.7 X
     Track quality 100.0 %
     Copy CRC 38F5F1F9
     Track not present in AccurateRip database
     Copy OK
Track 15
     Filename A:\PsPBuRnOuT's MUSIC\100 HITS\- 100 HITS - THE BEST -\100 HITS - THE BEST - ROCK ALBUM\100 HITS - THE BEST - ROCK ALBUM - DISC 03\15.Quiet Riot - Come On Feel The Noize.wav
     Peak level 85.1 %
     Extraction speed 33.8 X
     Track quality 100.0 %
     Copy CRC 3F93F265
     Track not present in AccurateRip database
     Copy OK
Track 16
     Filename A:\PsPBuRnOuT's MUSIC\100 HITS\- 100 HITS - THE BEST -\100 HITS - THE BEST - ROCK ALBUM\100 HITS - THE BEST - ROCK ALBUM - DISC 03\16.Ted Nugent - Cat Scratch Fever.wav
     Peak level 94.3 %
     Extraction speed 30.7 X
     Track quality 100.0 %
     Copy CRC 5A6A9DFF
     Track not present in AccurateRip database
     Copy OK
Track 17
     Filename A:\PsPBuRnOuT's MUSIC\100 HITS\- 100 HITS - THE BEST -\100 HITS - THE BEST - ROCK ALBUM\100 HITS - THE BEST - ROCK ALBUM - DISC 03\17.Stevie Ray Vaughan & Double Trouble - Pride And Joy.wav
     Peak level 94.3 %
     Extraction speed 29.7 X
     Track quality 100.0 %
     Copy CRC 9BA03215
     Track not present in AccurateRip database
     Copy OK
Track 18
     Filename A:\PsPBuRnOuT's MUSIC\100 HITS\- 100 HITS - THE BEST -\100 HITS - THE BEST - ROCK ALBUM\100 HITS - THE BEST - ROCK ALBUM - DISC 03\18.Alice Cooper - Hey Stoopid.wav
     Peak level 94.3 %
     Extraction speed 34.4 X
     Track quality 100.0 %
     Copy CRC 9DE2FBA0
     Track not present in AccurateRip database
     Copy OK
Track 19
     Filename A:\PsPBuRnOuT's MUSIC\100 HITS\- 100 HITS - THE BEST -\100 HITS - THE BEST - ROCK ALBUM\100 HITS - THE BEST - ROCK ALBUM - DISC 03\19.Warrant - Cherry Pie.wav
     Peak level 94.3 %
     Extraction speed 29.2 X
     Track quality 100.0 %
     Copy CRC D3DC965C
     Track not present in AccurateRip database
     Copy OK
Track 20
     Filename A:\PsPBuRnOuT's MUSIC\100 HITS\- 100 HITS - THE BEST -\100 HITS - THE BEST - ROCK ALBUM\100 HITS - THE BEST - ROCK ALBUM - DISC 03\20.Bad English - When I See You Smile.wav
     Peak level 94.3 %
     Extraction speed 33.9 X
     Track quality 100.0 %
     Copy CRC 178A6F1F
     Track not present in AccurateRip database
     Copy OK
None of the tracks are present in the AccurateRip database
No errors occurred
End of status report

CD 4

Код:
Exact Audio Copy V1.3 from 2. September 2016
EAC extraction logfile from 24. June 2018, 23:42
Various / 100 Hits - The Best - Rock Album - CD4
Used drive  : HL-DT-STDVDRAM GSA-E40N   Adapter: 1  ID: 1
Read mode               : Secure
Utilize accurate stream : Yes
Defeat audio cache      : No
Make use of C2 pointers : Yes
Read offset correction                      : 667
Overread into Lead-In and Lead-Out          : No
Fill up missing offset samples with silence : Yes
Delete leading and trailing silent blocks   : No
Null samples used in CRC calculations       : Yes
Used interface                              : Native Win32 interface for Win NT & 2000
Gap handling                                : Not detected, thus appended to previous track
Used output format              : User Defined Encoder
Selected bitrate                : 896 kBit/s
Quality                         : High
Add ID3 tag                     : No
Command line compressor         : C:\Program Files (x86)\Exact Audio Copy\FLAC\FLAC.EXE
Additional command line options : -6 -V -T "ARTIST=%artist%" -T "TITLE=%title%" -T "ALBUM=%albumtitle%" -T "DATE=%year%" -T "TRACKNUMBER=%tracknr%" -T "GENRE=%genre%" -T "COMMENT=%comment%" -T "BAND=%albuminterpret%" -T "ALBUMARTIST=%albuminterpret%" -T "COMPOSER=%composer%" %haslyrics%--tag-from-file=LYRICS="%lyricsfile%"%haslyrics% -T "DISCNUMBER=%cdnumber%" -T "TOTALDISCS=%totalcds%" -T "TOTALTRACKS=%numtracks%" %hascover%--picture="%coverfile%"%hascover% %source% -o %dest%
TOC of the extracted CD
     Track |   Start  |  Length  | Start sector | End sector
    ---------------------------------------------------------
        1  |  0:00.00 |  3:31.06 |         0    |    15830
        2  |  3:31.06 |  3:21.61 |     15831    |    30966
        3  |  6:52.67 |  3:25.28 |     30967    |    46369
        4  | 10:18.20 |  2:56.20 |     46370    |    59589
        5  | 13:14.40 |  3:29.72 |     59590    |    75336
        6  | 16:44.37 |  3:12.34 |     75337    |    89770
        7  | 19:56.71 |  3:41.48 |     89771    |   106393
        8  | 23:38.44 |  3:02.18 |    106394    |   120061
        9  | 26:40.62 |  4:28.34 |    120062    |   140195
       10  | 31:09.21 |  4:00.00 |    140196    |   158195
       11  | 35:09.21 |  4:18.34 |    158196    |   177579
       12  | 39:27.55 |  4:05.31 |    177580    |   195985
       13  | 43:33.11 |  3:03.24 |    195986    |   209734
       14  | 46:36.35 |  4:09.27 |    209735    |   228436
       15  | 50:45.62 |  3:10.09 |    228437    |   242695
       16  | 53:55.71 |  4:53.70 |    242696    |   264740
       17  | 58:49.66 |  2:58.27 |    264741    |   278117
       18  | 61:48.18 |  2:39.15 |    278118    |   290057
       19  | 64:27.33 |  4:01.11 |    290058    |   308143
       20  | 68:28.44 |  3:24.46 |    308144    |   323489
Track  1
     Filename A:\PsPBuRnOuT's MUSIC\100 HITS\- 100 HITS - THE BEST -\100 HITS - THE BEST - ROCK ALBUM\100 HITS - THE BEST - ROCK ALBUM - DISC 04\01.Mott The Hoople - All The Young Dudes.wav
     Peak level 94.3 %
     Extraction speed 8.2 X
     Track quality 99.4 %
     Copy CRC DBCE0164
     Track not present in AccurateRip database
     Copy OK
Track  2
     Filename A:\PsPBuRnOuT's MUSIC\100 HITS\- 100 HITS - THE BEST -\100 HITS - THE BEST - ROCK ALBUM\100 HITS - THE BEST - ROCK ALBUM - DISC 04\02.Argent - God Gave Rock And Roll To You.wav
     Peak level 89.1 %
     Extraction speed 20.0 X
     Track quality 100.0 %
     Copy CRC 08FC78A3
     Track not present in AccurateRip database
     Copy OK
Track  3
     Filename A:\PsPBuRnOuT's MUSIC\100 HITS\- 100 HITS - THE BEST -\100 HITS - THE BEST - ROCK ALBUM\100 HITS - THE BEST - ROCK ALBUM - DISC 04\03.Albert Hammond - The Free Electric Band.wav
     Peak level 94.3 %
     Extraction speed 19.1 X
     Track quality 100.0 %
     Copy CRC 15CE73F9
     Track not present in AccurateRip database
     Copy OK
Track  4
     Filename A:\PsPBuRnOuT's MUSIC\100 HITS\- 100 HITS - THE BEST -\100 HITS - THE BEST - ROCK ALBUM\100 HITS - THE BEST - ROCK ALBUM - DISC 04\04.Lou Reed - Vicious.wav
     Peak level 91.1 %
     Extraction speed 21.8 X
     Track quality 100.0 %
     Copy CRC 79F02BE6
     Track not present in AccurateRip database
     Copy OK
Track  5
     Filename A:\PsPBuRnOuT's MUSIC\100 HITS\- 100 HITS - THE BEST -\100 HITS - THE BEST - ROCK ALBUM\100 HITS - THE BEST - ROCK ALBUM - DISC 04\05.Iggy & The Stooges - Search And Destroy (Iggy Pop Mix).wav
     Peak level 39.8 %
     Extraction speed 21.1 X
     Track quality 100.0 %
     Copy CRC 937767D0
     Track not present in AccurateRip database
     Copy OK
Track  6
     Filename A:\PsPBuRnOuT's MUSIC\100 HITS\- 100 HITS - THE BEST -\100 HITS - THE BEST - ROCK ALBUM\100 HITS - THE BEST - ROCK ALBUM - DISC 04\06.Judas Priest - Living After Midnight.wav
     Peak level 74.1 %
     Extraction speed 20.4 X
     Track quality 99.8 %
     Copy CRC F9A447FE
     Track not present in AccurateRip database
     Copy OK
Track  7
     Filename A:\PsPBuRnOuT's MUSIC\100 HITS\- 100 HITS - THE BEST -\100 HITS - THE BEST - ROCK ALBUM\100 HITS - THE BEST - ROCK ALBUM - DISC 04\07.Cheap Trick - I Want You To Want Me.wav
     Peak level 94.3 %
     Extraction speed 22.4 X
     Track quality 100.0 %
     Copy CRC 88778539
     Track not present in AccurateRip database
     Copy OK
Track  8
     Filename A:\PsPBuRnOuT's MUSIC\100 HITS\- 100 HITS - THE BEST -\100 HITS - THE BEST - ROCK ALBUM\100 HITS - THE BEST - ROCK ALBUM - DISC 04\08.The Only Ones - Another Girl Another Planet.wav
     Peak level 85.1 %
     Extraction speed 23.4 X
     Track quality 100.0 %
     Copy CRC 220982A8
     Track not present in AccurateRip database
     Copy OK
Track  9
     Filename A:\PsPBuRnOuT's MUSIC\100 HITS\- 100 HITS - THE BEST -\100 HITS - THE BEST - ROCK ALBUM\100 HITS - THE BEST - ROCK ALBUM - DISC 04\09.Big Audio Dynamite - E=MC2.wav
     Peak level 94.3 %
     Extraction speed 25.4 X
     Track quality 100.0 %
     Copy CRC 1E776A3E
     Track not present in AccurateRip database
     Copy OK
Track 10
     Filename A:\PsPBuRnOuT's MUSIC\100 HITS\- 100 HITS - THE BEST -\100 HITS - THE BEST - ROCK ALBUM\100 HITS - THE BEST - ROCK ALBUM - DISC 04\10.The Psychedelic Furs - Pretty In Pink.wav
     Peak level 94.3 %
     Extraction speed 28.5 X
     Track quality 100.0 %
     Copy CRC 87E9C9F2
     Track not present in AccurateRip database
     Copy OK
Track 11
     Filename A:\PsPBuRnOuT's MUSIC\100 HITS\- 100 HITS - THE BEST -\100 HITS - THE BEST - ROCK ALBUM\100 HITS - THE BEST - ROCK ALBUM - DISC 04\11.The Hooters - Satellite.wav
     Peak level 85.1 %
     Extraction speed 26.1 X
     Track quality 99.9 %
     Copy CRC 8A54FC0F
     Track not present in AccurateRip database
     Copy OK
Track 12
     Filename A:\PsPBuRnOuT's MUSIC\100 HITS\- 100 HITS - THE BEST -\100 HITS - THE BEST - ROCK ALBUM\100 HITS - THE BEST - ROCK ALBUM - DISC 04\12.Deacon Blue - Real Gone Kid.wav
     Peak level 85.1 %
     Extraction speed 30.8 X
     Track quality 100.0 %
     Copy CRC 7DCE5CF5
     Track not present in AccurateRip database
     Copy OK
Track 13
     Filename A:\PsPBuRnOuT's MUSIC\100 HITS\- 100 HITS - THE BEST -\100 HITS - THE BEST - ROCK ALBUM\100 HITS - THE BEST - ROCK ALBUM - DISC 04\13.Patti Smith Group - Frederick.wav
     Peak level 74.1 %
     Extraction speed 31.6 X
     Track quality 100.0 %
     Copy CRC 8FB27144
     Track not present in AccurateRip database
     Copy OK
Track 14
     Filename A:\PsPBuRnOuT's MUSIC\100 HITS\- 100 HITS - THE BEST -\100 HITS - THE BEST - ROCK ALBUM\100 HITS - THE BEST - ROCK ALBUM - DISC 04\14.Justin Hayward - Forever Autumn.wav
     Peak level 94.3 %
     Extraction speed 29.1 X
     Track quality 100.0 %
     Copy CRC F796AA3A
     Track not present in AccurateRip database
     Copy OK
Track 15
     Filename A:\PsPBuRnOuT's MUSIC\100 HITS\- 100 HITS - THE BEST -\100 HITS - THE BEST - ROCK ALBUM\100 HITS - THE BEST - ROCK ALBUM - DISC 04\15.Fleetwood Mac - Albatross.wav
     Peak level 94.3 %
     Extraction speed 27.8 X
     Track quality 100.0 %
     Copy CRC 9E974340
     Track not present in AccurateRip database
     Copy OK
Track 16
     Filename A:\PsPBuRnOuT's MUSIC\100 HITS\- 100 HITS - THE BEST -\100 HITS - THE BEST - ROCK ALBUM\100 HITS - THE BEST - ROCK ALBUM - DISC 04\16.Big Brother & The Holding Company - I Need A Man To Love.wav
     Peak level 94.3 %
     Extraction speed 33.4 X
     Track quality 100.0 %
     Copy CRC 7D54EF7E
     Track not present in AccurateRip database
     Copy OK
Track 17
     Filename A:\PsPBuRnOuT's MUSIC\100 HITS\- 100 HITS - THE BEST -\100 HITS - THE BEST - ROCK ALBUM\100 HITS - THE BEST - ROCK ALBUM - DISC 04\17.Santana - Evil Ways.wav
     Peak level 94.3 %
     Extraction speed 28.9 X
     Track quality 100.0 %
     Copy CRC 310607EC
     Track not present in AccurateRip database
     Copy OK
Track 18
     Filename A:\PsPBuRnOuT's MUSIC\100 HITS\- 100 HITS - THE BEST -\100 HITS - THE BEST - ROCK ALBUM\100 HITS - THE BEST - ROCK ALBUM - DISC 04\18.Captain Beefheart & His Magic Band - Zig Zag Wanderer.wav
     Peak level 93.0 %
     Extraction speed 28.5 X
     Track quality 100.0 %
     Copy CRC AC030AB5
     Track not present in AccurateRip database
     Copy OK
Track 19
     Filename A:\PsPBuRnOuT's MUSIC\100 HITS\- 100 HITS - THE BEST -\100 HITS - THE BEST - ROCK ALBUM\100 HITS - THE BEST - ROCK ALBUM - DISC 04\19.Ram Jam - Let It All Out.wav
     Peak level 77.6 %
     Extraction speed 30.9 X
     Track quality 100.0 %
     Copy CRC DBAE7541
     Track not present in AccurateRip database
     Copy OK
Track 20
     Filename A:\PsPBuRnOuT's MUSIC\100 HITS\- 100 HITS - THE BEST -\100 HITS - THE BEST - ROCK ALBUM\100 HITS - THE BEST - ROCK ALBUM - DISC 04\20.The Edgar Winter Group - Frankenstein.wav
     Peak level 79.4 %
     Extraction speed 33.1 X
     Track quality 99.8 %
     Copy CRC 32E935F5
     Track not present in AccurateRip database
     Copy OK
None of the tracks are present in the AccurateRip database
No errors occurred
End of status report

CD 5

Код:
Exact Audio Copy V1.3 from 2. September 2016
EAC extraction logfile from 25. June 2018, 0:20
Various / 100 Hits - The Best - Rock Album - CD5
Used drive  : HL-DT-STDVDRAM GSA-E40N   Adapter: 1  ID: 1
Read mode               : Secure
Utilize accurate stream : Yes
Defeat audio cache      : No
Make use of C2 pointers : Yes
Read offset correction                      : 667
Overread into Lead-In and Lead-Out          : No
Fill up missing offset samples with silence : Yes
Delete leading and trailing silent blocks   : No
Null samples used in CRC calculations       : Yes
Used interface                              : Native Win32 interface for Win NT & 2000
Gap handling                                : Not detected, thus appended to previous track
Used output format              : User Defined Encoder
Selected bitrate                : 896 kBit/s
Quality                         : High
Add ID3 tag                     : No
Command line compressor         : C:\Program Files (x86)\Exact Audio Copy\FLAC\FLAC.EXE
Additional command line options : -6 -V -T "ARTIST=%artist%" -T "TITLE=%title%" -T "ALBUM=%albumtitle%" -T "DATE=%year%" -T "TRACKNUMBER=%tracknr%" -T "GENRE=%genre%" -T "COMMENT=%comment%" -T "BAND=%albuminterpret%" -T "ALBUMARTIST=%albuminterpret%" -T "COMPOSER=%composer%" %haslyrics%--tag-from-file=LYRICS="%lyricsfile%"%haslyrics% -T "DISCNUMBER=%cdnumber%" -T "TOTALDISCS=%totalcds%" -T "TOTALTRACKS=%numtracks%" %hascover%--picture="%coverfile%"%hascover% %source% -o %dest%
TOC of the extracted CD
     Track |   Start  |  Length  | Start sector | End sector
    ---------------------------------------------------------
        1  |  0:00.00 |  3:30.29 |         0    |    15778
        2  |  3:30.29 |  3:34.57 |     15779    |    31885
        3  |  7:05.11 |  3:36.08 |     31886    |    48093
        4  | 10:41.19 |  3:39.11 |     48094    |    64529
        5  | 14:20.30 |  3:06.02 |     64530    |    78481
        6  | 17:26.32 |  4:03.52 |     78482    |    96758
        7  | 21:30.09 |  3:19.35 |     96759    |   111718
        8  | 24:49.44 |  2:50.31 |    111719    |   124499
        9  | 27:40.00 |  5:23.70 |    124500    |   148794
       10  | 33:03.70 |  4:18.40 |    148795    |   168184
       11  | 37:22.35 |  3:20.60 |    168185    |   183244
       12  | 40:43.20 |  4:20.64 |    183245    |   202808
       13  | 45:04.09 |  4:01.46 |    202809    |   220929
       14  | 49:05.55 |  3:28.61 |    220930    |   236590
       15  | 52:34.41 |  3:27.10 |    236591    |   252125
       16  | 56:01.51 |  4:34.46 |    252126    |   272721
       17  | 60:36.22 |  4:20.25 |    272722    |   292246
       18  | 64:56.47 |  4:12.66 |    292247    |   311212
       19  | 69:09.38 |  3:02.37 |    311213    |   324899
       20  | 72:12.00 |  3:39.65 |    324900    |   341389
Track  1
     Filename A:\PsPBuRnOuT's MUSIC\100 HITS\- 100 HITS - THE BEST -\100 HITS - THE BEST - ROCK ALBUM\100 HITS - THE BEST - ROCK ALBUM - DISC 05\01.The Stone Roses - I Wanna Be Adored.wav
     Peak level 94.3 %
     Extraction speed 6.6 X
     Track quality 99.3 %
     Copy CRC F4E8B2A9
     Track not present in AccurateRip database
     Copy OK
Track  2
     Filename A:\PsPBuRnOuT's MUSIC\100 HITS\- 100 HITS - THE BEST -\100 HITS - THE BEST - ROCK ALBUM\100 HITS - THE BEST - ROCK ALBUM - DISC 05\02.Manic Street Preachers - Motorcycle Emptiness.wav
     Peak level 82.2 %
     Extraction speed 17.0 X
     Track quality 99.9 %
     Copy CRC 2514F10B
     Track not present in AccurateRip database
     Copy OK
Track  3
     Filename A:\PsPBuRnOuT's MUSIC\100 HITS\- 100 HITS - THE BEST -\100 HITS - THE BEST - ROCK ALBUM\100 HITS - THE BEST - ROCK ALBUM - DISC 05\03.Primal Scream - Rocks.wav
     Peak level 91.7 %
     Extraction speed 21.0 X
     Track quality 100.0 %
     Copy CRC 237ABFAB
     Track not present in AccurateRip database
     Copy OK
Track  4
     Filename A:\PsPBuRnOuT's MUSIC\100 HITS\- 100 HITS - THE BEST -\100 HITS - THE BEST - ROCK ALBUM\100 HITS - THE BEST - ROCK ALBUM - DISC 05\04.Reef - Place Your Hands.wav
     Peak level 94.3 %
     Extraction speed 20.6 X
     Track quality 100.0 %
     Copy CRC B4E10ED8
     Track not present in AccurateRip database
     Copy OK
Track  5
     Filename A:\PsPBuRnOuT's MUSIC\100 HITS\- 100 HITS - THE BEST -\100 HITS - THE BEST - ROCK ALBUM\100 HITS - THE BEST - ROCK ALBUM - DISC 05\05.The Mooney Suzuki - Alive & Amplified.wav
     Peak level 69.1 %
     Extraction speed 20.9 X
     Track quality 100.0 %
     Copy CRC 16A795DA
     Track not present in AccurateRip database
     Copy OK
Track  6
     Filename A:\PsPBuRnOuT's MUSIC\100 HITS\- 100 HITS - THE BEST -\100 HITS - THE BEST - ROCK ALBUM\100 HITS - THE BEST - ROCK ALBUM - DISC 05\06.Wheatus - Teenage Dirtbag.wav
     Peak level 80.8 %
     Extraction speed 22.6 X
     Track quality 100.0 %
     Copy CRC C3EE9530
     Track not present in AccurateRip database
     Copy OK
Track  7
     Filename A:\PsPBuRnOuT's MUSIC\100 HITS\- 100 HITS - THE BEST -\100 HITS - THE BEST - ROCK ALBUM\100 HITS - THE BEST - ROCK ALBUM - DISC 05\07.Bowling For Soup - Girl All The Bad Guys Want.wav
     Peak level 76.6 %
     Extraction speed 21.3 X
     Track quality 99.8 %
     Copy CRC 49ED96AA
     Track not present in AccurateRip database
     Copy OK
Track  8
     Filename A:\PsPBuRnOuT's MUSIC\100 HITS\- 100 HITS - THE BEST -\100 HITS - THE BEST - ROCK ALBUM\100 HITS - THE BEST - ROCK ALBUM - DISC 05\08.Lit - My Own Worst Enemy.wav
     Peak level 77.6 %
     Extraction speed 22.9 X
     Track quality 100.0 %
     Copy CRC 42662174
     Track not present in AccurateRip database
     Copy OK
Track  9
     Filename A:\PsPBuRnOuT's MUSIC\100 HITS\- 100 HITS - THE BEST -\100 HITS - THE BEST - ROCK ALBUM\100 HITS - THE BEST - ROCK ALBUM - DISC 05\09.Jeff Buckley - Grace.wav
     Peak level 85.1 %
     Extraction speed 25.8 X
     Track quality 100.0 %
     Copy CRC D8885105
     Track not present in AccurateRip database
     Copy OK
Track 10
     Filename A:\PsPBuRnOuT's MUSIC\100 HITS\- 100 HITS - THE BEST -\100 HITS - THE BEST - ROCK ALBUM\100 HITS - THE BEST - ROCK ALBUM - DISC 05\10.Dinosaur Jr. - Feel The Pain.wav
     Peak level 94.3 %
     Extraction speed 29.9 X
     Track quality 100.0 %
     Copy CRC 631F45D7
     Track not present in AccurateRip database
     Copy OK
Track 11
     Filename A:\PsPBuRnOuT's MUSIC\100 HITS\- 100 HITS - THE BEST -\100 HITS - THE BEST - ROCK ALBUM\100 HITS - THE BEST - ROCK ALBUM - DISC 05\11.Sugar - If I Can't Change Your Mind.wav
     Peak level 72.4 %
     Extraction speed 30.5 X
     Track quality 100.0 %
     Copy CRC 628A79E1
     Track not present in AccurateRip database
     Copy OK
Track 12
     Filename A:\PsPBuRnOuT's MUSIC\100 HITS\- 100 HITS - THE BEST -\100 HITS - THE BEST - ROCK ALBUM\100 HITS - THE BEST - ROCK ALBUM - DISC 05\12.Train - Drops Of Jupiter.wav
     Peak level 87.1 %
     Extraction speed 27.8 X
     Track quality 100.0 %
     Copy CRC 106E167F
     Track not present in AccurateRip database
     Copy OK
Track 13
     Filename A:\PsPBuRnOuT's MUSIC\100 HITS\- 100 HITS - THE BEST -\100 HITS - THE BEST - ROCK ALBUM\100 HITS - THE BEST - ROCK ALBUM - DISC 05\13.The Fray - How To Save A Life.wav
     Peak level 69.9 %
     Extraction speed 32.3 X
     Track quality 100.0 %
     Copy CRC EF6C01D4
     Track not present in AccurateRip database
     Copy OK
Track 14
     Filename A:\PsPBuRnOuT's MUSIC\100 HITS\- 100 HITS - THE BEST -\100 HITS - THE BEST - ROCK ALBUM\100 HITS - THE BEST - ROCK ALBUM - DISC 05\14.The Calling - Wherever You Will Go.wav
     Peak level 94.3 %
     Extraction speed 33.2 X
     Track quality 100.0 %
     Copy CRC 46019662
     Track not present in AccurateRip database
     Copy OK
Track 15
     Filename A:\PsPBuRnOuT's MUSIC\100 HITS\- 100 HITS - THE BEST -\100 HITS - THE BEST - ROCK ALBUM\100 HITS - THE BEST - ROCK ALBUM - DISC 05\15.Soul Asylum - Runaway Train.wav
     Peak level 84.9 %
     Extraction speed 27.2 X
     Track quality 99.8 %
     Copy CRC EAC8641E
     Track not present in AccurateRip database
     Copy OK
Track 16
     Filename A:\PsPBuRnOuT's MUSIC\100 HITS\- 100 HITS - THE BEST -\100 HITS - THE BEST - ROCK ALBUM\100 HITS - THE BEST - ROCK ALBUM - DISC 05\16.Screaming Trees - Dollar Bill.wav
     Peak level 73.2 %
     Extraction speed 29.7 X
     Track quality 100.0 %
     Copy CRC 0C0E5BD8
     Track not present in AccurateRip database
     Copy OK
Track 17
     Filename A:\PsPBuRnOuT's MUSIC\100 HITS\- 100 HITS - THE BEST -\100 HITS - THE BEST - ROCK ALBUM\100 HITS - THE BEST - ROCK ALBUM - DISC 05\17.Living Colour - Love Rears It's Ugly Head.wav
     Peak level 85.1 %
     Extraction speed 28.7 X
     Track quality 99.9 %
     Copy CRC 6C9B5E45
     Track not present in AccurateRip database
     Copy OK
Track 18
     Filename A:\PsPBuRnOuT's MUSIC\100 HITS\- 100 HITS - THE BEST -\100 HITS - THE BEST - ROCK ALBUM\100 HITS - THE BEST - ROCK ALBUM - DISC 05\18.The Jeff Healey Band - While My Guitar Gently Weeps.wav
     Peak level 94.3 %
     Extraction speed 31.4 X
     Track quality 100.0 %
     Copy CRC 13877B32
     Track not present in AccurateRip database
     Copy OK
Track 19
     Filename A:\PsPBuRnOuT's MUSIC\100 HITS\- 100 HITS - THE BEST -\100 HITS - THE BEST - ROCK ALBUM\100 HITS - THE BEST - ROCK ALBUM - DISC 05\19.JJ Cale - Hold On Baby.wav
     Peak level 94.3 %
     Extraction speed 27.4 X
     Track quality 100.0 %
     Copy CRC 439226C2
     Track not present in AccurateRip database
     Copy OK
Track 20
     Filename A:\PsPBuRnOuT's MUSIC\100 HITS\- 100 HITS - THE BEST -\100 HITS - THE BEST - ROCK ALBUM\100 HITS - THE BEST - ROCK ALBUM - DISC 05\20.Status Quo - Don't Stop.wav
     Peak level 82.2 %
     Extraction speed 29.8 X
     Track quality 100.0 %
     Copy CRC B0FDBEA8
     Track not present in AccurateRip database
     Copy OK
None of the tracks are present in the AccurateRip database
No errors occurred
End of status report
--

_________________
Разница между теорией и практикой в том, что теоретически разницы между теорией и практикой нет, а на практике она есть.
[Профиль] [ЛС]

Офлайн

sergej644

Стаж:
5 лет 9 месяцев
Сообщений:
892

Индексная карта (non-compilant .cue)

CD 1

Код:
REM GENRE Rock
REM DATE 2018
REM DISCID 1A113F14
REM DISCNUMBER 01
REM TOTALDISCS 05
REM COMMENT "Exact Audio Copy V1.3"
PERFORMER "Various"
TITLE "100 Hits - The Best - Rock Album - CD1"
FILE "01.Alice Cooper - Poison.flac" WAVE
  TRACK 01 AUDIO
    PERFORMER "Alice Cooper"
    TITLE "Poison"
    INDEX 01 00:00:00
FILE "02.Judas Priest - Breaking The Law.flac" WAVE
  TRACK 02 AUDIO
    PERFORMER "Judas Priest"
    TITLE "Breaking The Law"
    INDEX 01 00:00:00
FILE "03.RUN-DMC Feat. Aerosmith - Walk This Way.flac" WAVE
  TRACK 03 AUDIO
    PERFORMER "RUN-DMC Feat. Aerosmith"
    TITLE "Walk This Way"
    INDEX 01 00:00:00
FILE "04.Toto - Hold The Line.flac" WAVE
  TRACK 04 AUDIO
    PERFORMER "Toto"
    TITLE "Hold The Line"
    INDEX 01 00:00:00
FILE "05.Blue Oyster Cult - (Don't Fear) The Reaper.flac" WAVE
  TRACK 05 AUDIO
    PERFORMER "Blue Oyster Cult"
    TITLE "(Don't Fear) The Reaper"
    INDEX 01 00:00:00
FILE "06.Survivor - Eye Of The Tiger.flac" WAVE
  TRACK 06 AUDIO
    PERFORMER "Survivor"
    TITLE "Eye Of The Tiger"
    INDEX 01 00:00:00
FILE "07.Europe - The Final Countdown.flac" WAVE
  TRACK 07 AUDIO
    PERFORMER "Europe"
    TITLE "The Final Countdown"
    INDEX 01 00:00:00
FILE "08.Meat Loaf With Cher - Dead Ringer For Love.flac" WAVE
  TRACK 08 AUDIO
    PERFORMER "Meat Loaf With Cher"
    TITLE "Dead Ringer For Love"
    INDEX 01 00:00:00
FILE "09.REO Speedwagon - Can't Fight This Feeling.flac" WAVE
  TRACK 09 AUDIO
    PERFORMER "REO Speedwagon"
    TITLE "Can't Fight This Feeling"
    INDEX 01 00:00:00
FILE "10.John Farnham - You're The Voice.flac" WAVE
  TRACK 10 AUDIO
    PERFORMER "John Farnham"
    TITLE "You're The Voice"
    INDEX 01 00:00:00
FILE "11.Heart - Barracuda.flac" WAVE
  TRACK 11 AUDIO
    PERFORMER "Heart"
    TITLE "Barracuda"
    INDEX 01 00:00:00
FILE "12.Gillan - Trouble.flac" WAVE
  TRACK 12 AUDIO
    PERFORMER "Gillan"
    TITLE "Trouble"
    INDEX 01 00:00:00
FILE "13.Bonnie Tyler - Faster Than The Speed Of Night.flac" WAVE
  TRACK 13 AUDIO
    PERFORMER "Bonnie Tyler"
    TITLE "Faster Than The Speed Of Night"
    INDEX 01 00:00:00
FILE "14.Graham Bonnet - Night Games.flac" WAVE
  TRACK 14 AUDIO
    PERFORMER "Graham Bonnet"
    TITLE "Night Games"
    INDEX 01 00:00:00
FILE "15.Rick Springfield - Jessie's Girl.flac" WAVE
  TRACK 15 AUDIO
    PERFORMER "Rick Springfield"
    TITLE "Jessie's Girl"
    INDEX 01 00:00:00
FILE "16.Kenny Loggins - Danger Zone.flac" WAVE
  TRACK 16 AUDIO
    PERFORMER "Kenny Loggins"
    TITLE "Danger Zone"
    INDEX 01 00:00:00
FILE "17.Men At Work - Who Can It Be Now.flac" WAVE
  TRACK 17 AUDIO
    PERFORMER "Men At Work"
    TITLE "Who Can It Be Now?"
    INDEX 01 00:00:00
FILE "18.Bruce Hornsby & The Range - The Way It Is.flac" WAVE
  TRACK 18 AUDIO
    PERFORMER "Bruce Hornsby & The Range"
    TITLE "The Way It Is"
    INDEX 01 00:00:00
FILE "19.Patti Smith Group - Because The Night.flac" WAVE
  TRACK 19 AUDIO
    PERFORMER "Patti Smith Group"
    TITLE "Because The Night"
    INDEX 01 00:00:00
FILE "20.Lou Reed - Walk On The Wild Side.flac" WAVE
  TRACK 20 AUDIO
    PERFORMER "Lou Reed"
    TITLE "Walk On The Wild Side"
    INDEX 01 00:00:00

CD 2

Код:
REM GENRE Rock
REM DATE 2018
REM DISCID F80EBE14
REM DISCNUMBER 02
REM TOTALDISCS 05
REM COMMENT "Exact Audio Copy V1.3"
PERFORMER "Various"
TITLE "100 Hits - The Best - Rock Album - CD2"
FILE "01.Boston - More Than A Feeling.flac" WAVE
  TRACK 01 AUDIO
    PERFORMER "Boston"
    TITLE "More Than A Feeling"
    INDEX 01 00:00:00
FILE "02.The Guess Who - American Woman.flac" WAVE
  TRACK 02 AUDIO
    PERFORMER "The Guess Who"
    TITLE "American Woman"
    INDEX 01 00:00:00
FILE "03.Ram Jam - Black Betty.flac" WAVE
  TRACK 03 AUDIO
    PERFORMER "Ram Jam"
    TITLE "Black Betty"
    INDEX 01 00:00:00
FILE "04.Santana - She's Not There.flac" WAVE
  TRACK 04 AUDIO
    PERFORMER "Santana"
    TITLE "She's Not There"
    INDEX 01 00:00:00
FILE "05.Big Brother & The Holding Company Feat. Janis Joplin - Piece Of My Heart.flac" WAVE
  TRACK 05 AUDIO
    PERFORMER "Big Brother & The Holding Company Feat. Janis Joplin"
    TITLE "Piece Of My Heart"
    INDEX 01 00:00:00
FILE "06.Mountain - Mississippi Queen.flac" WAVE
  TRACK 06 AUDIO
    PERFORMER "Mountain"
    TITLE "Mississippi Queen"
    INDEX 01 00:00:00
FILE "07.Argent - Hold Your Head Up.flac" WAVE
  TRACK 07 AUDIO
    PERFORMER "Argent"
    TITLE "Hold Your Head Up"
    INDEX 01 00:00:00
FILE "08.Fleetwood Mac - Black Magic Woman.flac" WAVE
  TRACK 08 AUDIO
    PERFORMER "Fleetwood Mac"
    TITLE "Black Magic Woman"
    INDEX 01 00:00:00
FILE "09.Chicken Shack - I'd Rather Go Blind.flac" WAVE
  TRACK 09 AUDIO
    PERFORMER "Chicken Shack"
    TITLE "I'd Rather Go Blind"
    INDEX 01 00:00:00
FILE "10.Family - Burlesque.flac" WAVE
  TRACK 10 AUDIO
    PERFORMER "Family"
    TITLE "Burlesque"
    INDEX 01 00:00:00
FILE "11.Crazy Horse - Rock And Roll Band.flac" WAVE
  TRACK 11 AUDIO
    PERFORMER "Crazy Horse"
    TITLE "Rock And Roll Band"
    INDEX 01 00:00:00
FILE "12.Kansas - Carry On Wayward Son.flac" WAVE
  TRACK 12 AUDIO
    PERFORMER "Kansas"
    TITLE "Carry On Wayward Son"
    INDEX 01 00:00:00
FILE "13.Captain Beefheart & His Magic Band - Sure 'Nuff 'N' Yes, I Do.flac" WAVE
  TRACK 13 AUDIO
    PERFORMER "Captain Beefheart & His Magic Band"
    TITLE "Sure 'Nuff 'N' Yes, I Do"
    INDEX 01 00:00:00
FILE "14.Iggy & The Stooges - Raw Power (Iggy Pop Mix).flac" WAVE
  TRACK 14 AUDIO
    PERFORMER "Iggy & The Stooges"
    TITLE "Raw Power (Iggy Pop Mix)"
    INDEX 01 00:00:00
FILE "15.Redbone - The Witch Queen Of New Orleans.flac" WAVE
  TRACK 15 AUDIO
    PERFORMER "Redbone"
    TITLE "The Witch Queen Of New Orleans"
    INDEX 01 00:00:00
FILE "16.The Gun - Race With The Devil.flac" WAVE
  TRACK 16 AUDIO
    PERFORMER "The Gun"
    TITLE "Race With The Devil"
    INDEX 01 00:00:00
FILE "17.Spirit - Fresh Garbage.flac" WAVE
  TRACK 17 AUDIO
    PERFORMER "Spirit"
    TITLE "Fresh Garbage"
    INDEX 01 00:00:00
FILE "18.The Byrds - So You Want To Be A Rock 'N' Roll Star.flac" WAVE
  TRACK 18 AUDIO
    PERFORMER "The Byrds"
    TITLE "So You Want To Be A Rock 'N' Roll Star"
    INDEX 01 00:00:00
FILE "19.The Lovin' Spoonful - Summer In The City.flac" WAVE
  TRACK 19 AUDIO
    PERFORMER "The Lovin' Spoonful"
    TITLE "Summer In The City"
    INDEX 01 00:00:00
FILE "20.The Box Tops - The Letter.flac" WAVE
  TRACK 20 AUDIO
    PERFORMER "The Box Tops"
    TITLE "The Letter"
    INDEX 01 00:00:00

CD 3

Код:
REM GENRE Rock
REM DATE 2018
REM DISCID 1512BA14
REM DISCNUMBER 03
REM TOTALDISCS 05
REM COMMENT "Exact Audio Copy V1.3"
PERFORMER "Various"
TITLE "100 Hits - The Best - Rock Album - CD3"
FILE "01.Bonnie Tyler - Holding Out For A Hero.flac" WAVE
  TRACK 01 AUDIO
    PERFORMER "Bonnie Tyler"
    TITLE "Holding Out For A Hero"
    INDEX 01 00:00:00
FILE "02.Meat Loaf - Bat Out Of Hell.flac" WAVE
  TRACK 02 AUDIO
    PERFORMER "Meat Loaf"
    TITLE "Bat Out Of Hell"
    INDEX 01 00:00:00
FILE "03.Jim Steinman - Rock And Roll Dreams Come Through.flac" WAVE
  TRACK 03 AUDIO
    PERFORMER "Jim Steinman"
    TITLE "Rock And Roll Dreams Come Through"
    INDEX 01 00:00:00
FILE "04.Cyndi Lauper - I Drove All Night.flac" WAVE
  TRACK 04 AUDIO
    PERFORMER "Cyndi Lauper"
    TITLE "I Drove All Night"
    INDEX 01 00:00:00
FILE "05.The Bangles - Hazy Shade Of Winter.flac" WAVE
  TRACK 05 AUDIO
    PERFORMER "The Bangles"
    TITLE "Hazy Shade Of Winter"
    INDEX 01 00:00:00
FILE "06.Toto - Rosanna.flac" WAVE
  TRACK 06 AUDIO
    PERFORMER "Toto"
    TITLE "Rosanna"
    INDEX 01 00:00:00
FILE "07.Survivor - Burning Heart.flac" WAVE
  TRACK 07 AUDIO
    PERFORMER "Survivor"
    TITLE "Burning Heart"
    INDEX 01 00:00:00
FILE "08.Europe - Rock The Night.flac" WAVE
  TRACK 08 AUDIO
    PERFORMER "Europe"
    TITLE "Rock The Night"
    INDEX 01 00:00:00
FILE "09.REO Speedwagon - Keep On Loving You.flac" WAVE
  TRACK 09 AUDIO
    PERFORMER "REO Speedwagon"
    TITLE "Keep On Loving You"
    INDEX 01 00:00:00
FILE "10.Mr. Mister - Kyrie.flac" WAVE
  TRACK 10 AUDIO
    PERFORMER "Mr. Mister"
    TITLE "Kyrie"
    INDEX 01 00:00:00
FILE "11.Kansas - Dust In The Wind.flac" WAVE
  TRACK 11 AUDIO
    PERFORMER "Kansas"
    TITLE "Dust In The Wind"
    INDEX 01 00:00:00
FILE "12.Rick Springfield - Human Touch.flac" WAVE
  TRACK 12 AUDIO
    PERFORMER "Rick Springfield"
    TITLE "Human Touch"
    INDEX 01 00:00:00
FILE "13.Boston - Peace Of Mind.flac" WAVE
  TRACK 13 AUDIO
    PERFORMER "Boston"
    TITLE "Peace Of Mind"
    INDEX 01 00:00:00
FILE "14.Hanoi Rocks - Up Around The Bend.flac" WAVE
  TRACK 14 AUDIO
    PERFORMER "Hanoi Rocks"
    TITLE "Up Around The Bend"
    INDEX 01 00:00:00
FILE "15.Quiet Riot - Come On Feel The Noize.flac" WAVE
  TRACK 15 AUDIO
    PERFORMER "Quiet Riot"
    TITLE "Come On Feel The Noize"
    INDEX 01 00:00:00
FILE "16.Ted Nugent - Cat Scratch Fever.flac" WAVE
  TRACK 16 AUDIO
    PERFORMER "Ted Nugent"
    TITLE "Cat Scratch Fever"
    INDEX 01 00:00:00
FILE "17.Stevie Ray Vaughan & Double Trouble - Pride And Joy.flac" WAVE
  TRACK 17 AUDIO
    PERFORMER "Stevie Ray Vaughan & Double Trouble"
    TITLE "Pride And Joy"
    INDEX 01 00:00:00
FILE "18.Alice Cooper - Hey Stoopid.flac" WAVE
  TRACK 18 AUDIO
    PERFORMER "Alice Cooper"
    TITLE "Hey Stoopid"
    INDEX 01 00:00:00
FILE "19.Warrant - Cherry Pie.flac" WAVE
  TRACK 19 AUDIO
    PERFORMER "Warrant"
    TITLE "Cherry Pie"
    INDEX 01 00:00:00
FILE "20.Bad English - When I See You Smile.flac" WAVE
  TRACK 20 AUDIO
    PERFORMER "Bad English"
    TITLE "When I See You Smile"
    INDEX 01 00:00:00

CD 4

Код:
REM GENRE Rock
REM DATE 2018
REM DISCID 0010D914
REM DISCNUMBER 04
REM TOTALDISCS 05
REM COMMENT "Exact Audio Copy V1.3"
PERFORMER "Various"
TITLE "100 Hits - The Best - Rock Album - CD4"
FILE "01.Mott The Hoople - All The Young Dudes.flac" WAVE
  TRACK 01 AUDIO
    PERFORMER "Mott The Hoople"
    TITLE "All The Young Dudes"
    INDEX 01 00:00:00
FILE "02.Argent - God Gave Rock And Roll To You.flac" WAVE
  TRACK 02 AUDIO
    PERFORMER "Argent"
    TITLE "God Gave Rock And Roll To You"
    INDEX 01 00:00:00
FILE "03.Albert Hammond - The Free Electric Band.flac" WAVE
  TRACK 03 AUDIO
    PERFORMER "Albert Hammond"
    TITLE "The Free Electric Band"
    INDEX 01 00:00:00
FILE "04.Lou Reed - Vicious.flac" WAVE
  TRACK 04 AUDIO
    PERFORMER "Lou Reed"
    TITLE "Vicious"
    INDEX 01 00:00:00
FILE "05.Iggy & The Stooges - Search And Destroy (Iggy Pop Mix).flac" WAVE
  TRACK 05 AUDIO
    PERFORMER "Iggy & The Stooges"
    TITLE "Search And Destroy (Iggy Pop Mix)"
    INDEX 01 00:00:00
FILE "06.Judas Priest - Living After Midnight.flac" WAVE
  TRACK 06 AUDIO
    PERFORMER "Judas Priest"
    TITLE "Living After Midnight"
    INDEX 01 00:00:00
FILE "07.Cheap Trick - I Want You To Want Me.flac" WAVE
  TRACK 07 AUDIO
    PERFORMER "Cheap Trick"
    TITLE "I Want You To Want Me"
    INDEX 01 00:00:00
FILE "08.The Only Ones - Another Girl Another Planet.flac" WAVE
  TRACK 08 AUDIO
    PERFORMER "The Only Ones"
    TITLE "Another Girl Another Planet"
    INDEX 01 00:00:00
FILE "09.Big Audio Dynamite - E=MC2.flac" WAVE
  TRACK 09 AUDIO
    PERFORMER "Big Audio Dynamite"
    TITLE "E=MC2"
    INDEX 01 00:00:00
FILE "10.The Psychedelic Furs - Pretty In Pink.flac" WAVE
  TRACK 10 AUDIO
    PERFORMER "The Psychedelic Furs"
    TITLE "Pretty In Pink"
    INDEX 01 00:00:00
FILE "11.The Hooters - Satellite.flac" WAVE
  TRACK 11 AUDIO
    PERFORMER "The Hooters"
    TITLE "Satellite"
    INDEX 01 00:00:00
FILE "12.Deacon Blue - Real Gone Kid.flac" WAVE
  TRACK 12 AUDIO
    PERFORMER "Deacon Blue"
    TITLE "Real Gone Kid"
    INDEX 01 00:00:00
FILE "13.Patti Smith Group - Frederick.flac" WAVE
  TRACK 13 AUDIO
    PERFORMER "Patti Smith Group"
    TITLE "Frederick"
    INDEX 01 00:00:00
FILE "14.Justin Hayward - Forever Autumn.flac" WAVE
  TRACK 14 AUDIO
    PERFORMER "Justin Hayward"
    TITLE "Forever Autumn"
    INDEX 01 00:00:00
FILE "15.Fleetwood Mac - Albatross.flac" WAVE
  TRACK 15 AUDIO
    PERFORMER "Fleetwood Mac"
    TITLE "Albatross"
    INDEX 01 00:00:00
FILE "16.Big Brother & The Holding Company - I Need A Man To Love.flac" WAVE
  TRACK 16 AUDIO
    PERFORMER "Big Brother & The Holding Company"
    TITLE "I Need A Man To Love"
    INDEX 01 00:00:00
FILE "17.Santana - Evil Ways.flac" WAVE
  TRACK 17 AUDIO
    PERFORMER "Santana"
    TITLE "Evil Ways"
    INDEX 01 00:00:00
FILE "18.Captain Beefheart & His Magic Band - Zig Zag Wanderer.flac" WAVE
  TRACK 18 AUDIO
    PERFORMER "Captain Beefheart & His Magic Band"
    TITLE "Zig Zag Wanderer"
    INDEX 01 00:00:00
FILE "19.Ram Jam - Let It All Out.flac" WAVE
  TRACK 19 AUDIO
    PERFORMER "Ram Jam"
    TITLE "Let It All Out"
    INDEX 01 00:00:00
FILE "20.The Edgar Winter Group - Frankenstein.flac" WAVE
  TRACK 20 AUDIO
    PERFORMER "The Edgar Winter Group"
    TITLE "Frankenstein"
    INDEX 01 00:00:00

CD 5

Код:
REM GENRE Rock
REM DATE 2018
REM DISCID 2911C714
REM DISCNUMBER 05
REM TOTALDISCS 05
REM COMMENT "Exact Audio Copy V1.3"
PERFORMER "Various"
TITLE "100 Hits - The Best - Rock Album - CD5"
FILE "01.The Stone Roses - I Wanna Be Adored.flac" WAVE
  TRACK 01 AUDIO
    PERFORMER "The Stone Roses"
    TITLE "I Wanna Be Adored"
    INDEX 01 00:00:00
FILE "02.Manic Street Preachers - Motorcycle Emptiness.flac" WAVE
  TRACK 02 AUDIO
    PERFORMER "Manic Street Preachers"
    TITLE "Motorcycle Emptiness"
    INDEX 01 00:00:00
FILE "03.Primal Scream - Rocks.flac" WAVE
  TRACK 03 AUDIO
    PERFORMER "Primal Scream"
    TITLE "Rocks"
    INDEX 01 00:00:00
FILE "04.Reef - Place Your Hands.flac" WAVE
  TRACK 04 AUDIO
    PERFORMER "Reef"
    TITLE "Place Your Hands"
    INDEX 01 00:00:00
FILE "05.The Mooney Suzuki - Alive & Amplified.flac" WAVE
  TRACK 05 AUDIO
    PERFORMER "The Mooney Suzuki"
    TITLE "Alive & Amplified"
    INDEX 01 00:00:00
FILE "06.Wheatus - Teenage Dirtbag.flac" WAVE
  TRACK 06 AUDIO
    PERFORMER "Wheatus"
    TITLE "Teenage Dirtbag"
    INDEX 01 00:00:00
FILE "07.Bowling For Soup - Girl All The Bad Guys Want.flac" WAVE
  TRACK 07 AUDIO
    PERFORMER "Bowling For Soup"
    TITLE "Girl All The Bad Guys Want"
    INDEX 01 00:00:00
FILE "08.Lit - My Own Worst Enemy.flac" WAVE
  TRACK 08 AUDIO
    PERFORMER "Lit"
    TITLE "My Own Worst Enemy"
    INDEX 01 00:00:00
FILE "09.Jeff Buckley - Grace.flac" WAVE
  TRACK 09 AUDIO
    PERFORMER "Jeff Buckley"
    TITLE "Grace"
    INDEX 01 00:00:00
FILE "10.Dinosaur Jr. - Feel The Pain.flac" WAVE
  TRACK 10 AUDIO
    PERFORMER "Dinosaur Jr."
    TITLE "Feel The Pain"
    INDEX 01 00:00:00
FILE "11.Sugar - If I Can't Change Your Mind.flac" WAVE
  TRACK 11 AUDIO
    PERFORMER "Sugar"
    TITLE "If I Can't Change Your Mind"
    INDEX 01 00:00:00
FILE "12.Train - Drops Of Jupiter.flac" WAVE
  TRACK 12 AUDIO
    PERFORMER "Train"
    TITLE "Drops Of Jupiter"
    INDEX 01 00:00:00
FILE "13.The Fray - How To Save A Life.flac" WAVE
  TRACK 13 AUDIO
    PERFORMER "The Fray"
    TITLE "How To Save A Life"
    INDEX 01 00:00:00
FILE "14.The Calling - Wherever You Will Go.flac" WAVE
  TRACK 14 AUDIO
    PERFORMER "The Calling"
    TITLE "Wherever You Will Go"
    INDEX 01 00:00:00
FILE "15.Soul Asylum - Runaway Train.flac" WAVE
  TRACK 15 AUDIO
    PERFORMER "Soul Asylum"
    TITLE "Runaway Train"
    INDEX 01 00:00:00
FILE "16.Screaming Trees - Dollar Bill.flac" WAVE
  TRACK 16 AUDIO
    PERFORMER "Screaming Trees"
    TITLE "Dollar Bill"
    INDEX 01 00:00:00
FILE "17.Living Colour - Love Rears It's Ugly Head.flac" WAVE
  TRACK 17 AUDIO
    PERFORMER "Living Colour"
    TITLE "Love Rears It's Ugly Head"
    INDEX 01 00:00:00
FILE "18.The Jeff Healey Band - While My Guitar Gently Weeps.flac" WAVE
  TRACK 18 AUDIO
    PERFORMER "The Jeff Healey Band"
    TITLE "While My Guitar Gently Weeps"
    INDEX 01 00:00:00
FILE "19.JJ Cale - Hold On Baby.flac" WAVE
  TRACK 19 AUDIO
    PERFORMER "JJ Cale"
    TITLE "Hold On Baby"
    INDEX 01 00:00:00
FILE "20.Status Quo - Don't Stop.flac" WAVE
  TRACK 20 AUDIO
    PERFORMER "Status Quo"
    TITLE "Don't Stop"
    INDEX 01 00:00:00

_________________
Разница между теорией и практикой в том, что теоретически разницы между теорией и практикой нет, а на практике она есть.
[Профиль] [ЛС]
Показать сообщения:    

Текущее время: Сегодня 19:15

Часовой пояс: GMT + 3



Вы не можете начинать темы
Вы не можете отвечать на сообщения
Вы не можете редактировать свои сообщения
Вы не можете удалять свои сообщения
Вы не можете голосовать в опросах
Вы не можете прикреплять файлы к сообщениям
Вы не можете скачивать файлы