Золотые дни идет свободное скачивание без начисления Download
 

Офлайн

volodya133

Стаж:
4 года 4 месяца
Сообщений:
1741

Donna Summer - Love to Love You Donna Жанр: Electro, Disco
Год выпуска: 2013
Формат: FLAC (image + .cue)
Битрейт аудио: lossless
Продолжительность: 01:14:32
Трэклист:
01. Love To Love You Baby (Giorgio Moroder Feat. Chris Cox Remix) (4:21)
02. Dim All The Lights (Duke Dumont Remix) (6:01)
03. Hot Stuff (Frankie Knuckles And Eric Kupper As Director's Cut Signature Mix) (6:00)
04. I Feel Love (Afrojack Remix) (6:00)
05. Love Is In Control (Finger On The Trigger) (Chromeo & Oliver Remix) (4:02)
06. Sunset People (Hot Chip Dub Edit) (7:38)
07. Working The Midnight Shift (Holy Ghost! Remix) (5:30)
08. Bad Girls (Gigamesh Remix) (5:19)
09. Macarthur Park (Laidback Luke Remix) (5:40)
10. I Feel Love (Benga Remix) (7:15)
11. On The Radio (Jacques Greene Remix) (5:58)
12. Last Dance (Masters At Work Remix Short Version) (6:33)
13. La Dolce Vita (4:15)

Отчёт EAC

: Exact Audio Copy V1.3 from 2. September 2016
EAC extraction logfile from 22. May 2018, 14:30
Donna Summer / Love To Love You Donna
Used drive : Optiarc DVD RW AD-7280S Adapter: 1 ID: 0
Read mode : Secure
Utilize accurate stream : Yes
Defeat audio cache : Yes
Make use of C2 pointers : No
Read offset correction : 48
Overread into Lead-In and Lead-Out : No
Fill up missing offset samples with silence : Yes
Delete leading and trailing silent blocks : No
Null samples used in CRC calculations : Yes
Used interface : Native Win32 interface for Win NT & 2000
Gap handling : Appended to previous track
Used output format : User Defined Encoder
Selected bitrate : 1024 kBit/s
Quality : High
Add ID3 tag : No
Command line compressor : C:\Program Files (x86)\Exact Audio Copy\Flac\flac.exe
Additional command line options : -8 -V -T "ARTIST=%artist%" -T "TITLE=%title%" -T "ALBUM=%albumtitle%" -T "DATE=%year%" -T "TRACKNUMBER=%tracknr%" -T "GENRE=%genre%" -T "PERFORMER=%albuminterpret%" -T "COMPOSER=%composer%" %haslyrics%--tag-from-file=LYRICS="%lyricsfile%"%haslyrics% -T "ALBUMARTIST=%albumartist%" -T "DISCNUMBER=%cdnumber%" -T "TOTALDISCS=%totalcds%" -T "TOTALTRACKS=%numtracks%" -T "COMMENT=%comment%" %source% -o %dest%
TOC of the extracted CD
Track | Start | Length | Start sector | End sector
---------------------------------------------------------
1 | 0:00.00 | 4:20.61 | 0 | 19560
2 | 4:20.61 | 6:00.51 | 19561 | 46611
3 | 10:21.37 | 5:59.46 | 46612 | 73582
4 | 16:21.08 | 6:00.12 | 73583 | 100594
5 | 22:21.20 | 4:02.15 | 100595 | 118759
6 | 26:23.35 | 7:38.15 | 118760 | 153124
7 | 34:01.50 | 5:29.70 | 153125 | 177869
8 | 39:31.45 | 5:19.19 | 177870 | 201813
9 | 44:50.64 | 5:39.51 | 201814 | 227289
10 | 50:30.40 | 7:15.23 | 227290 | 259937
11 | 57:45.63 | 5:57.50 | 259938 | 286762
12 | 63:43.38 | 6:33.12 | 286763 | 316249
13 | 70:16.50 | 4:15.25 | 316250 | 335399
Track 1
Filename G:\EAC Rips\Donna Summer - Love To Love You Donna (2013) [B0019066-02 US COMP DIGI] [FLAC]\01 - Love To Love You Baby (Giorgio Moroder Feat. Chris Cox Remix).wav
Pre-gap length 0:00:02.00
Peak level 100.0 %
Extraction speed 2.6 X
Track quality 100.0 %
Test CRC 3B4591D4
Copy CRC 3B4591D4
Accurately ripped (confidence 26) [576CF50C] (AR v2)
Copy OK
Track 2
Filename G:\EAC Rips\Donna Summer - Love To Love You Donna (2013) [B0019066-02 US COMP DIGI] [FLAC]\02 - Dim All The Lights (Duke Dumont Remix).wav
Peak level 100.0 %
Extraction speed 3.0 X
Track quality 100.0 %
Test CRC 0F6CE3D1
Copy CRC 0F6CE3D1
Accurately ripped (confidence 26) [EB3F3911] (AR v2)
Copy OK
Track 3
Filename G:\EAC Rips\Donna Summer - Love To Love You Donna (2013) [B0019066-02 US COMP DIGI] [FLAC]\03 - Hot Stuff (Frankie Knuckles And Eric Kupper As Director's Cut Signature Mix).wav
Peak level 100.0 %
Extraction speed 3.3 X
Track quality 100.0 %
Test CRC 8019BED5
Copy CRC 8019BED5
Accurately ripped (confidence 25) [80D47F79] (AR v2)
Copy OK
Track 4
Filename G:\EAC Rips\Donna Summer - Love To Love You Donna (2013) [B0019066-02 US COMP DIGI] [FLAC]\04 - I Feel Love (Afrojack Remix).wav
Pre-gap length 0:00:00.18
Peak level 99.9 %
Extraction speed 3.6 X
Track quality 100.0 %
Test CRC 882CA77B
Copy CRC 882CA77B
Accurately ripped (confidence 25) [5BC40F9B] (AR v2)
Copy OK
Track 5
Filename G:\EAC Rips\Donna Summer - Love To Love You Donna (2013) [B0019066-02 US COMP DIGI] [FLAC]\05 - Love Is In Control (Finger On The Trigger) (Chromeo & Oliver Remix).wav
Pre-gap length 0:00:00.64
Peak level 100.0 %
Extraction speed 3.7 X
Track quality 100.0 %
Test CRC 2C4684F3
Copy CRC 2C4684F3
Accurately ripped (confidence 25) [D6034CB5] (AR v2)
Copy OK
Track 6
Filename G:\EAC Rips\Donna Summer - Love To Love You Donna (2013) [B0019066-02 US COMP DIGI] [FLAC]\06 - Sunset People (Hot Chip Dub Edit).wav
Pre-gap length 0:00:00.61
Peak level 100.0 %
Extraction speed 4.2 X
Track quality 100.0 %
Test CRC 22B23389
Copy CRC 22B23389
Accurately ripped (confidence 25) [15DA1A37] (AR v2)
Copy OK
Track 7
Filename G:\EAC Rips\Donna Summer - Love To Love You Donna (2013) [B0019066-02 US COMP DIGI] [FLAC]\07 - Working The Midnight Shift (Holy Ghost! Remix).wav
Pre-gap length 0:00:00.26
Peak level 100.0 %
Extraction speed 4.3 X
Track quality 100.0 %
Test CRC BE5D2DB3
Copy CRC BE5D2DB3
Accurately ripped (confidence 25) [EC350F4B] (AR v2)
Copy OK
Track 8
Filename G:\EAC Rips\Donna Summer - Love To Love You Donna (2013) [B0019066-02 US COMP DIGI] [FLAC]\08 - Bad Girls (Gigamesh Remix).wav
Pre-gap length 0:00:00.30
Peak level 100.0 %
Extraction speed 4.5 X
Track quality 100.0 %
Test CRC 06B19CE8
Copy CRC 06B19CE8
Accurately ripped (confidence 25) [9164E0E7] (AR v2)
Copy OK
Track 9
Filename G:\EAC Rips\Donna Summer - Love To Love You Donna (2013) [B0019066-02 US COMP DIGI] [FLAC]\09 - Macarthur Park (Laidback Luke Remix).wav
Peak level 99.6 %
Extraction speed 4.7 X
Track quality 100.0 %
Test CRC C9B2A365
Copy CRC C9B2A365
Accurately ripped (confidence 25) [B4CE3CA0] (AR v2)
Copy OK
Track 10
Filename G:\EAC Rips\Donna Summer - Love To Love You Donna (2013) [B0019066-02 US COMP DIGI] [FLAC]\10 - I Feel Love (Benga Remix).wav
Peak level 100.0 %
Extraction speed 5.1 X
Track quality 100.0 %
Test CRC 3A2E0866
Copy CRC 3A2E0866
Accurately ripped (confidence 25) [A8D4E964] (AR v2)
Copy OK
Track 11
Filename G:\EAC Rips\Donna Summer - Love To Love You Donna (2013) [B0019066-02 US COMP DIGI] [FLAC]\11 - On The Radio (Jacques Greene Remix).wav
Pre-gap length 0:00:02.05
Peak level 100.0 %
Extraction speed 5.2 X
Track quality 100.0 %
Test CRC FEE3F62D
Copy CRC FEE3F62D
Accurately ripped (confidence 25) [4ED9D3CF] (AR v2)
Copy OK
Track 12
Filename G:\EAC Rips\Donna Summer - Love To Love You Donna (2013) [B0019066-02 US COMP DIGI] [FLAC]\12 - Last Dance (Masters At Work Remix Short Version).wav
Peak level 100.0 %
Extraction speed 5.4 X
Track quality 100.0 %
Test CRC 6E48DA84
Copy CRC 6E48DA84
Accurately ripped (confidence 25) [229AE89B] (AR v2)
Copy OK
Track 13
Filename G:\EAC Rips\Donna Summer - Love To Love You Donna (2013) [B0019066-02 US COMP DIGI] [FLAC]\13 - La Dolce Vita.wav
Pre-gap length 0:00:02.62
Peak level 100.0 %
Extraction speed 4.7 X
Track quality 99.9 %
Test CRC 762662AB
Copy CRC 762662AB
Accurately ripped (confidence 25) [FC71A650] (AR v2)
Copy OK
All tracks accurately ripped
No errors occurred
End of status report
---- CUETools DB Plugin V2.1.6
[CTDB TOCID: dSnDJcSYD0C9q7naU6q9CF6dFrg-] found
Submit result: dSnDJcSYD0C9q7naU6q9CF6dFrg- has been confirmed
Track | CTDB Status
1 | (54/55) Accurately ripped
2 | (54/55) Accurately ripped
3 | (54/55) Accurately ripped
4 | (54/55) Accurately ripped
5 | (53/55) Accurately ripped
6 | (54/55) Accurately ripped
7 | (53/55) Accurately ripped
8 | (54/55) Accurately ripped
9 | (54/55) Accurately ripped
10 | (54/55) Accurately ripped
11 | (54/55) Accurately ripped
12 | (54/55) Accurately ripped
13 | (54/55) Accurately ripped
==== Log checksum 8BA7EAD117CF9A864E0C654D2C823435158EC38311DE83C59D995695F278134F ====
- От Volodya133

_________________
[Профиль] [ЛС]

Онлайн

andrew6572

Стаж:
6 лет 2 месяца
Сообщений:
5988

volodya133, Красавица! Не стареет ни внешностью, и ни голосом. Спасибо за релиз!

_________________
"Любая война – всего лишь трусливое бегство от проблем мирного времени." Томас Манн.
[Профиль] [ЛС]

Офлайн

xxcc

Стаж:
8 месяцев 13 дней
Сообщений:
18

С чего бы ей стареть на записи.) Донна Саммер скончалась на 64 году жизни во Флориде 17 мая 2012 года после продолжительной борьбы с раком лёгких.
[Профиль] [ЛС]

Онлайн

andrew6572

Стаж:
6 лет 2 месяца
Сообщений:
5988

xxcc, А сколько ей было на записи? Donna Summer ,One Of Her greatest preformances Dance 2012 Шоу не останавливается никогда...

_________________
"Любая война – всего лишь трусливое бегство от проблем мирного времени." Томас Манн.
[Профиль] [ЛС]
Показать сообщения:    

Текущее время: Сегодня 02:16

Часовой пояс: GMT + 3



Вы не можете начинать темы
Вы не можете отвечать на сообщения
Вы не можете редактировать свои сообщения
Вы не можете удалять свои сообщения
Вы не можете голосовать в опросах
Вы не можете прикреплять файлы к сообщениям
Вы не можете скачивать файлы