Золотые дни идет свободное скачивание без начисления Download
 

Офлайн

sergej644

Стаж:
5 лет 11 месяцев
Сообщений:
892

-Leaves' Eyes - Sign Of The Dragonhead--
Год издания: 2018
Страна: Germany | Norway
Жанр: Symphonic Metal, Gothic Metal
Продолжительность: 00:47:11-Лейбл издания: FONO Ltd. AFM Records
Страна-выпуска диска: EU
Номер по каталогу: FO1332CD-Формат: FLAC
Битрейт аудио: Lossless
Тип рипа: image +.cue
Наличие сканов в содержимом раздачи: да
-Leaves’ Eyes — германо-норвежская метал-группа, образовалась в 2003 году, через некоторое время после ухода норвежской певицы Лив Кристин из группы Theatre of Tragedy.

Трэклист


01. Sign Of The Dragonhead (4:07)
02. Across The Sea (3:50)
03. Like A Mountain (4:45)
04. Jomsborg (3:26)
05. Volva (3:38)
06. Riders On The Wind (3:54)
07. Fairer Than The Sun (4:20)
08. Shadows In The Night (3:48)
09. Rulers Of Wind And Waves (3:01)
10. Fires In The North (4:22)
11. Waves Of Euphoria (8:02)
-

Лог создания рипа

Код:
Exact Audio Copy V1.1 from 23. June 2015
EAC extraction logfile from 20. January 2018, 20:18
Leaves' Eyes / Sign Of The Dragonhead (FO1332CD)
Used drive  : TSSTcorpDVDWBD SH-B123L   Adapter: 0  ID: 4
Read mode               : Secure
Utilize accurate stream : Yes
Defeat audio cache      : Yes
Make use of C2 pointers : No
Read offset correction                      : 6
Overread into Lead-In and Lead-Out          : No
Fill up missing offset samples with silence : Yes
Delete leading and trailing silent blocks   : No
Null samples used in CRC calculations       : Yes
Used interface                              : Installed external ASPI interface
Used output format              : User Defined Encoder
Selected bitrate                : 768 kBit/s
Quality                         : High
Add ID3 tag                     : No
Command line compressor         : C:\Program Files (x86)\Exact Audio Copy\FLAC\FLAC.EXE
Additional command line options : -6 -V -T "ARTIST=%artist%" -T "TITLE=%title%" -T "ALBUM=%albumtitle%" -T "DATE=%year%" -T "TRACKNUMBER=%tracknr%" -T "GENRE=%genre%" -T "COMMENT=%comment%" -T "BAND=%albuminterpret%" -T "ALBUMARTIST=%albuminterpret%" -T "COMPOSER=%composer%" %haslyrics%--tag-from-file=LYRICS="%lyricsfile%"%haslyrics% -T "DISCNUMBER=%cdnumber%" -T "TOTALDISCS=%totalcds%" -T "TOTALTRACKS=%numtracks%" %hascover%--picture="%coverfile%"%hascover% %source% -o %dest%
TOC of the extracted CD
     Track |   Start  |  Length  | Start sector | End sector
    ---------------------------------------------------------
        1  |  0:00.00 |  4:06.64 |         0    |    18513
        2  |  4:06.64 |  3:49.61 |     18514    |    35749
        3  |  7:56.50 |  4:44.63 |     35750    |    57112
        4  | 12:41.38 |  3:25.44 |     57113    |    72531
        5  | 16:07.07 |  3:38.31 |     72532    |    88912
        6  | 19:45.38 |  3:53.55 |     88913    |   106442
        7  | 23:39.18 |  4:20.18 |    106443    |   125960
        8  | 27:59.36 |  3:48.06 |    125961    |   143066
        9  | 31:47.42 |  3:00.40 |    143067    |   156606
       10  | 34:48.07 |  4:21.65 |    156607    |   176246
       11  | 39:09.72 |  8:01.39 |    176247    |   212360
Range status and errors
Selected range
     Filename E:\MUSIC\Leaves' Eyes - Sign Of The Dragonhead (FO1332CD).wav
     Peak level 100.0 %
     Extraction speed 3.4 X
     Range quality 100.0 %
     Test CRC 32FB0FE5
     Copy CRC 32FB0FE5
     Copy OK
No errors occurred
AccurateRip summary
Track  1  not present in database
Track  2  not present in database
Track  3  not present in database
Track  4  not present in database
Track  5  not present in database
Track  6  not present in database
Track  7  not present in database
Track  8  not present in database
Track  9  not present in database
Track 10  not present in database
Track 11  not present in database
None of the tracks are present in the AccurateRip database
End of status report

Индексная карта (non-compilant .cue)

Код:
REM GENRE Metal
REM DATE 2017
REM DISCID 9D0B0F0B
REM COMMENT "ExactAudioCopy v1.1"
PERFORMER "Leaves' Eyes"
TITLE "Sign Of The Dragonhead (FO1332CD)"
FILE "Leaves' Eyes - Sign Of The Dragonhead (FO1332CD).flac" WAVE
  TRACK 01 AUDIO
    TITLE "01. Sign Of The Dragonhead"
    PERFORMER "Leaves' Eyes"
    INDEX 01 00:00:00
  TRACK 02 AUDIO
    TITLE "02. Across The Sea"
    PERFORMER "Leaves' Eyes"
    INDEX 01 04:06:64
  TRACK 03 AUDIO
    TITLE "03. Like A Mountain"
    PERFORMER "Leaves' Eyes"
    INDEX 01 07:56:50
  TRACK 04 AUDIO
    TITLE "04. Jomsborg"
    PERFORMER "Leaves' Eyes"
    INDEX 01 12:41:38
  TRACK 05 AUDIO
    TITLE "05. Volva"
    PERFORMER "Leaves' Eyes"
    INDEX 01 16:07:07
  TRACK 06 AUDIO
    TITLE "06. Riders On The Wind"
    PERFORMER "Leaves' Eyes"
    INDEX 01 19:45:38
  TRACK 07 AUDIO
    TITLE "07. Fairer Than The Sun"
    PERFORMER "Leaves' Eyes"
    INDEX 01 23:39:18
  TRACK 08 AUDIO
    TITLE "08. Shadows In The Night"
    PERFORMER "Leaves' Eyes"
    INDEX 01 27:59:36
  TRACK 09 AUDIO
    TITLE "09. Rulers Of Wind And Waves"
    PERFORMER "Leaves' Eyes"
    INDEX 01 31:47:42
  TRACK 10 AUDIO
    TITLE "10. Fires In The North"
    PERFORMER "Leaves' Eyes"
    INDEX 01 34:48:07
  TRACK 11 AUDIO
    TITLE "11. Waves Of Euphoria"
    PERFORMER "Leaves' Eyes"
    INDEX 01 39:09:72
- --

_________________
Разница между теорией и практикой в том, что теоретически разницы между теорией и практикой нет, а на практике она есть.
[Профиль] [ЛС]
Показать сообщения:    

Текущее время: Сегодня 05:35

Часовой пояс: GMT + 3



Вы не можете начинать темы
Вы не можете отвечать на сообщения
Вы не можете редактировать свои сообщения
Вы не можете удалять свои сообщения
Вы не можете голосовать в опросах
Вы не можете прикреплять файлы к сообщениям
Вы не можете скачивать файлы