Золотые дни идет свободное скачивание без начисления Download
 

Офлайн

sergej644

Стаж:
5 лет 8 месяцев
Сообщений:
891

-Whitesnake - The Purple Tour (Live)--
Год выпуска: 2018
Страна: UK
Жанр:Hard Rock
Режиссер: Bethany Dawson
Продолжительность: 01:20:41
-Качество видео: BDRip
Контейнер: MKV
Стандарт разрешения: 720p
Видео кодек: MPEG4 AVC
Аудио кодек: AC 3m FLAC
Видео: 1280x720, 9600 Kбит/сек, 29,970 кадров/сек, 0.348 bit/pic
Аудио: AC 3, 448 Кбит/сек, 6 каналов (Front: L C R, Side: L R, LFE), 48,0 КГц
Аудио 1: FLAC, 1845 Кбит/сек, 2 каналов (Front: L R, 48,0 КГц
-

Whitesnake вновь представляет музыку, которую Дэвид Ковердейл записал с Deep Purple в семидесятых. Альбом и последующий тур предложили поклонникам новые современные интерпретации классиков Purple, таких как «Burn» и «Mistreated». Основные моменты из исторического тура будут представлены в новой живой коллекции, включая версии с двумя дисками, в которых есть аудио, видео и выбор бонусного материала.

Состав: David Coverdale - vocals; Reb Beach, Joel Hoekstra - guitars; Michael Devin - bass; Tommy Aldridge - drums; Michele Luppi - keyboard-

Трэклист


1 Burn
2 Bad Boys
3 Love Ain't No Stranger
4 The Gypsy
5 Give Me All Your Love
6 Ain't No Love In The Heart Of The City
7 Mistreated
8 You Fool No One
9 Soldier Of Fortune
10 Is This Love
11 Fool For Your Loving
12 Here I Go Again
13 Still Of The Night

Media Info

Код:
Общее
Уникальный идентификатор                 : 228207412159730131230402098255070150833 (0xABAF261BC062D38489C1CBAB0BFAC0B1)
Полное имя                               : F:\Ящик всего\20 02 2018\Whitesnake - The Purple Tour.2018.BDRip720p.mkv
Формат                                   : Matroska
Версия формата                           : Version 2
Размер файла                             : 6,70 Гбайт
Продолжительность                        : 1 ч. 20 м.
Режим общего битрейта                    : Переменный
Общий поток                              : 11,9 Мбит/сек
Название фильма                          : Whitesnake - The Purple Tour.2018.BDRip720p
Дата кодирования                         : UTC 2018-02-07 22:32:37
Программа кодирования                    : mkvmerge v9.8.0 ('Kuglblids') 64bit
Библиотека кодирования                   : libebml v1.3.4 + libmatroska v1.4.5
Видео
Идентификатор                            : 1
Формат                                   : AVC
Формат/Информация                        : Advanced Video Codec
Профиль формата                          : High@L4.1
Параметр CABAC формата                   : Да
Параметр ReFrames формата                : 9 кадров
Идентификатор кодека                     : V_MPEG4/ISO/AVC
Продолжительность                        : 1 ч. 20 м.
Битрейт                                  : 9600 Кбит/сек
Ширина                                   : 1280 пикселей
Высота                                   : 720 пикселей
Соотношение сторон                       : 16:9
Режим частоты кадров                     : Постоянный
Частота кадров                           : 29,970 (30000/1001) кадров/сек
Цветовое пространство                    : YUV
Субдискретизация насыщенности            : 4:2:0
Битовая глубина                          : 8 бит
Тип развёртки                            : Прогрессивная
Бит/(Пиксели*Кадры)                      : 0.348
Размер потока                            : 5,41 Гбайт (81%)
Заголовок                                : anbelk27 @ rutracker.org
Библиотека кодирования                   : x264 core 152 r2851 ba24899
Настройки программы                      : cabac=1 / ref=9 / deblock=1:-2:-1 / analyse=0x3:0x133 / me=umh / subme=11 / psy=1 / psy_rd=1.15:0.11 / mixed_ref=1 / me_range=32 / chroma_me=1 / trellis=2 / 8x8dct=1 / cqm=0 / deadzone=21,11 / fast_pskip=1 / chroma_qp_offset=-3 / threads=6 / lookahead_threads=1 / sliced_threads=0 / nr=0 / decimate=1 / interlaced=0 / bluray_compat=0 / constrained_intra=0 / bframes=8 / b_pyramid=2 / b_adapt=2 / b_bias=0 / direct=3 / weightb=1 / open_gop=0 / weightp=2 / keyint=300 / keyint_min=29 / scenecut=50 / intra_refresh=0 / rc_lookahead=75 / rc=2pass / mbtree=1 / bitrate=9600 / ratetol=1.0 / qcomp=0.60 / qpmin=0 / qpmax=69 / qpstep=4 / cplxblur=20.0 / qblur=0.5 / vbv_maxrate=50000 / vbv_bufsize=62500 / nal_hrd=none / filler=0 / ip_ratio=1.40 / aq=1:1.00
Default                                  : Да
Forced                                   : Нет
Аудио #1
Идентификатор                            : 2
Формат                                   : AC-3
Формат/Информация                        : Audio Coding 3
Расширение режима                        : CM (complete main)
Параметр Endianness формата              : Big
Идентификатор кодека                     : A_AC3
Продолжительность                        : 1 ч. 20 м.
Вид битрейта                             : Постоянный
Битрейт                                  : 448 Кбит/сек
Каналы                                   : 6 каналов
Расположение каналов                     : Front: L C R, Side: L R, LFE
Частота                                  : 48,0 КГц
Частота кадров                           : 31,250 кадров/сек (1536 spf)
Битовая глубина                          : 16 бит
Метод сжатия                             : С потерями
Размер потока                            : 259 Мбайт (4%)
Заголовок                                : AC3 5.1 @ 16 bit
Default                                  : Да
Forced                                   : Нет
Аудио #2
Идентификатор                            : 3
Формат                                   : FLAC
Формат/Информация                        : Free Lossless Audio Codec
Идентификатор кодека                     : A_FLAC
Продолжительность                        : 1 ч. 20 м.
Вид битрейта                             : Переменный
Битрейт                                  : 1845 Кбит/сек
Каналы                                   : 2 канала
Расположение каналов                     : Front: L R
Частота                                  : 48,0 КГц
Частота кадров                           : 11,719 кадров/сек (4096 spf)
Битовая глубина                          : 24 бит
Размер потока                            : 1,04 Гбайт (16%)
Заголовок                                : FLAC 2.0 @ 24 bit
Библиотека кодирования                   : libFLAC 1.2.1 (UTC 2007-09-17)
Default                                  : Нет
Forced                                   : Нет
Меню
00:00:00.000                             : en:   Intro
00:01:23.717                             : en: 1.Burn
00:08:13.093                             : en: 2. Bad Boys
00:13:45.525                             : en: 3. Love Ain't No Stranger
00:18:02.949                             : en: 4. The Gypsy
00:23:23.402                             : en: 5. Give Me All Your Love
00:27:55.908                             : en: 6. Ain't No Love In The Heart Of The City
00:34:35.874                             : en: 7. Mistreated
00:42:33.551                             : en: 8. You Fool No One
00:47:13.197                             : en: Drum Solo
00:50:54.752                             : en: Guitar Solo
00:52:01.652                             : en: 9. Soldier Of Fortune
00:55:49.680                             : en: 10. Is This Love
01:00:29.092                             : en: 11. Fool For Your Loving
01:04:48.451                             : en: 12. Here I Go Again
01:10:34.397                             : en: 13. Still Of The Night
01:17:19.969                             : en: Outro + Credits

x264Log

Код:
[Information] [06.02.2018 13:30:04] Standard error stream
-[Information] [06.02.2018 13:31:18] raw [info]: 1280x720p 1:1 @ 30000/1001 fps (cfr)
-[Information] [06.02.2018 13:31:18] x264 [info]: using SAR=1/1
-[Information] [06.02.2018 13:31:18] x264 [info]: using cpu capabilities: MMX2 SSE2Fast SSSE3 SSE4.2 AVX
-[Information] [06.02.2018 13:31:18] x264 [info]: profile High, level 4.1
-[Information] [07.02.2018 0:33:24] x264 [info]: frame I:1247  Avg QP:16.47  size:131962
-[Information] [07.02.2018 0:33:24] x264 [info]: frame P:40501 Avg QP:20.16  size: 57986
-[Information] [07.02.2018 0:33:24] x264 [info]: frame B:103327 Avg QP:22.63  size: 31914
-[Information] [07.02.2018 0:33:24] x264 [info]: consecutive B-frames:  3.9%  6.2% 13.0% 51.7% 12.2%  9.6%  2.1%  0.9%  0.3%
-[Information] [07.02.2018 0:33:24] x264 [info]: mb I  I16..4: 15.6% 58.0% 26.4%
-[Information] [07.02.2018 0:33:24] x264 [info]: mb P  I16..4:  5.1% 19.1%  3.9%  P16..4: 25.7% 27.4%  8.8%  1.9%  0.3%    skip: 8.0%
-[Information] [07.02.2018 0:33:24] x264 [info]: mb B  I16..4:  1.0%  6.0%  0.7%  B16..8: 31.3% 20.3%  4.8%  direct: 9.9%  skip:26.0%  L0:42.7% L1:39.9% BI:17.4%
-[Information] [07.02.2018 0:33:24] x264 [info]: 8x8 transform intra:71.4% inter:55.7%
-[Information] [07.02.2018 0:33:24] x264 [info]: direct mvs  spatial:96.9% temporal:3.1%
-[Information] [07.02.2018 0:33:24] x264 [info]: coded y,uvDC,uvAC intra: 68.8% 58.7% 38.8% inter: 31.4% 35.0% 9.1%
-[Information] [07.02.2018 0:33:24] x264 [info]: i16 v,h,dc,p: 53% 14%  8% 26%
-[Information] [07.02.2018 0:33:24] x264 [info]: i8 v,h,dc,ddl,ddr,vr,hd,vl,hu:  8%  7% 16% 10% 12% 12% 11% 11% 13%
-[Information] [07.02.2018 0:33:24] x264 [info]: i4 v,h,dc,ddl,ddr,vr,hd,vl,hu: 11%  9% 11%  9% 13% 12% 11% 10% 13%
-[Information] [07.02.2018 0:33:24] x264 [info]: i8c dc,h,v,p: 50% 24% 13% 13%
-[Information] [07.02.2018 0:33:24] x264 [info]: Weighted P-Frames: Y:13.4% UV:9.1%
-[Information] [07.02.2018 0:33:24] x264 [info]: ref P L0: 48.3%  8.3% 17.5%  7.8%  5.7%  4.1%  3.5%  2.2%  2.1%  0.4%  0.0%
-[Information] [07.02.2018 0:33:24] x264 [info]: ref B L0: 76.9% 10.6%  5.1%  2.7%  1.9%  1.5%  1.0%  0.4%
-[Information] [07.02.2018 0:33:24] x264 [info]: ref B L1: 95.9%  4.1%
-[Information] [07.02.2018 0:33:24] x264 [info]: kb/s:9602.94
-[Information] [07.02.2018 0:33:24] encoded 145075 frames, 3.65 fps, 9602.94 kb/s
-

Скриншоты

---
--

_________________
Разница между теорией и практикой в том, что теоретически разницы между теорией и практикой нет, а на практике она есть.
[Профиль] [ЛС]
Показать сообщения:    

Текущее время: Сегодня 01:51

Часовой пояс: GMT + 3



Вы не можете начинать темы
Вы не можете отвечать на сообщения
Вы не можете редактировать свои сообщения
Вы не можете удалять свои сообщения
Вы не можете голосовать в опросах
Вы не можете прикреплять файлы к сообщениям
Вы не можете скачивать файлы