Золотые дни идет свободное скачивание без начисления Download
 

Офлайн

sergej644

Стаж:
5 лет 1 месяц
Сообщений:
814

-Therion - Beloved Antichrist (3CD)Rock opera 1 - 3 Act.--
Год издания: 2018
Страна: Sweden
Жанр: Symphonic, Operatic Metal
Продолжительность: 03:02:51-Лейбл издания: Nuclear Blast
Страна-выпуска диска: Germany
Номер по каталогу: NB 3833-0-Формат: FLAC
Битрейт аудио: Lossless
Тип рипа: image +.cue
Наличие сканов в содержимом раздачи: да
-

Трэклист

CD 1 | 01:05:36


01. Turn From Heaven (3:07)
02. Where Will You Go? (2:15)
03. Through Dust, Through Rain (5:01)
04. Signs Are Here (4:21)
05. Never Again (2:21)
06. Bring Her Home (4:00)
07. The Solid Black Beyond (3:48)
08. The Crowning Of Splendour (3:35)
09. Morning Has Broken (6:39)
10. Garden Of Peace (3:25)
11. Our Destiny (2:42)
12. Anthem (4:18)
13. The Palace Ball (5:21)
14. Jewels From Afar (4:22)
15. Hail Caesar! (5:11)
16. What Is Wrong? (2:08)
17. Nothing But My Name (3:03)

CD 2 | 01:02:41


01. The Arrival Of Apollonus (5:07)
02. Pledging Loyalty (2:56)
03. Night Reborn (3:58)
04. Dagger Of God (3:33)
05. Temple Of New Jerusalem (4:02)
06. The Lions Roar (3:44)
07. Bringing the Gospel (4:44)
08. Laudate Dominum (5:01)
09. Remaning Silent (2:56)
10. Behold Antichrist (4:40)
11. Cursed By The Fallen (2:00)
12. Resurrecton (3:42)
13. To Where I Weep (5:58)
14. Astral Sophia (5:43)
15. Thy Will Be Done! (4:37)

CD 3 | 00:54:24


01. Shoot Them Down! (3:49)
02. Beneath The Starry Skies (4:27)
03. Forgive Me (9:42)
04. The Wasteland Of My Heart (3:24)
05. Burning The Palace (8:22)
06. Prelude To War (0:38)
07. Day Of Wrath (4:14)
08. Rise to War (3:48)
09. Time Has Come/Final Battle (2:57)
10. My Voyage Carries On (3:52)
11. Striking Darkness (2:05)
12. Seeds Of Time (1:39)
13. To Shine Forever (2:07)
14. Theme Of Antichrist (3:32)
-

Лог создания рипа

CD 1

Код:
Exact Audio Copy V1.3 from 2. September 2016
EAC extraction logfile from 9. February 2018, 18:19
Therion / Beloved Antichrist (Act I)
Used drive  : ATAPI   iHAS122   W   Adapter: 2  ID: 0
Read mode               : Secure
Utilize accurate stream : Yes
Defeat audio cache      : Yes
Make use of C2 pointers : No
Read offset correction                      : 48
Overread into Lead-In and Lead-Out          : No
Fill up missing offset samples with silence : Yes
Delete leading and trailing silent blocks   : No
Null samples used in CRC calculations       : Yes
Used interface                              : Installed external ASPI interface
Used output format              : User Defined Encoder
Selected bitrate                : 1024 kBit/s
Quality                         : High
Add ID3 tag                     : No
Command line compressor         : C:\Program Files\FLAC\flac.exe
Additional command line options : -V -8 -T "Date=%year%" -T "Genre=%genre%" -T"COMMENT=Ripped by  Ilijan [MeTaLMaDNeSS.TeaM]" -8 -V %source%
TOC of the extracted CD
     Track |   Start  |  Length  | Start sector | End sector
    ---------------------------------------------------------
        1  |  0:00.00 |  3:06.70 |         0    |    14019
        2  |  3:06.70 |  2:15.31 |     14020    |    24175
        3  |  5:22.26 |  5:01.07 |     24176    |    46757
        4  | 10:23.33 |  4:21.03 |     46758    |    66335
        5  | 14:44.36 |  2:20.43 |     66336    |    76878
        6  | 17:05.04 |  3:59.48 |     76879    |    94851
        7  | 21:04.52 |  3:47.39 |     94852    |   111915
        8  | 24:52.16 |  3:34.63 |    111916    |   128028
        9  | 28:27.04 |  6:39.22 |    128029    |   157975
       10  | 35:06.26 |  3:25.31 |    157976    |   173381
       11  | 38:31.57 |  2:41.61 |    173382    |   185517
       12  | 41:13.43 |  4:18.17 |    185518    |   204884
       13  | 45:31.60 |  5:20.47 |    204885    |   228931
       14  | 50:52.32 |  4:22.02 |    228932    |   248583
       15  | 55:14.34 |  5:10.68 |    248584    |   271901
       16  | 60:25.27 |  2:07.63 |    271902    |   281489
       17  | 62:33.15 |  3:02.47 |    281490    |   295186
Range status and errors
Selected range
     Filename D:\Vknish + Devastator + ungern666 = Swolo4 (Download, Upload On Rutracker, DIE!!!)\Therion - Beloved Antichrist (Act I).wav
     Peak level 100.0 %
     Extraction speed 4.0 X
     Range quality 100.0 %
     Test CRC AA446FA5
     Copy CRC AA446FA5
     Copy OK
No errors occurred
AccurateRip summary
Track  1  not present in database
Track  2  not present in database
Track  3  not present in database
Track  4  not present in database
Track  5  not present in database
Track  6  not present in database
Track  7  not present in database
Track  8  not present in database
Track  9  not present in database
Track 10  not present in database
Track 11  not present in database
Track 12  not present in database
Track 13  not present in database
Track 14  not present in database
Track 15  not present in database
Track 16  not present in database
Track 17  not present in database
None of the tracks are present in the AccurateRip database
End of status report

CD 2

Код:
Exact Audio Copy V1.3 from 2. September 2016
EAC extraction logfile from 9. February 2018, 18:56
Therion / Beloved Antichrist (Act II)
Used drive  : ATAPI   iHAS122   W   Adapter: 2  ID: 0
Read mode               : Secure
Utilize accurate stream : Yes
Defeat audio cache      : Yes
Make use of C2 pointers : No
Read offset correction                      : 48
Overread into Lead-In and Lead-Out          : No
Fill up missing offset samples with silence : Yes
Delete leading and trailing silent blocks   : No
Null samples used in CRC calculations       : Yes
Used interface                              : Installed external ASPI interface
Used output format              : User Defined Encoder
Selected bitrate                : 1024 kBit/s
Quality                         : High
Add ID3 tag                     : No
Command line compressor         : C:\Program Files\FLAC\flac.exe
Additional command line options : -V -8 -T "Date=%year%" -T "Genre=%genre%" -T"COMMENT=Ripped by  Ilijan [MeTaLMaDNeSS.TeaM]" -8 -V %source%
TOC of the extracted CD
     Track |   Start  |  Length  | Start sector | End sector
    ---------------------------------------------------------
        1  |  0:00.00 |  5:06.56 |         0    |    23005
        2  |  5:06.56 |  2:56.34 |     23006    |    36239
        3  |  8:03.15 |  3:57.59 |     36240    |    54073
        4  | 12:00.74 |  3:32.67 |     54074    |    70040
        5  | 15:33.66 |  4:01.70 |     70041    |    88185
        6  | 19:35.61 |  3:43.63 |     88186    |   104973
        7  | 23:19.49 |  4:44.11 |    104974    |   126284
        8  | 28:03.60 |  5:00.70 |    126285    |   148854
        9  | 33:04.55 |  2:56.17 |    148855    |   162071
       10  | 36:00.72 |  4:40.25 |    162072    |   183096
       11  | 40:41.22 |  2:00.01 |    183097    |   192097
       12  | 42:41.23 |  3:41.53 |    192098    |   208725
       13  | 46:23.01 |  5:57.73 |    208726    |   235573
       14  | 52:20.74 |  5:42.66 |    235574    |   261289
       15  | 58:03.65 |  4:37.04 |    261290    |   282068
Range status and errors
Selected range
     Filename D:\Vknish + Devastator + ungern666 = Swolo4 (Download, Upload On Rutracker, DIE!!!)\Therion - Beloved Antichrist (Act II).wav
     Peak level 100.0 %
     Extraction speed 3.9 X
     Range quality 99.9 %
     Test CRC 0182370A
     Copy CRC 0182370A
     Copy OK
No errors occurred
AccurateRip summary
Track  1  not present in database
Track  2  not present in database
Track  3  not present in database
Track  4  not present in database
Track  5  not present in database
Track  6  not present in database
Track  7  not present in database
Track  8  not present in database
Track  9  not present in database
Track 10  not present in database
Track 11  not present in database
Track 12  not present in database
Track 13  not present in database
Track 14  not present in database
Track 15  not present in database
None of the tracks are present in the AccurateRip database
End of status report

CD 3

Код:
Exact Audio Copy V1.3 from 2. September 2016
EAC extraction logfile from 9. February 2018, 19:28
Therion / Beloved Antichrist (Act III)
Used drive  : ATAPI   iHAS122   W   Adapter: 2  ID: 0
Read mode               : Secure
Utilize accurate stream : Yes
Defeat audio cache      : Yes
Make use of C2 pointers : No
Read offset correction                      : 48
Overread into Lead-In and Lead-Out          : No
Fill up missing offset samples with silence : Yes
Delete leading and trailing silent blocks   : No
Null samples used in CRC calculations       : Yes
Used interface                              : Installed external ASPI interface
Used output format              : User Defined Encoder
Selected bitrate                : 1024 kBit/s
Quality                         : High
Add ID3 tag                     : No
Command line compressor         : C:\Program Files\FLAC\flac.exe
Additional command line options : -V -8 -T "Date=%year%" -T "Genre=%genre%" -T"COMMENT=Ripped by  Ilijan [MeTaLMaDNeSS.TeaM]" -8 -V %source%
TOC of the extracted CD
     Track |   Start  |  Length  | Start sector | End sector
    ---------------------------------------------------------
        1  |  0:00.00 |  3:49.14 |         0    |    17188
        2  |  3:49.14 |  4:26.50 |     17189    |    37188
        3  |  8:15.64 |  9:41.69 |     37189    |    80832
        4  | 17:57.58 |  3:24.06 |     80833    |    96138
        5  | 21:21.64 |  8:22.05 |     96139    |   133793
        6  | 29:43.69 |  0:38.05 |    133794    |   136648
        7  | 30:21.74 |  4:13.50 |    136649    |   155673
        8  | 34:35.49 |  3:47.71 |    155674    |   172769
        9  | 38:23.45 |  2:56.53 |    172770    |   186022
       10  | 41:20.23 |  3:52.22 |    186023    |   203444
       11  | 45:12.45 |  2:04.46 |    203445    |   212790
       12  | 47:17.16 |  1:38.50 |    212791    |   220190
       13  | 48:55.66 |  2:06.47 |    220191    |   229687
       14  | 51:02.38 |  3:31.66 |    229688    |   245578
Range status and errors
Selected range
     Filename D:\Vknish + Devastator + ungern666 = Swolo4 (Download, Upload On Rutracker, DIE!!!)\Therion - Beloved Antichrist (Act III).wav
     Peak level 100.0 %
     Extraction speed 3.9 X
     Range quality 100.0 %
     Test CRC DA9B1F65
     Copy CRC DA9B1F65
     Copy OK
No errors occurred
AccurateRip summary
Track  1  not present in database
Track  2  not present in database
Track  3  not present in database
Track  4  not present in database
Track  5  not present in database
Track  6  not present in database
Track  7  not present in database
Track  8  not present in database
Track  9  not present in database
Track 10  not present in database
Track 11  not present in database
Track 12  not present in database
Track 13  not present in database
Track 14  not present in database
None of the tracks are present in the AccurateRip database
End of status report

Индексная карта (non-compilant .cue)

CD 1

Код:
REM GENRE "Symphonic/Operatic Metal"
REM DATE 2018
REM DISCID EF0F5F11
REM COMMENT "ExactAudioCopy v1.3"
PERFORMER "Therion"
TITLE "Beloved Antichrist (Act I)"
FILE "Therion - Beloved Antichrist (Act I).flac" WAVE
  TRACK 01 AUDIO
    TITLE "Turn From Heaven"
    PERFORMER "Therion"
    INDEX 01 00:00:00
  TRACK 02 AUDIO
    TITLE "Where Will You Go?"
    PERFORMER "Therion"
    INDEX 01 03:06:70
  TRACK 03 AUDIO
    TITLE "Through Dust, Through Rain"
    PERFORMER "Therion"
    INDEX 00 05:20:38
    INDEX 01 05:22:26
  TRACK 04 AUDIO
    TITLE "Signs Are Here"
    PERFORMER "Therion"
    INDEX 00 10:21:68
    INDEX 01 10:23:33
  TRACK 05 AUDIO
    TITLE "Never Again"
    PERFORMER "Therion"
    INDEX 00 14:42:06
    INDEX 01 14:44:36
  TRACK 06 AUDIO
    TITLE "Bring Her Home"
    PERFORMER "Therion"
    INDEX 00 17:02:15
    INDEX 01 17:05:04
  TRACK 07 AUDIO
    TITLE "The Solid Black Beyond"
    PERFORMER "Therion"
    INDEX 01 21:04:52
  TRACK 08 AUDIO
    TITLE "The Crowning Of Splendour"
    PERFORMER "Therion"
    INDEX 00 24:49:31
    INDEX 01 24:52:16
  TRACK 09 AUDIO
    TITLE "Morning Has Broken"
    PERFORMER "Therion"
    INDEX 01 28:27:04
  TRACK 10 AUDIO
    TITLE "Garden Of Peace"
    PERFORMER "Therion"
    INDEX 00 35:04:51
    INDEX 01 35:06:26
  TRACK 11 AUDIO
    TITLE "Our Destiny"
    PERFORMER "Therion"
    INDEX 01 38:31:57
  TRACK 12 AUDIO
    TITLE "Anthem"
    PERFORMER "Therion"
    INDEX 01 41:13:43
  TRACK 13 AUDIO
    TITLE "The Palace Ball"
    PERFORMER "Therion"
    INDEX 00 45:30:34
    INDEX 01 45:31:60
  TRACK 14 AUDIO
    TITLE "Jewels From Afar"
    PERFORMER "Therion"
    INDEX 00 50:50:18
    INDEX 01 50:52:32
  TRACK 15 AUDIO
    TITLE "Hail Caesar!"
    PERFORMER "Therion"
    INDEX 00 55:12:16
    INDEX 01 55:14:34
  TRACK 16 AUDIO
    TITLE "What Is Wrong?"
    PERFORMER "Therion"
    INDEX 01 60:25:27
  TRACK 17 AUDIO
    TITLE "Nothing But My Name"
    PERFORMER "Therion"
    INDEX 01 62:33:15

CD 2

Код:
REM GENRE "Symphonic/Operatic Metal"
REM DATE 2018
REM DISCID D80EB00F
REM COMMENT "ExactAudioCopy v1.3"
PERFORMER "Therion"
TITLE "Beloved Antichrist (Act II)"
FILE "Therion - Beloved Antichrist (Act II).flac" WAVE
  TRACK 01 AUDIO
    TITLE "The Arrival Of Apollonus"
    PERFORMER "Therion"
    INDEX 01 00:00:00
  TRACK 02 AUDIO
    TITLE "Pledging Loyalty"
    PERFORMER "Therion"
    INDEX 00 05:03:40
    INDEX 01 05:06:56
  TRACK 03 AUDIO
    TITLE "Night Reborn"
    PERFORMER "Therion"
    INDEX 01 08:03:15
  TRACK 04 AUDIO
    TITLE "Dagger Of God"
    PERFORMER "Therion"
    INDEX 00 11:58:00
    INDEX 01 12:00:74
  TRACK 05 AUDIO
    TITLE "Temple Of New Jerusalem"
    PERFORMER "Therion"
    INDEX 01 15:33:66
  TRACK 06 AUDIO
    TITLE "The Lions Roar"
    PERFORMER "Therion"
    INDEX 01 19:35:61
  TRACK 07 AUDIO
    TITLE "Bringing the Gospel"
    PERFORMER "Therion"
    INDEX 01 23:19:49
  TRACK 08 AUDIO
    TITLE "Laudate Dominum"
    PERFORMER "Therion"
    INDEX 01 28:03:60
  TRACK 09 AUDIO
    TITLE "Remaning Silent"
    PERFORMER "Therion"
    INDEX 00 33:01:32
    INDEX 01 33:04:55
  TRACK 10 AUDIO
    TITLE "Behold Antichrist"
    PERFORMER "Therion"
    INDEX 00 35:59:32
    INDEX 01 36:00:72
  TRACK 11 AUDIO
    TITLE "Cursed By The Fallen"
    PERFORMER "Therion"
    INDEX 01 40:41:22
  TRACK 12 AUDIO
    TITLE "Resurrecton"
    PERFORMER "Therion"
    INDEX 01 42:41:23
  TRACK 13 AUDIO
    TITLE "To Where I Weep"
    PERFORMER "Therion"
    INDEX 01 46:23:01
  TRACK 14 AUDIO
    TITLE "Astral Sophia"
    PERFORMER "Therion"
    INDEX 01 52:20:74
  TRACK 15 AUDIO
    TITLE "Thy Will Be Done!"
    PERFORMER "Therion"
    INDEX 00 58:02:23
    INDEX 01 58:03:65

CD 3

Код:
REM GENRE "Symphonic/Operatic Metal"
REM DATE 2018
REM DISCID CE0CCA0E
REM COMMENT "ExactAudioCopy v1.3"
PERFORMER "Therion"
TITLE "Beloved Antichrist (Act III)"
FILE "Therion - Beloved Antichrist (Act III).flac" WAVE
  TRACK 01 AUDIO
    TITLE "Shoot Them Down!"
    PERFORMER "Therion"
    INDEX 01 00:00:00
  TRACK 02 AUDIO
    TITLE "Beneath The Starry Skies"
    PERFORMER "Therion"
    INDEX 01 03:49:14
  TRACK 03 AUDIO
    TITLE "Forgive Me"
    PERFORMER "Therion"
    INDEX 00 08:14:05
    INDEX 01 08:15:64
  TRACK 04 AUDIO
    TITLE "The Wasteland Of My Heart"
    PERFORMER "Therion"
    INDEX 00 17:56:03
    INDEX 01 17:57:58
  TRACK 05 AUDIO
    TITLE "Burning The Palace"
    PERFORMER "Therion"
    INDEX 00 21:18:48
    INDEX 01 21:21:64
  TRACK 06 AUDIO
    TITLE "Prelude To War"
    PERFORMER "Therion"
    INDEX 01 29:43:69
  TRACK 07 AUDIO
    TITLE "Day Of Wrath"
    PERFORMER "Therion"
    INDEX 01 30:21:74
  TRACK 08 AUDIO
    TITLE "Rise to War"
    PERFORMER "Therion"
    INDEX 01 34:35:49
  TRACK 09 AUDIO
    TITLE "Time Has Come/Final Battle "
    PERFORMER "Therion"
    INDEX 01 38:23:45
  TRACK 10 AUDIO
    TITLE "My Voyage Carries On"
    PERFORMER "Therion"
    INDEX 01 41:20:23
  TRACK 11 AUDIO
    TITLE "Striking Darkness"
    PERFORMER "Therion"
    INDEX 01 45:12:45
  TRACK 12 AUDIO
    TITLE "Seeds Of Time"
    PERFORMER "Therion"
    INDEX 01 47:17:16
  TRACK 13 AUDIO
    TITLE "To Shine Forever"
    PERFORMER "Therion"
    INDEX 01 48:55:66
  TRACK 14 AUDIO
    TITLE "Theme Of Antichrist"
    PERFORMER "Therion"
    INDEX 01 51:02:38
-

Дополнительная информация

Christofer Johnsson - Guitars (rhythm), Keyboards, Programming, Hammond organ, Orchestrations, Vocals (lead)
Sami Karppinen - Drums
Nalle Påhlsson - Bass
Thomas Vikström - Vocals (lead)
Christian Vidal - Guitars (lead)
Lori Lewis - Vocals
Beloved Antichrist — шестнадцатый студийный альбом шведской симфоник-метал-группы Therion. Был выпущен 9 февраля 2018 года на лейбле Nuclear Blast. Альбом представляет собой трёхчасовую рок-оперу в трёх актах. На создание альбома Кристофера Йонссона, лидера Therion, вдохновила первая часть сочинения из «Трёх разговоров» русского мыслителя Владимира Соловьева — «Краткая повесть об антихристе». В опере представлено 27 персонажей, к исполнению партий которых, помимо прочих вокалистов, были привлечены Томас Викстрём и Лори Льюис, участвовавшие в записи некоторых прошлых альбомов Therion.
--

_________________
Разница между теорией и практикой в том, что теоретически разницы между теорией и практикой нет, а на практике она есть.
[Профиль] [ЛС]
Показать сообщения:    

Текущее время: Сегодня 13:41

Часовой пояс: GMT + 3



Вы не можете начинать темы
Вы не можете отвечать на сообщения
Вы не можете редактировать свои сообщения
Вы не можете удалять свои сообщения
Вы не можете голосовать в опросах
Вы не можете прикреплять файлы к сообщениям
Вы не можете скачивать файлы