Золотые дни идет свободное скачивание без начисления Download
 

Офлайн

sergej644

Стаж:
5 лет
Сообщений:
756

- Алла Пугачёва - Коллекция (13CD)--
Год издания: 1996
Страна: Russia
Жанр: Pop
Продолжительность: 14:19:18-Лейбл издания: ® GENERAL RECORDS
Страна-выпуска диска: Austria
Номер по каталогу: указано к каждому альбому-Формат: FLAC
Битрейт аудио: Lossless
Тип рипа: image +.cue
Наличие сканов в содержимом раздачи: да
-

Трэклист

CD I - По острым иглам яркого огня


Лейбл издания: ® GENERAL RECORDS
Номер по каталогу: GR 96030 CD
Продолжительность: 01:12:20



01. Арлекино (4:33)
02. Все могут короли (3:05)
03. Песенка про меня (3:37)
04. Посидим поокаем (3:28)
05. Звездное лето (4:44)
06. Песенка первоклассника (2:33)
07. Волшебник - недоучка (3:22)
08. Айсберг (4:30)
09. Паромщик (3:39)
10. Маэстро (5:41)
11. Старинные часы (4:41)
12. Без меня (4:37)
13. Миллион алых роз (5:54)
14. Делу время (3:27)
15. Не отрекаются любя (4:12)
16. Женщина которая поет (4:16)
17. Ленинград (3:10)
18. Музыкант (2:51)

CD II - Ах,как хочется жить!


Лейбл издания: ® GENERAL RECORDS
Номер по каталогу: GR 96032 CD
Продолжительность: 01:07:33



01. Очень хорошо (3:24)
02. Ты возьми меня с собой (2:51)
03. Этот мир (3:06)
04. Если долго мучаться (2:47)
05. Ясные, светлые глаза (3:50)
06. Окраина (4:52)
07. Возвращение (4:02)
08. Три желанья (2:51)
09. Поднимись над суетой (4:19)
10. Поздно (3:30)
11. Вот так случилось, мама (3:43)
12. Папа купил автомобиль (2:33)
13. Ах, как хочется жить! (3:33)
14. Куда уходит детство (4:52)
15. Жди и помни меня (4:34)
16. Ностальгия в Риме (3:24)
17. Эти летние дожди (4:46)
18. Когда я уйду (4:37)

CD III - И в этом вся моя печаль


Лейбл издания: ® GENERAL RECORDS
Номер по каталогу: GR 96033 CD
Продолжительность: 01:13:25



01. Усталость (4:32)
02. Дежурный ангел (4:34)
03. Лестница (3:53)
04. Я больше не ревную (5:17)
05. Как тревожен этот путь (4:56)
06. люди, люди (4:36)
07. Сонет Шекспира (3:23)
08. Приезжай (5:44)
09. Прости, поверь (3:53)
10. Годы мои (5:21)
11. Осень (5:55)
12. Держи меня, соломинка (4:18)
13. Беда (5:05)
14. И в этом вся моя беда (5:38)
15. Скупимся на любовь (6:21)

CD IV - Только в кино


Лейбл издания: ® GENERAL RECORDS
Номер по каталогу: GR 96034 CD
Продолжительность: 01:13:31



01. Мне судьба такая выпала (4:16)
02. Пришла и говорю (4:16)
03. Только в кино (3:45)
04. Канатоходка (4:18)
05. Святая ложь (6:10)
06. Терема (5:20)
07. Самолеты улетают (7:00)
08. Иван Иваныч (3:14)
09. Гонка (6:21)
10. Мне нравится (1:36)
11. По улице моей (2:49)
12. На Тихорецкую (1:53)
13. У зеркала (1:38)
14. Про эстраду (3:08)
15. О любви не говори (2:18)
16. Ты не стал судьбой (4:57)
17. Да (3:25)
18. Любовью за любовь (4:08)
19. Не обещай (2:58)

CD V - Это завтра а сегодня...


Лейбл издания: ® GENERAL RECORDS
Номер по каталогу: GR 96035 CD
Продолжительность: 01:02:41



01. Белая панама (5:47)
02. Кафе танцующих огней (4:54)
03. Брось сигарету (2:51)
04. Найти меня (4:26)
05. Не оставляй меня одну (4:01)
06. Если я делаю тебе хорошо (3:46)
07. Ты не мужчина (3:31)
08. Знак зодиака тигр (3:24)
09. Алло (4:21)
10. Сто друзей (3:37)
11. Первый шаг (4:14)
12. Я тебя поцеловала (2:52)
13. Мимоходом (4:13)
14. Ням - ням (3:09)
15. Моя судьба (3:32)
16. Снежный мальчик (4:00)

CD VI - Билет на вчерашний спектакль


Лейбл издания: ® GENERAL RECORDS
Номер по каталогу: GR 96036 CD
Продолжительность: 00:59:20



01. Две звезды (4:00)
02. Надо же (3:52)
03. Я приглашаю вас на праздник (3:08)
04. Этот парень с гитарой (4:12)
05. Признание (4:04)
06. Моя соперница - гитара (3:17)
07. С тобой и без тебя (3:20)
08. Птица певчая (4:18)
09. Белые цветы (3:39)
10. Сбереги тебя судьба (5:12)
11. Я ждала вас так долго (3:44)
12. Когда меня ты позовешь (5:21)
13. Чао (3:13)
14. Желаю счастья в личной жизни (4:00)
15. Близкие люди (4:01)

CD VII - Встречи в пути


Лейбл издания: ® GENERAL RECORDS
Номер по каталогу: GR 96037 CD
Продолжительность: 01:11:42



01. Незваный гость (4:38)
02. Анна Каренина (5:01)
03. Между небом и землей (3:19)
04. Кристиан (3:55)
05. Бог с тобой (4:30)
06. Спасибо (4:35)
07. Встреча в пути (4:40)
08. Придумай что-нибудь (2:51)
09. Молодой человек, пригласите танцевать (4:46)
10. Фотограф (4:05)
11. Полнолуние (4:31)
12. Сыграем в любовь (4:33)
13. Беглец (5:59)
14. Озеро надежды (4:42)
15. Голубь сизокрылый (3:57)
16. Три счастливых дня (5:40)

CD VIII - На дороге ожиданий


Лейбл издания: ® GENERAL RECORDS
Номер по каталогу: GR 96038 CD
Продолжительность: 01:10:07



01. Балет (4:27)
02. Стеклянные цветы (3:48)
03. Любимчик Пашка (3:17)
04. Балалайка (3:50)
05. Коралловые бусы (3:39)
06. Бумажный змей (5:48)
07. Телефонная книжка (4:57)
08. Примета (4:10)
09. Улетай, туча (4:58)
10. Ты на свете есть (4:38)
11. А знаешь, все еще будет (3:16)
12. Отражение в воде (4:15)
13. Белая дверь (4:46)
14. Сирена (6:23)
15. На дороге ожидаья (4:24)
16. Владивосток (3:31)

CD IX - Размышления у камина


Лейбл издания: ® GENERAL RECORDS
Номер по каталогу: GR 96040 CD
Продолжительность: 01:01:32



01. Крысолов (3:32)
02. Расскажите птицы (6:19)
03. Королева (5:03)
04. Пропади ты пропадом, милый (3:48)
05. Уважаемый автор (3:40)
06. Сто часов счастья (5:36)
07. Старый друг (5:16)
08. Свирель (3:57)
09. Осенний поцелуй (5:00)
10. Реквием (4:28)
11. Рождественский бал (4:38)
12. Россия (5:10)
13. В родном краю (5:06)

CD X - Это было однажды


Лейбл издания: ® GENERAL RECORDS
Номер по каталогу: GR 96057 CD
Продолжительность: 00:55:44



01. Что было однажды (3:40)
02. Бубен шамана (7:01)
03. Не забывай, земля глядит на нас (3:36)
04. Если звезды молчат (4:00)
05. Мы не любим друг друга (3:36)
06. Любовь одна виновата (3:19)
07. Полно вокруг мудрецов (4:34)
08. Друг друга мы нашли (3:43)
09. Верю в тебя (4:55)
10. И кто виноват (5:20)
11. Найди себе друга (2:37)
12. До свидания, лето (4:36)
13. Робинзон (4:46)

CD XI - Барышня с крестьянской заставы


Лейбл издания: ® GENERAL RECORDS
Номер по каталогу: GR 96031 CD
Продолжительность: 01:11:21



01. Робот (3:18)
02. Не спорь со мной (2:11)
03. Как бы мне влюбиться (2:42)
04. Дрозды (4:44)
05. По грибы (2:01)
06. Иду из кино (3:28)
07. Белочка (2:15)
08. Всё мы делим пополам (1:17)
09. Хороший ты парень, Наташка (2:54)
10. Что не сможет сделать атом (3:06)
11. Почему (2:13)
12. Зачем (2:55)
13. Такая короткая долгая жизнь (2:58)
14. Романс (3:00)
15. Уехал рыцарь мой (4:03)
16. Про любовь (2:34)
17. 22+28 (2:49)
18. Эй, мушкетеры (2:28)
19. Посреди зимы (6:01)
20. Ты снишься мне (3:47)
21. Все силы даже прилагая (2:34)
22. Солдатка (3:18)
23. Куда уехал цирк (2:36)
24. Чудаки (2:10)

CD XII - Алла Пугачёва в Стокгольме


Лейбл издания: ® GENERAL RECORDS
Номер по каталогу: GR 96039 CD
Продолжительность: 00:51:26



01. Every Night And Every Day (4:03)
02. Through The Eyes Of A Child (4:33)
03. Love Can Hurt (4:31)
04. Cool Operator (3:39)
05. What Was I Looking For (4:52)
06. Superman (4:18)
07. Sacred Lie (4:58)
08. Song-Bird (4:12)
09. Lousy Party (3:50)
10. Captain (3:46)
11. Such A Miracle (3:50)
12. Watch Out (4:53)

CD XIII - Песни на бис


Лейбл издания: ® GENERAL RECORDS
Номер по каталогу: GR 96063 CD
Продолжительность: 01:08:36



01. Так дурно жить (5:23)
02. Что вы, плакать? никогда! (2:16)
03. Все хорошо (4:00)
04. Когда я буду бабушкой (3:30)
05. Уходя - уходи (1:57)
06. Цыганский хор (2:49)
07. Старый дом (4:10)
08. Кошки (4:38)
09. XX Век (8:11)
10. Танго (6:17)
11. Ничего я не хочу (3:41)
12. В землянке (4:08)
13. Караваны птиц (3:23)
14. Радуйся (4:33)
15. Песня на бис (8:24)
16. Заключительная песенка (1:18)
-

Дополнительная информация


Алла Борисовна Пугачёва (15 апреля 1949, Москва, СССР) — советская и российская эстрадная певица, композитор, поэт-песенник, продюсер, киноактриса.
Заслуженная артистка РСФСР (1980), Народная артистка РСФСР (1985), Народная артистка СССР (1991), Лауреат Государственной премии Российской Федерации (1995).
Алла Борисовна Пугачёва была удостоена многочисленных званий, призов и наград. В 1980, по опросу читателей журнала «Советский экран» Алла Пугачёва признана актрисой года, а летом того же года ей было присвоено звание «Заслуженная артистка РСФСР». В 1985 году она была удостоена звания «Народный артист РСФСР», а 20 декабря 1991 года — «Народный артист СССР»
В 1981 году певица награждена медалью за вклад в дело мира председателем Всемирного Совета Мира Р. Чандрой, в 1987 — медалью ФИДОФ «За вклад в дело мира и гармонию средствами музыки» президентом Международной федерации фестивальных организаций Джимом Халзи.
Алла Пугачёва — обладательница приза «Золотой микрофон» как лучшая певица года по мнению фирмы «Динакорд» (1981); золотых дисков «Track Music» (Финляндия, 1984), Всесоюзной фирмы «Мелодия» (1985), фирмы «Ампекс» за альбом «Алла Пугачёва в Стокгольме» (1989), «Хрустального диска» минского союза поклонников «Алла» (1989).
Она неоднократно награждалась национальной музыкальной премией «Овация» в номинациях «Лучшая певица» (1992), «Живая легенда» (1994), «Лучший режиссёр-постановщик» (1995), а также призом газеты «Вечерняя Москва» за «Лучшее шоу года» — «Рождественские встречи» (1992), призом «Комсомольской правды» в номинациях «Звезда года» (1995) и «Любимая женщина» (1997) в рамках акции «Лица года», призом имени Клавдии Шульженко в рамках фестиваля «Песня года» (1995), премией «Звезда» в номинациях «Лучшая певица» и «Лучший альбом года» за 1995 год, призом за лучший анимационный клип «Зайка моя», в котором А. Б. Пугачёва выступала в качестве продюсера, на фестивале «Фантазия-96», призом «Золотое яблоко» фестиваля «Поколение-96» за лучшую роль второго плана в клипе «Зайка моя» (1997) и многими другими наградами.
В 1992 году она была удостоена неправительственной награды — «Ордена Орла» 1-й степени.
За выдающийся вклад в развитие литературы и искусства 7 июня 1995 года Алле Борисовне Пугачёвой была вручена Государственная премия России.
В Ялте 24 августа 1994 года состоялась закладка именной плиты Аллы Пугачёвой на «Площади звёзд». По опросу, проведённому еженедельником «Собеседник» среди своих читателей, Алла Пугачёва названа великой женщиной XX столетия (1992).
В настоящее время (2009) во многих городах бывшего СССР действуют десятки клубов поклонников творчества Аллы Пугачёвой. При её непосредственном участии выходит несколько газет и журналов: журнал «Белая панама» (с 1988 по 1999 вышло 5 номеров), газета «Канатоходка» (минского союза «Алла»), газета «Усталый микрофон» (киевский клуб «Королева»), журнал «Алла» (с 1993 по 1998 годы вышло 11 номеров) и многие другие.
В 1991 году Алла Пугачёва заключила контракт с фирмой «Sogo» (Франция) на производство духов «Алла», презентация которых состоялась в ГЦКЗ «Россия» (Москва) 3 июля 1992 года, а в 1997 году состоялась также презентация коллекции обуви «Алла Пугачёва» («Эконика»).
15 апреля 1999 года Пугачёва была награждена Борисом Николаевичем Ельциным в Кремле орденом «За заслуги перед Отечеством» II степени.
В 2006 году присвоено звание почётного гражданина города Махачкала
В 2008 году стала лауреатом Международной премии «Чернобыльская звезда» в области литературы и искусства
15 апреля 2009 года Президент России Дмитрий Медведев в Кремле поздравил певицу с юбилеем и вручил ей орден «За заслуги перед Отечеством III степени».
4 сентября 2009 года президент Азербайджана Ильхам Алиев наградил певицу, вручив ей орден «Дружбы»
26 сентября 2009 года А. Пугачёва была награждена высшей наградой Армении — орденом Святого Месропа Маштоца.
Мне трудно что либо сказать, кроме того, что здесь, в этих песнях, большая часть моей жизни. Послушайте их, и, если что-нибудь останется в ваших сердцах, то большей награды для себя я и не желаю. Алла Пугачева
--

_________________
Разница между теорией и практикой в том, что теоретически разницы между теорией и практикой нет, а на практике она есть.
[Профиль] [ЛС]

Офлайн

sergej644

Стаж:
5 лет
Сообщений:
756

Лог создания рипа

CD I - По острым иглам яркого огня

Код:
Exact Audio Copy V0.99 prebeta 3 from 28. July 2007
EAC Auslese-Logdatei vom 29. November 2008, 9:21
Alla Pugacheva / Po Ostrim Iglam Yarkogo Ognya
Benutztes Laufwerk : HL-DT-STDVD-ROM GDR-H30N   Adapter: 0  ID: 1
Lesemodus                      : Sicher
Benutze Accurate Stream        : Ja
Audio Puffer abgeschaltet      : Ja
Benutze C2 Fehlerinformationen : Nein
Leseoffset Korrektur                           : 6
Ьberlesen in das Lead-In und Lead-Out          : Nein
Fьlle fehlende Offsetsample mit Stille auf     : Ja
Lцsche fьhrende und nachfolgende stille Blцcke : Nein
Null Samples gehen in CRC Berechnungen ein     : Ja
Benutzte Schnittstelle                         : Installierte externe ASPI Schnittstelle
Benutztes Ausgabeformat : Interne WAV Routinen
Sampleformat            : 44.100 Hz; 16 Bit; Stereo
TOC der ausgelesenen CD
     Track |   Start  |   Lдnge  | Startsektor | Endsektor
    -------------------------------------------------------
        1  |  0:00.00 |  4:32.67 |        0    |   20466
        2  |  4:32.67 |  3:05.23 |    20467    |   34364
        3  |  7:38.15 |  3:37.10 |    34365    |   50649
        4  | 11:15.25 |  3:28.30 |    50650    |   66279
        5  | 14:43.55 |  4:44.22 |    66280    |   87601
        6  | 19:28.02 |  2:32.73 |    87602    |   99074
        7  | 22:01.00 |  3:22.12 |    99075    |  114236
        8  | 25:23.12 |  4:29.58 |   114237    |  134469
        9  | 29:52.70 |  3:38.50 |   134470    |  150869
       10  | 33:31.45 |  5:41.32 |   150870    |  176476
       11  | 39:13.02 |  4:40.43 |   176477    |  197519
       12  | 43:53.45 |  4:36.67 |   197520    |  218286
       13  | 48:30.37 |  5:53.55 |   218287    |  244816
       14  | 54:24.17 |  3:26.53 |   244817    |  260319
       15  | 57:50.70 |  4:11.45 |   260320    |  279189
       16  | 62:02.40 |  4:16.10 |   279190    |  298399
       17  | 66:18.50 |  3:10.32 |   298400    |  312681
       18  | 69:29.07 |  2:50.58 |   312682    |  325489
Bereichsstatus und Fehler
Gewдhlter Bereich
     Dateiname K:\AP-Kollekzia\01 - I\Alla Pugacheva - Po Ostrim Iglam Yarkogo Ognya.wav
     Spitzenpegel 98.0 %
     Bereichsqualitдt 100.0 %
     Test CRC 32A94763
     Kopie CRC 32A94763
     Kopie OK
Keine Fehler aufgetreten
AccurateRip Ьbersicht
Track  1  nicht in Datenbank enthalten
Track  2  nicht in Datenbank enthalten
Track  3  nicht in Datenbank enthalten
Track  4  nicht in Datenbank enthalten
Track  5  nicht in Datenbank enthalten
Track  6  nicht in Datenbank enthalten
Track  7  nicht in Datenbank enthalten
Track  8  nicht in Datenbank enthalten
Track  9  nicht in Datenbank enthalten
Track 10  nicht in Datenbank enthalten
Track 11  nicht in Datenbank enthalten
Track 12  nicht in Datenbank enthalten
Track 13  nicht in Datenbank enthalten
Track 14  nicht in Datenbank enthalten
Track 15  nicht in Datenbank enthalten
Track 16  nicht in Datenbank enthalten
Track 17  nicht in Datenbank enthalten
Track 18  nicht in Datenbank enthalten
Keiner der Tracks ist in der AccurateRip Datenbank vorhanden
Ende des Statusreports

CD II - Ах,как хочется жить!

Код:
Exact Audio Copy V0.99 prebeta 3 from 28. July 2007
EAC Auslese-Logdatei vom 29. November 2008, 13:33
Alla Pugacheva / KOLLEKZIA (02) - Ah, kak hochetsa zhit !
Benutztes Laufwerk : HL-DT-STDVD-ROM GDR-H30N   Adapter: 0  ID: 1
Lesemodus                      : Sicher
Benutze Accurate Stream        : Ja
Audio Puffer abgeschaltet      : Ja
Benutze C2 Fehlerinformationen : Nein
Leseoffset Korrektur                           : 6
Ьberlesen in das Lead-In und Lead-Out          : Nein
Fьlle fehlende Offsetsample mit Stille auf     : Ja
Lцsche fьhrende und nachfolgende stille Blцcke : Nein
Null Samples gehen in CRC Berechnungen ein     : Ja
Benutzte Schnittstelle                         : Installierte externe ASPI Schnittstelle
Benutztes Ausgabeformat : Interne WAV Routinen
Sampleformat            : 44.100 Hz; 16 Bit; Stereo
TOC der ausgelesenen CD
     Track |   Start  |   Lдnge  | Startsektor | Endsektor
    -------------------------------------------------------
        1  |  0:00.00 |  3:23.60 |        0    |   15284
        2  |  3:23.60 |  2:50.67 |    15285    |   28101
        3  |  6:14.52 |  3:05.65 |    28102    |   42041
        4  |  9:20.42 |  2:46.55 |    42042    |   54546
        5  | 12:07.22 |  3:50.18 |    54547    |   71814
        6  | 15:57.40 |  4:52.07 |    71815    |   93721
        7  | 20:49.47 |  4:01.45 |    93722    |  111841
        8  | 24:51.17 |  2:51.23 |   111842    |  124689
        9  | 27:42.40 |  4:19.35 |   124690    |  144149
       10  | 32:02.00 |  3:30.17 |   144150    |  159916
       11  | 35:32.17 |  3:42.48 |   159917    |  176614
       12  | 39:14.65 |  2:32.67 |   176615    |  188081
       13  | 41:47.57 |  3:32.52 |   188082    |  204033
       14  | 45:20.34 |  4:51.73 |   204034    |  225931
       15  | 50:12.32 |  4:33.43 |   225932    |  246449
       16  | 54:46.00 |  3:24.02 |   246450    |  261751
       17  | 58:10.02 |  4:46.15 |   261752    |  283216
       18  | 62:56.17 |  4:36.53 |   283217    |  303969
Bereichsstatus und Fehler
Gewдhlter Bereich
     Dateiname K:\AP-Kollekzia\02 - II\Alla Pugacheva - KOLLEKZIA (02) - Ah, kak hochetsa zhit !.wav
     Spitzenpegel 90.6 %
     Bereichsqualitдt 100.0 %
     Test CRC CC99F0B6
     Kopie CRC CC99F0B6
     Kopie OK
Keine Fehler aufgetreten
AccurateRip Ьbersicht
Track  1  nicht in Datenbank enthalten
Track  2  nicht in Datenbank enthalten
Track  3  nicht in Datenbank enthalten
Track  4  nicht in Datenbank enthalten
Track  5  nicht in Datenbank enthalten
Track  6  nicht in Datenbank enthalten
Track  7  nicht in Datenbank enthalten
Track  8  nicht in Datenbank enthalten
Track  9  nicht in Datenbank enthalten
Track 10  nicht in Datenbank enthalten
Track 11  nicht in Datenbank enthalten
Track 12  nicht in Datenbank enthalten
Track 13  nicht in Datenbank enthalten
Track 14  nicht in Datenbank enthalten
Track 15  nicht in Datenbank enthalten
Track 16  nicht in Datenbank enthalten
Track 17  nicht in Datenbank enthalten
Track 18  nicht in Datenbank enthalten
Keiner der Tracks ist in der AccurateRip Datenbank vorhanden
Ende des Statusreports

CD III - И в этом вся моя печаль

Код:
Exact Audio Copy V0.99 prebeta 3 from 28. July 2007
EAC Auslese-Logdatei vom 30. November 2008, 0:55
Alla Pugacheva / KOLLEKZIA (03) - I v etom vsya moya pechal
Benutztes Laufwerk : HL-DT-STDVD-ROM GDR-H30N   Adapter: 0  ID: 1
Lesemodus                      : Sicher
Benutze Accurate Stream        : Ja
Audio Puffer abgeschaltet      : Ja
Benutze C2 Fehlerinformationen : Nein
Leseoffset Korrektur                           : 6
Ьberlesen in das Lead-In und Lead-Out          : Nein
Fьlle fehlende Offsetsample mit Stille auf     : Ja
Lцsche fьhrende und nachfolgende stille Blцcke : Nein
Null Samples gehen in CRC Berechnungen ein     : Ja
Benutzte Schnittstelle                         : Installierte externe ASPI Schnittstelle
Benutztes Ausgabeformat : Interne WAV Routinen
Sampleformat            : 44.100 Hz; 16 Bit; Stereo
TOC der ausgelesenen CD
     Track |   Start  |   Lдnge  | Startsektor | Endsektor
    -------------------------------------------------------
        1  |  0:00.00 |  4:32.00 |        0    |   20399
        2  |  4:32.00 |  4:33.50 |    20400    |   40924
        3  |  9:05.50 |  3:53.25 |    40925    |   58424
        4  | 12:59.00 |  5:17.12 |    58425    |   82211
        5  | 18:16.12 |  4:56.00 |    82212    |  104411
        6  | 23:12.12 |  4:35.38 |   104412    |  125074
        7  | 27:47.50 |  3:23.00 |   125075    |  140299
        8  | 31:10.50 |  5:43.50 |   140300    |  166074
        9  | 36:54.25 |  3:52.50 |   166075    |  183524
       10  | 40:47.00 |  5:21.25 |   183525    |  207624
       11  | 46:08.25 |  5:54.62 |   207625    |  234236
       12  | 52:03.12 |  4:18.13 |   234237    |  253599
       13  | 56:21.25 |  5:04.50 |   253600    |  276449
       14  | 61:26.00 |  5:38.37 |   276450    |  301836
       15  | 67:04.37 |  6:20.38 |   301837    |  330374
Bereichsstatus und Fehler
Gewдhlter Bereich
     Dateiname K:\AP-Kollekzia\03 - III\Alla Pugacheva - KOLLEKZIA (03) - I v etom vsya moya pechal.wav
     Spitzenpegel 99.5 %
     Bereichsqualitдt 100.0 %
     Test CRC BE0C27DC
     Kopie CRC BE0C27DC
     Kopie OK
Keine Fehler aufgetreten
AccurateRip Ьbersicht
Track  1  nicht in Datenbank enthalten
Track  2  nicht in Datenbank enthalten
Track  3  nicht in Datenbank enthalten
Track  4  nicht in Datenbank enthalten
Track  5  nicht in Datenbank enthalten
Track  6  nicht in Datenbank enthalten
Track  7  nicht in Datenbank enthalten
Track  8  nicht in Datenbank enthalten
Track  9  nicht in Datenbank enthalten
Track 10  nicht in Datenbank enthalten
Track 11  nicht in Datenbank enthalten
Track 12  nicht in Datenbank enthalten
Track 13  nicht in Datenbank enthalten
Track 14  nicht in Datenbank enthalten
Track 15  nicht in Datenbank enthalten
Keiner der Tracks ist in der AccurateRip Datenbank vorhanden
Ende des Statusreports

CD IV - Только в кино

Код:
Exact Audio Copy V0.99 prebeta 3 from 28. July 2007
EAC Auslese-Logdatei vom 30. November 2008, 1:13
Alla Pugacheva / IV (tolko v kino)
Benutztes Laufwerk : HL-DT-STDVD-ROM GDR-H30N   Adapter: 0  ID: 1
Lesemodus                      : Sicher
Benutze Accurate Stream        : Ja
Audio Puffer abgeschaltet      : Ja
Benutze C2 Fehlerinformationen : Nein
Leseoffset Korrektur                           : 6
Ьberlesen in das Lead-In und Lead-Out          : Nein
Fьlle fehlende Offsetsample mit Stille auf     : Ja
Lцsche fьhrende und nachfolgende stille Blцcke : Nein
Null Samples gehen in CRC Berechnungen ein     : Ja
Benutzte Schnittstelle                         : Installierte externe ASPI Schnittstelle
Benutztes Ausgabeformat : Interne WAV Routinen
Sampleformat            : 44.100 Hz; 16 Bit; Stereo
TOC der ausgelesenen CD
     Track |   Start  |   Lдnge  | Startsektor | Endsektor
    -------------------------------------------------------
        1  |  0:00.00 |  4:15.57 |        0    |   19181
        2  |  4:15.57 |  4:16.08 |    19182    |   38389
        3  |  8:31.65 |  3:45.22 |    38390    |   55286
        4  | 12:17.12 |  4:17.63 |    55287    |   74624
        5  | 16:35.00 |  6:10.35 |    74625    |  102409
        6  | 22:45.35 |  5:20.22 |   102410    |  126431
        7  | 28:05.57 |  6:59.43 |   126432    |  157899
        8  | 35:05.25 |  3:14.02 |   157900    |  172451
        9  | 38:19.27 |  6:20.58 |   172452    |  201009
       10  | 44:40.10 |  1:36.30 |   201010    |  208239
       11  | 46:16.40 |  2:49.30 |   208240    |  220944
       12  | 49:05.70 |  1:53.05 |   220945    |  229424
       13  | 50:59.00 |  1:37.57 |   229425    |  236756
       14  | 52:36.57 |  3:08.03 |   236757    |  250859
       15  | 55:44.60 |  2:18.25 |   250860    |  261234
       16  | 58:03.10 |  4:56.47 |   261235    |  283481
       17  | 62:59.57 |  3:25.35 |   283482    |  298891
       18  | 66:25.17 |  4:08.10 |   298892    |  317501
       19  | 70:33.27 |  2:57.48 |   317502    |  330824
Bereichsstatus und Fehler
Gewдhlter Bereich
     Dateiname K:\AP-Kollekzia\04 - IV\Alla Pugacheva - IV (tolko v kino).wav
     Spitzenpegel 97.6 %
     Bereichsqualitдt 100.0 %
     Test CRC 0BCF424A
     Kopie CRC 0BCF424A
     Kopie OK
Keine Fehler aufgetreten
AccurateRip Ьbersicht
Track  1  nicht in Datenbank enthalten
Track  2  nicht in Datenbank enthalten
Track  3  nicht in Datenbank enthalten
Track  4  nicht in Datenbank enthalten
Track  5  nicht in Datenbank enthalten
Track  6  nicht in Datenbank enthalten
Track  7  nicht in Datenbank enthalten
Track  8  nicht in Datenbank enthalten
Track  9  nicht in Datenbank enthalten
Track 10  nicht in Datenbank enthalten
Track 11  nicht in Datenbank enthalten
Track 12  nicht in Datenbank enthalten
Track 13  nicht in Datenbank enthalten
Track 14  nicht in Datenbank enthalten
Track 15  nicht in Datenbank enthalten
Track 16  nicht in Datenbank enthalten
Track 17  nicht in Datenbank enthalten
Track 18  nicht in Datenbank enthalten
Track 19  nicht in Datenbank enthalten
Keiner der Tracks ist in der AccurateRip Datenbank vorhanden
Ende des Statusreports

CD V - Это завтра а сегодня...

Код:
Exact Audio Copy V0.99 prebeta 3 from 28. July 2007
EAC Auslese-Logdatei vom 30. November 2008, 10:02
Alla Pugacheva / Eto Zavtra A Segodnya
Benutztes Laufwerk : HL-DT-STDVD-ROM GDR-H30N   Adapter: 0  ID: 1
Lesemodus                      : Sicher
Benutze Accurate Stream        : Ja
Audio Puffer abgeschaltet      : Ja
Benutze C2 Fehlerinformationen : Nein
Leseoffset Korrektur                           : 6
Ьberlesen in das Lead-In und Lead-Out          : Nein
Fьlle fehlende Offsetsample mit Stille auf     : Ja
Lцsche fьhrende und nachfolgende stille Blцcke : Nein
Null Samples gehen in CRC Berechnungen ein     : Ja
Benutzte Schnittstelle                         : Installierte externe ASPI Schnittstelle
Benutztes Ausgabeformat : Interne WAV Routinen
Sampleformat            : 44.100 Hz; 16 Bit; Stereo
TOC der ausgelesenen CD
     Track |   Start  |   Lдnge  | Startsektor | Endsektor
    -------------------------------------------------------
        1  |  0:00.00 |  5:47.25 |        0    |   26049
        2  |  5:47.25 |  4:54.32 |    26050    |   48131
        3  | 10:41.57 |  2:51.35 |    48132    |   60991
        4  | 13:33.17 |  4:26.28 |    60992    |   80969
        5  | 17:59.45 |  4:00.42 |    80970    |   99011
        6  | 22:00.12 |  3:45.70 |    99012    |  115956
        7  | 25:46.07 |  3:31.03 |   115957    |  131784
        8  | 29:17.10 |  3:23.70 |   131785    |  147079
        9  | 32:41.05 |  4:21.07 |   147080    |  166661
       10  | 37:02.12 |  3:37.33 |   166662    |  182969
       11  | 40:39.45 |  4:14.25 |   182970    |  202044
       12  | 44:53.70 |  2:52.37 |   202045    |  214981
       13  | 47:46.32 |  4:13.30 |   214982    |  233986
       14  | 51:59.62 |  3:09.35 |   233987    |  248196
       15  | 55:09.22 |  3:31.60 |   248197    |  264081
       16  | 58:41.07 |  3:59.40 |   264082    |  282046
Bereichsstatus und Fehler
Gewдhlter Bereich
     Dateiname K:\AP-Kollekzia\05 - V\Alla Pugacheva - Eto Zavtra A Segodnya.wav
     Spitzenpegel 100.0 %
     Bereichsqualitдt 99.9 %
     Test CRC FE6001E3
     Kopie CRC FE6001E3
     Kopie OK
Keine Fehler aufgetreten
AccurateRip Ьbersicht
Track  1  nicht in Datenbank enthalten
Track  2  nicht in Datenbank enthalten
Track  3  nicht in Datenbank enthalten
Track  4  nicht in Datenbank enthalten
Track  5  nicht in Datenbank enthalten
Track  6  nicht in Datenbank enthalten
Track  7  nicht in Datenbank enthalten
Track  8  nicht in Datenbank enthalten
Track  9  nicht in Datenbank enthalten
Track 10  nicht in Datenbank enthalten
Track 11  nicht in Datenbank enthalten
Track 12  nicht in Datenbank enthalten
Track 13  nicht in Datenbank enthalten
Track 14  nicht in Datenbank enthalten
Track 15  nicht in Datenbank enthalten
Track 16  nicht in Datenbank enthalten
Keiner der Tracks ist in der AccurateRip Datenbank vorhanden
Ende des Statusreports

CD VI - Билет на вчерашний спектакль

Код:
Exact Audio Copy V0.99 prebeta 3 from 28. July 2007
EAC Auslese-Logdatei vom 30. November 2008, 10:24
Alla Pugacheva / KOLLEKZIA (06) - Bilet na vcherashni spektakl
Benutztes Laufwerk : HL-DT-STDVD-ROM GDR-H30N   Adapter: 0  ID: 1
Lesemodus                      : Sicher
Benutze Accurate Stream        : Ja
Audio Puffer abgeschaltet      : Ja
Benutze C2 Fehlerinformationen : Nein
Leseoffset Korrektur                           : 6
Ьberlesen in das Lead-In und Lead-Out          : Nein
Fьlle fehlende Offsetsample mit Stille auf     : Ja
Lцsche fьhrende und nachfolgende stille Blцcke : Nein
Null Samples gehen in CRC Berechnungen ein     : Ja
Benutzte Schnittstelle                         : Installierte externe ASPI Schnittstelle
Benutztes Ausgabeformat : Interne WAV Routinen
Sampleformat            : 44.100 Hz; 16 Bit; Stereo
TOC der ausgelesenen CD
     Track |   Start  |   Lдnge  | Startsektor | Endsektor
    -------------------------------------------------------
        1  |  0:00.00 |  3:59.40 |        0    |   17964
        2  |  3:59.40 |  3:52.02 |    17965    |   35366
        3  |  7:51.42 |  3:07.45 |    35367    |   49436
        4  | 10:59.12 |  4:11.50 |    49437    |   68311
        5  | 15:10.62 |  4:04.25 |    68312    |   86636
        6  | 19:15.12 |  3:16.60 |    86637    |  101396
        7  | 22:31.72 |  3:19.55 |   101397    |  116376
        8  | 25:51.52 |  4:18.35 |   116377    |  135761
        9  | 30:10.12 |  3:38.55 |   135762    |  152166
       10  | 33:48.67 |  5:12.20 |   152167    |  175586
       11  | 39:01.12 |  3:44.08 |   175587    |  192394
       12  | 42:45.20 |  5:21.32 |   192395    |  216501
       13  | 48:06.52 |  3:13.28 |   216502    |  231004
       14  | 51:20.05 |  3:59.42 |   231005    |  248971
       15  | 55:19.47 |  4:00.40 |   248972    |  267011
Bereichsstatus und Fehler
Gewдhlter Bereich
     Dateiname K:\AP-Kollekzia\06 - VI\Alla Pugacheva - KOLLEKZIA (06) - Bilet na vcherashni spektakl.wav
     Spitzenpegel 99.9 %
     Bereichsqualitдt 100.0 %
     Test CRC 5321A371
     Kopie CRC 5321A371
     Kopie OK
Keine Fehler aufgetreten
AccurateRip Ьbersicht
Track  1  nicht in Datenbank enthalten
Track  2  nicht in Datenbank enthalten
Track  3  nicht in Datenbank enthalten
Track  4  nicht in Datenbank enthalten
Track  5  nicht in Datenbank enthalten
Track  6  nicht in Datenbank enthalten
Track  7  nicht in Datenbank enthalten
Track  8  nicht in Datenbank enthalten
Track  9  nicht in Datenbank enthalten
Track 10  nicht in Datenbank enthalten
Track 11  nicht in Datenbank enthalten
Track 12  nicht in Datenbank enthalten
Track 13  nicht in Datenbank enthalten
Track 14  nicht in Datenbank enthalten
Track 15  nicht in Datenbank enthalten
Keiner der Tracks ist in der AccurateRip Datenbank vorhanden
Ende des Statusreports

CD VII - Встречи в пути | 01:11:42

Код:
Exact Audio Copy V0.99 prebeta 3 from 28. July 2007
EAC Auslese-Logdatei vom 30. November 2008, 10:42
Alla Pugatchova / 13 CD Box CD 07 - Vstrechi V Pouti
Benutztes Laufwerk : HL-DT-STDVD-ROM GDR-H30N   Adapter: 0  ID: 1
Lesemodus                      : Sicher
Benutze Accurate Stream        : Ja
Audio Puffer abgeschaltet      : Ja
Benutze C2 Fehlerinformationen : Nein
Leseoffset Korrektur                           : 6
Ьberlesen in das Lead-In und Lead-Out          : Nein
Fьlle fehlende Offsetsample mit Stille auf     : Ja
Lцsche fьhrende und nachfolgende stille Blцcke : Nein
Null Samples gehen in CRC Berechnungen ein     : Ja
Benutzte Schnittstelle                         : Installierte externe ASPI Schnittstelle
Benutztes Ausgabeformat : Interne WAV Routinen
Sampleformat            : 44.100 Hz; 16 Bit; Stereo
TOC der ausgelesenen CD
     Track |   Start  |   Lдnge  | Startsektor | Endsektor
    -------------------------------------------------------
        1  |  0:00.00 |  4:38.15 |        0    |   20864
        2  |  4:38.15 |  5:01.15 |    20865    |   43454
        3  |  9:39.30 |  3:19.12 |    43455    |   58391
        4  | 12:58.42 |  3:55.23 |    58392    |   76039
        5  | 16:53.65 |  4:29.62 |    76040    |   96276
        6  | 21:23.52 |  4:35.18 |    96277    |  116919
        7  | 25:58.70 |  4:40.30 |   116920    |  137949
        8  | 30:39.25 |  2:51.17 |   137950    |  150791
        9  | 33:30.42 |  4:45.40 |   150792    |  172206
       10  | 38:16.07 |  4:04.68 |   172207    |  190574
       11  | 42:21.00 |  4:30.50 |   190575    |  210874
       12  | 46:51.50 |  4:32.42 |   210875    |  231316
       13  | 51:24.17 |  5:58.43 |   231317    |  258209
       14  | 57:22.60 |  4:42.35 |   258210    |  279394
       15  | 62:05.20 |  3:57.07 |   279395    |  297176
       16  | 66:02.27 |  5:39.65 |   297177    |  322666
Bereichsstatus und Fehler
Gewдhlter Bereich
     Dateiname K:\AP-Kollekzia\07 - VII\Alla Pugatchova - 13 CD Box CD 07 - Vstrechi V Pouti.wav
     Spitzenpegel 100.0 %
     Bereichsqualitдt 99.9 %
     Test CRC C186DFE0
     Kopie CRC C186DFE0
     Kopie OK
Keine Fehler aufgetreten
AccurateRip Ьbersicht
Track  1  nicht in Datenbank enthalten
Track  2  nicht in Datenbank enthalten
Track  3  nicht in Datenbank enthalten
Track  4  nicht in Datenbank enthalten
Track  5  nicht in Datenbank enthalten
Track  6  nicht in Datenbank enthalten
Track  7  nicht in Datenbank enthalten
Track  8  nicht in Datenbank enthalten
Track  9  nicht in Datenbank enthalten
Track 10  nicht in Datenbank enthalten
Track 11  nicht in Datenbank enthalten
Track 12  nicht in Datenbank enthalten
Track 13  nicht in Datenbank enthalten
Track 14  nicht in Datenbank enthalten
Track 15  nicht in Datenbank enthalten
Track 16  nicht in Datenbank enthalten
Keiner der Tracks ist in der AccurateRip Datenbank vorhanden
Ende des Statusreports

CD VIII - На дороге ожиданий

Код:
Exact Audio Copy V0.99 prebeta 3 from 28. July 2007
EAC Auslese-Logdatei vom 30. November 2008, 11:07
Alla Pugacheva / KOLLEKZIA (08) - Na doroge ozhidaniy
Benutztes Laufwerk : HL-DT-STDVD-ROM GDR-H30N   Adapter: 0  ID: 1
Lesemodus                      : Sicher
Benutze Accurate Stream        : Ja
Audio Puffer abgeschaltet      : Ja
Benutze C2 Fehlerinformationen : Nein
Leseoffset Korrektur                           : 6
Ьberlesen in das Lead-In und Lead-Out          : Nein
Fьlle fehlende Offsetsample mit Stille auf     : Ja
Lцsche fьhrende und nachfolgende stille Blцcke : Nein
Null Samples gehen in CRC Berechnungen ein     : Ja
Benutzte Schnittstelle                         : Installierte externe ASPI Schnittstelle
Benutztes Ausgabeformat : Interne WAV Routinen
Sampleformat            : 44.100 Hz; 16 Bit; Stereo
TOC der ausgelesenen CD
     Track |   Start  |   Lдnge  | Startsektor | Endsektor
    -------------------------------------------------------
        1  |  0:00.00 |  4:27.25 |        0    |   20049
        2  |  4:27.25 |  3:47.67 |    20050    |   37141
        3  |  8:15.17 |  3:16.45 |    37142    |   51886
        4  | 11:31.62 |  3:50.18 |    51887    |   69154
        5  | 15:22.05 |  3:39.27 |    69155    |   85606
        6  | 19:01.32 |  5:48.25 |    85607    |  111731
        7  | 24:49.57 |  4:56.65 |   111732    |  133996
        8  | 29:46.47 |  4:09.48 |   133997    |  152719
        9  | 33:56.20 |  4:58.22 |   152720    |  175091
       10  | 38:54.42 |  4:38.20 |   175092    |  195961
       11  | 43:32.62 |  3:16.35 |   195962    |  210696
       12  | 46:49.22 |  4:14.48 |   210697    |  229794
       13  | 51:03.70 |  4:45.57 |   229795    |  251226
       14  | 55:49.52 |  6:22.65 |   251227    |  279941
       15  | 62:12.42 |  4:23.50 |   279942    |  299716
       16  | 66:36.17 |  3:30.65 |   299717    |  315531
Bereichsstatus und Fehler
Gewдhlter Bereich
     Dateiname K:\AP-Kollekzia\08 - VIII\Alla Pugacheva - KOLLEKZIA (08) - Na doroge ozhidaniy.wav
     Spitzenpegel 100.0 %
     Bereichsqualitдt 100.0 %
     Test CRC 1CC1DFF1
     Kopie CRC 1CC1DFF1
     Kopie OK
Keine Fehler aufgetreten
AccurateRip Ьbersicht
Track  1  kann nicht als akkurat verifiziert werden (Zuversicht 1)  [CABE051D], AccurateRip lieferte [63F553B3]
Track  2  kann nicht als akkurat verifiziert werden (Zuversicht 1)  [FE8BBB8A], AccurateRip lieferte [5FE928FB]
Track  3  kann nicht als akkurat verifiziert werden (Zuversicht 1)  [6217B518], AccurateRip lieferte [56CC6494]
Track  4  kann nicht als akkurat verifiziert werden (Zuversicht 1)  [A956F7EB], AccurateRip lieferte [9D46B788]
Track  5  kann nicht als akkurat verifiziert werden (Zuversicht 1)  [B95F5206], AccurateRip lieferte [9EDAFDAC]
Track  6  kann nicht als akkurat verifiziert werden (Zuversicht 1)  [B59D38C6], AccurateRip lieferte [6D756087]
Track  7  kann nicht als akkurat verifiziert werden (Zuversicht 1)  [8288DEDE], AccurateRip lieferte [4355649F]
Track  8  kann nicht als akkurat verifiziert werden (Zuversicht 1)  [55B53E69], AccurateRip lieferte [74ABA8A3]
Track  9  kann nicht als akkurat verifiziert werden (Zuversicht 1)  [FA9C61B7], AccurateRip lieferte [37F804CA]
Track 10  kann nicht als akkurat verifiziert werden (Zuversicht 1)  [F48C28D2], AccurateRip lieferte [CA64DFC9]
Track 11  kann nicht als akkurat verifiziert werden (Zuversicht 1)  [76D69777], AccurateRip lieferte [1C128CDF]
Track 12  kann nicht als akkurat verifiziert werden (Zuversicht 1)  [DE61BBD1], AccurateRip lieferte [08EAF5BF]
Track 13  kann nicht als akkurat verifiziert werden (Zuversicht 1)  [1447449C], AccurateRip lieferte [84059EF7]
Track 14  kann nicht als akkurat verifiziert werden (Zuversicht 1)  [683129D3], AccurateRip lieferte [F9F8EBDE]
Track 15  kann nicht als akkurat verifiziert werden (Zuversicht 1)  [A6BBD274], AccurateRip lieferte [A2B51FE2]
Track 16  kann nicht als akkurat verifiziert werden (Zuversicht 1)  [8221FA45], AccurateRip lieferte [12D5DD0F]
Kein Track konnte als akkurat verifiziert werden
Es kцnnte sich um eine andere Pressung als von der in der Datenbank vorhandenen handeln
Ende des Statusreports

CD IX - Размышления у камина

Код:
Exact Audio Copy V0.99 prebeta 3 from 28. July 2007
EAC Auslese-Logdatei vom 30. November 2008, 11:52
Alla Pugacheva / CD09 - Razmishlenia u kamina
Benutztes Laufwerk : HL-DT-STDVD-ROM GDR-H30N   Adapter: 0  ID: 1
Lesemodus                      : Sicher
Benutze Accurate Stream        : Ja
Audio Puffer abgeschaltet      : Ja
Benutze C2 Fehlerinformationen : Nein
Leseoffset Korrektur                           : 6
Ьberlesen in das Lead-In und Lead-Out          : Nein
Fьlle fehlende Offsetsample mit Stille auf     : Ja
Lцsche fьhrende und nachfolgende stille Blцcke : Nein
Null Samples gehen in CRC Berechnungen ein     : Ja
Benutzte Schnittstelle                         : Installierte externe ASPI Schnittstelle
Benutztes Ausgabeformat : Interne WAV Routinen
Sampleformat            : 44.100 Hz; 16 Bit; Stereo
TOC der ausgelesenen CD
     Track |   Start  |   Lдnge  | Startsektor | Endsektor
    -------------------------------------------------------
        1  |  0:00.00 |  3:32.37 |        0    |   15936
        2  |  3:32.37 |  6:19.00 |    15937    |   44361
        3  |  9:51.37 |  5:02.48 |    44362    |   67059
        4  | 14:54.10 |  3:47.47 |    67060    |   84131
        5  | 18:41.57 |  3:39.60 |    84132    |  100616
        6  | 22:21.42 |  5:36.30 |   100617    |  125846
        7  | 27:57.72 |  5:15.38 |   125847    |  149509
        8  | 33:13.35 |  3:57.07 |   149510    |  167291
        9  | 37:10.42 |  4:59.70 |   167292    |  189786
       10  | 42:10.37 |  4:28.00 |   189787    |  209886
       11  | 46:38.37 |  4:38.35 |   209887    |  230771
       12  | 51:16.72 |  5:09.45 |   230772    |  253991
       13  | 56:26.42 |  5:05.48 |   253992    |  276914
Bereichsstatus und Fehler
Gewдhlter Bereich
     Dateiname K:\AP-Kollekzia\09 - IX\Alla Pugacheva - CD09 - Razmishlenia u kamina.wav
     Spitzenpegel 100.0 %
     Bereichsqualitдt 99.9 %
     Test CRC DBDD2BCF
     Kopie CRC DBDD2BCF
     Kopie OK
Keine Fehler aufgetreten
AccurateRip Ьbersicht
Track  1  nicht in Datenbank enthalten
Track  2  nicht in Datenbank enthalten
Track  3  nicht in Datenbank enthalten
Track  4  nicht in Datenbank enthalten
Track  5  nicht in Datenbank enthalten
Track  6  nicht in Datenbank enthalten
Track  7  nicht in Datenbank enthalten
Track  8  nicht in Datenbank enthalten
Track  9  nicht in Datenbank enthalten
Track 10  nicht in Datenbank enthalten
Track 11  nicht in Datenbank enthalten
Track 12  nicht in Datenbank enthalten
Track 13  nicht in Datenbank enthalten
Keiner der Tracks ist in der AccurateRip Datenbank vorhanden
Ende des Statusreports

CD X - Это было однажды

Код:
Exact Audio Copy V0.99 prebeta 3 from 28. July 2007
EAC Auslese-Logdatei vom 30. November 2008, 12:09
Alla Pugatchova / 13 CD Box CD 10 - Eto Bylo Odnazhdy
Benutztes Laufwerk : HL-DT-STDVD-ROM GDR-H30N   Adapter: 0  ID: 1
Lesemodus                      : Sicher
Benutze Accurate Stream        : Ja
Audio Puffer abgeschaltet      : Ja
Benutze C2 Fehlerinformationen : Nein
Leseoffset Korrektur                           : 6
Ьberlesen in das Lead-In und Lead-Out          : Nein
Fьlle fehlende Offsetsample mit Stille auf     : Ja
Lцsche fьhrende und nachfolgende stille Blцcke : Nein
Null Samples gehen in CRC Berechnungen ein     : Ja
Benutzte Schnittstelle                         : Installierte externe ASPI Schnittstelle
Benutztes Ausgabeformat : Interne WAV Routinen
Sampleformat            : 44.100 Hz; 16 Bit; Stereo
TOC der ausgelesenen CD
     Track |   Start  |   Lдnge  | Startsektor | Endsektor
    -------------------------------------------------------
        1  |  0:00.00 |  3:39.65 |        0    |   16489
        2  |  3:39.65 |  7:01.20 |    16490    |   48084
        3  | 10:41.10 |  3:36.27 |    48085    |   64311
        4  | 14:17.37 |  4:00.28 |    64312    |   82339
        5  | 18:17.65 |  3:36.12 |    82340    |   98551
        6  | 21:54.02 |  3:19.20 |    98552    |  113496
        7  | 25:13.22 |  4:33.40 |   113497    |  134011
        8  | 29:46.62 |  3:43.23 |   134012    |  150759
        9  | 33:30.10 |  4:54.42 |   150760    |  172851
       10  | 38:24.52 |  5:19.68 |   172852    |  196844
       11  | 43:44.45 |  2:36.45 |   196845    |  208589
       12  | 46:21.15 |  4:36.20 |   208590    |  229309
       13  | 50:57.35 |  4:46.15 |   229310    |  250774
Bereichsstatus und Fehler
Gewдhlter Bereich
     Dateiname K:\AP-Kollekzia\10 - X\Alla Pugatchova - 13 CD Box CD 10 - Eto Bylo Odnazhdy.wav
     Spitzenpegel 100.0 %
     Bereichsqualitдt 100.0 %
     Test CRC 606D9B9D
     Kopie CRC 606D9B9D
     Kopie OK
Keine Fehler aufgetreten
AccurateRip Ьbersicht
Track  1  nicht in Datenbank enthalten
Track  2  nicht in Datenbank enthalten
Track  3  nicht in Datenbank enthalten
Track  4  nicht in Datenbank enthalten
Track  5  nicht in Datenbank enthalten
Track  6  nicht in Datenbank enthalten
Track  7  nicht in Datenbank enthalten
Track  8  nicht in Datenbank enthalten
Track  9  nicht in Datenbank enthalten
Track 10  nicht in Datenbank enthalten
Track 11  nicht in Datenbank enthalten
Track 12  nicht in Datenbank enthalten
Track 13  nicht in Datenbank enthalten
Keiner der Tracks ist in der AccurateRip Datenbank vorhanden
Ende des Statusreports

CD XI - Барышня с крестьянской заставы

Код:
Exact Audio Copy V0.99 prebeta 3 from 28. July 2007
EAC Auslese-Logdatei vom 30. November 2008, 12:33
Alla Pugatchova / 13 CD Box CD 11 - Barysnia S Krestianskoi Zastavy
Benutztes Laufwerk : HL-DT-STDVD-ROM GDR-H30N   Adapter: 0  ID: 1
Lesemodus                      : Sicher
Benutze Accurate Stream        : Ja
Audio Puffer abgeschaltet      : Ja
Benutze C2 Fehlerinformationen : Nein
Leseoffset Korrektur                           : 6
Ьberlesen in das Lead-In und Lead-Out          : Nein
Fьlle fehlende Offsetsample mit Stille auf     : Ja
Lцsche fьhrende und nachfolgende stille Blцcke : Nein
Null Samples gehen in CRC Berechnungen ein     : Ja
Benutzte Schnittstelle                         : Installierte externe ASPI Schnittstelle
Benutztes Ausgabeformat : Interne WAV Routinen
Sampleformat            : 44.100 Hz; 16 Bit; Stereo
TOC der ausgelesenen CD
     Track |   Start  |   Lдnge  | Startsektor | Endsektor
    -------------------------------------------------------
        1  |  0:00.00 |  3:17.70 |        0    |   14844
        2  |  3:17.70 |  2:11.20 |    14845    |   24689
        3  |  5:29.15 |  2:42.07 |    24690    |   36846
        4  |  8:11.22 |  4:44.05 |    36847    |   58151
        5  | 12:55.27 |  2:01.20 |    58152    |   67246
        6  | 14:56.47 |  3:28.05 |    67247    |   82851
        7  | 18:24.52 |  2:15.13 |    82852    |   92989
        8  | 20:39.65 |  1:16.40 |    92990    |   98729
        9  | 21:56.30 |  2:53.52 |    98730    |  111756
       10  | 24:50.07 |  3:05.63 |   111757    |  125694
       11  | 27:55.70 |  2:12.42 |   125695    |  135636
       12  | 30:08.37 |  2:54.40 |   135637    |  148726
       13  | 33:03.02 |  2:58.32 |   148727    |  162108
       14  | 36:01.34 |  2:59.58 |   162109    |  175591
       15  | 39:01.17 |  4:03.00 |   175592    |  193816
       16  | 43:04.17 |  2:33.43 |   193817    |  205334
       17  | 45:37.60 |  2:49.25 |   205335    |  218034
       18  | 48:27.10 |  2:28.32 |   218035    |  229166
       19  | 50:55.42 |  6:01.10 |   229167    |  256251
       20  | 56:56.52 |  3:47.35 |   256252    |  273311
       21  | 60:44.12 |  2:33.43 |   273312    |  284829
       22  | 63:17.55 |  3:17.52 |   284830    |  299656
       23  | 66:35.32 |  2:35.40 |   299657    |  311321
       24  | 69:10.72 |  2:10.03 |   311322    |  321074
Bereichsstatus und Fehler
Gewдhlter Bereich
     Dateiname K:\AP-Kollekzia\11 - XI\Alla Pugatchova - 13 CD Box CD 11 - Barysnia S Krestianskoi Zastavy.wav
     Spitzenpegel 99.9 %
     Bereichsqualitдt 99.9 %
     Test CRC 7A80810D
     Kopie CRC 7A80810D
     Kopie OK
Keine Fehler aufgetreten
AccurateRip Ьbersicht
Track  1  nicht in Datenbank enthalten
Track  2  nicht in Datenbank enthalten
Track  3  nicht in Datenbank enthalten
Track  4  nicht in Datenbank enthalten
Track  5  nicht in Datenbank enthalten
Track  6  nicht in Datenbank enthalten
Track  7  nicht in Datenbank enthalten
Track  8  nicht in Datenbank enthalten
Track  9  nicht in Datenbank enthalten
Track 10  nicht in Datenbank enthalten
Track 11  nicht in Datenbank enthalten
Track 12  nicht in Datenbank enthalten
Track 13  nicht in Datenbank enthalten
Track 14  nicht in Datenbank enthalten
Track 15  nicht in Datenbank enthalten
Track 16  nicht in Datenbank enthalten
Track 17  nicht in Datenbank enthalten
Track 18  nicht in Datenbank enthalten
Track 19  nicht in Datenbank enthalten
Track 20  nicht in Datenbank enthalten
Track 21  nicht in Datenbank enthalten
Track 22  nicht in Datenbank enthalten
Track 23  nicht in Datenbank enthalten
Track 24  nicht in Datenbank enthalten
Keiner der Tracks ist in der AccurateRip Datenbank vorhanden
Ende des Statusreports

CD XII - Алла Пугачёва в Стокгольме | 00:51:26

Код:
Exact Audio Copy V0.99 prebeta 3 from 28. July 2007
EAC Auslese-Logdatei vom 30. November 2008, 13:16
Alla Pugacheva / Alla Pugacheva in Stockholm
Benutztes Laufwerk : HL-DT-STDVD-ROM GDR-H30N   Adapter: 0  ID: 1
Lesemodus                      : Sicher
Benutze Accurate Stream        : Ja
Audio Puffer abgeschaltet      : Ja
Benutze C2 Fehlerinformationen : Nein
Leseoffset Korrektur                           : 6
Ьberlesen in das Lead-In und Lead-Out          : Nein
Fьlle fehlende Offsetsample mit Stille auf     : Ja
Lцsche fьhrende und nachfolgende stille Blцcke : Nein
Null Samples gehen in CRC Berechnungen ein     : Ja
Benutzte Schnittstelle                         : Installierte externe ASPI Schnittstelle
Benutztes Ausgabeformat : Interne WAV Routinen
Sampleformat            : 44.100 Hz; 16 Bit; Stereo
TOC der ausgelesenen CD
     Track |   Start  |   Lдnge  | Startsektor | Endsektor
    -------------------------------------------------------
        1  |  0:00.00 |  4:03.00 |        0    |   18224
        2  |  4:03.00 |  4:33.25 |    18225    |   38724
        3  |  8:36.25 |  4:31.37 |    38725    |   59086
        4  | 13:07.62 |  3:39.13 |    59087    |   75524
        5  | 16:47.00 |  4:52.37 |    75525    |   97461
        6  | 21:39.37 |  4:17.63 |    97462    |  116799
        7  | 25:57.25 |  4:57.50 |   116800    |  139124
        8  | 30:55.00 |  4:11.50 |   139125    |  157999
        9  | 35:06.50 |  3:50.25 |   158000    |  175274
       10  | 38:57.00 |  3:46.12 |   175275    |  192236
       11  | 42:43.12 |  3:49.38 |   192237    |  209449
       12  | 46:32.50 |  4:53.25 |   209450    |  231449
Bereichsstatus und Fehler
Gewдhlter Bereich
     Dateiname K:\AP-Kollekzia\12 - XII\Alla Pugacheva - Alla Pugacheva in Stockholm.wav
     Spitzenpegel 100.0 %
     Bereichsqualitдt 100.0 %
     Test CRC 8A314D4F
     Kopie CRC 8A314D4F
     Kopie OK
Keine Fehler aufgetreten
AccurateRip Ьbersicht
Track  1  nicht in Datenbank enthalten
Track  2  nicht in Datenbank enthalten
Track  3  nicht in Datenbank enthalten
Track  4  nicht in Datenbank enthalten
Track  5  nicht in Datenbank enthalten
Track  6  nicht in Datenbank enthalten
Track  7  nicht in Datenbank enthalten
Track  8  nicht in Datenbank enthalten
Track  9  nicht in Datenbank enthalten
Track 10  nicht in Datenbank enthalten
Track 11  nicht in Datenbank enthalten
Track 12  nicht in Datenbank enthalten
Keiner der Tracks ist in der AccurateRip Datenbank vorhanden
Ende des Statusreports

CD XIII - Песни на бис

Код:
Exact Audio Copy V0.99 prebeta 3 from 28. July 2007
EAC Auslese-Logdatei vom 30. November 2008, 13:33
Alla Pugathova / 13 CD Box CD 13 - Pesni Na Bis
Benutztes Laufwerk : HL-DT-STDVD-ROM GDR-H30N   Adapter: 0  ID: 1
Lesemodus                      : Sicher
Benutze Accurate Stream        : Ja
Audio Puffer abgeschaltet      : Ja
Benutze C2 Fehlerinformationen : Nein
Leseoffset Korrektur                           : 6
Ьberlesen in das Lead-In und Lead-Out          : Nein
Fьlle fehlende Offsetsample mit Stille auf     : Ja
Lцsche fьhrende und nachfolgende stille Blцcke : Nein
Null Samples gehen in CRC Berechnungen ein     : Ja
Benutzte Schnittstelle                         : Installierte externe ASPI Schnittstelle
Benutztes Ausgabeformat : Interne WAV Routinen
Sampleformat            : 44.100 Hz; 16 Bit; Stereo
TOC der ausgelesenen CD
     Track |   Start  |   Lдnge  | Startsektor | Endsektor
    -------------------------------------------------------
        1  |  0:00.00 |  5:23.07 |        0    |   24231
        2  |  5:23.07 |  2:16.05 |    24232    |   34436
        3  |  7:39.12 |  4:00.23 |    34437    |   52459
        4  | 11:39.35 |  3:30.05 |    52460    |   68214
        5  | 15:09.40 |  1:56.47 |    68215    |   76961
        6  | 17:06.12 |  2:49.20 |    76962    |   89656
        7  | 19:55.32 |  4:09.65 |    89657    |  108396
        8  | 24:05.22 |  4:38.05 |   108397    |  129251
        9  | 28:43.27 |  8:10.43 |   129252    |  166044
       10  | 36:53.70 |  6:16.55 |   166045    |  194299
       11  | 43:10.50 |  3:40.65 |   194300    |  210864
       12  | 46:51.40 |  4:08.37 |   210865    |  229501
       13  | 51:00.02 |  3:22.38 |   229502    |  244689
       14  | 54:22.40 |  4:32.40 |   244690    |  265129
       15  | 58:55.05 |  8:23.45 |   265130    |  302899
       16  | 67:18.50 |  1:17.40 |   302900    |  308714
Bereichsstatus und Fehler
Gewдhlter Bereich
     Dateiname K:\AP-Kollekzia\13 - XIII\Alla Pugathova - 13 CD Box CD 13 - Pesni Na Bis.wav
     Spitzenpegel 100.0 %
     Bereichsqualitдt 100.0 %
     Test CRC 16757186
     Kopie CRC 16757186
     Kopie OK
Keine Fehler aufgetreten
AccurateRip Ьbersicht
Track  1  nicht in Datenbank enthalten
Track  2  nicht in Datenbank enthalten
Track  3  nicht in Datenbank enthalten
Track  4  nicht in Datenbank enthalten
Track  5  nicht in Datenbank enthalten
Track  6  nicht in Datenbank enthalten
Track  7  nicht in Datenbank enthalten
Track  8  nicht in Datenbank enthalten
Track  9  nicht in Datenbank enthalten
Track 10  nicht in Datenbank enthalten
Track 11  nicht in Datenbank enthalten
Track 12  nicht in Datenbank enthalten
Track 13  nicht in Datenbank enthalten
Track 14  nicht in Datenbank enthalten
Track 15  nicht in Datenbank enthalten
Track 16  nicht in Datenbank enthalten
Keiner der Tracks ist in der AccurateRip Datenbank vorhanden
Ende des Statusreports

_________________
Разница между теорией и практикой в том, что теоретически разницы между теорией и практикой нет, а на практике она есть.
[Профиль] [ЛС]

Офлайн

sergej644

Стаж:
5 лет
Сообщений:
756

Индексная карта (non-compilant .cue)

CD I - По острым иглам яркого огня

Код:
REM GENRE Pop
REM DATE 1998
REM DISCID FB10F312
REM COMMENT "ExactAudioCopy v0.99pb3"
PERFORMER "Alla Pugacheva"
TITLE "Po Ostrim Iglam Yarkogo Ognya"
FILE "Alla Pugacheva - Po Ostrim Iglam Yarkogo Ognya.wav" WAVE
  TRACK 01 AUDIO
    TITLE "Arlekino"
    PERFORMER "Alla Pugacheva"
    INDEX 01 00:00:00
  TRACK 02 AUDIO
    TITLE "Vse Mogut Koroli"
    PERFORMER "Alla Pugacheva"
    INDEX 00 04:29:60
    INDEX 01 04:32:67
  TRACK 03 AUDIO
    TITLE "Pesenka Pro Menya"
    PERFORMER "Alla Pugacheva"
    INDEX 00 07:34:52
    INDEX 01 07:38:15
  TRACK 04 AUDIO
    TITLE "Posidim Pookayem"
    PERFORMER "Alla Pugacheva"
    INDEX 00 11:11:42
    INDEX 01 11:15:25
  TRACK 05 AUDIO
    TITLE "Zvezdnoye Leto"
    PERFORMER "Alla Pugacheva"
    INDEX 00 14:40:15
    INDEX 01 14:43:55
  TRACK 06 AUDIO
    TITLE "Pesenka Pervoklasnika"
    PERFORMER "Alla Pugacheva"
    INDEX 00 19:24:02
    INDEX 01 19:28:02
  TRACK 07 AUDIO
    TITLE "Volsebnik-Nedouchka"
    PERFORMER "Alla Pugacheva"
    INDEX 00 21:57:57
    INDEX 01 22:01:00
  TRACK 08 AUDIO
    TITLE "Aisberg"
    PERFORMER "Alla Pugacheva"
    INDEX 00 25:20:10
    INDEX 01 25:23:12
  TRACK 09 AUDIO
    TITLE "Paromschik"
    PERFORMER "Alla Pugacheva"
    INDEX 00 29:49:60
    INDEX 01 29:52:70
  TRACK 10 AUDIO
    TITLE "Maestro"
    PERFORMER "Alla Pugacheva"
    INDEX 00 33:27:60
    INDEX 01 33:31:45
  TRACK 11 AUDIO
    TITLE "Starinniye Chasi"
    PERFORMER "Alla Pugacheva"
    INDEX 00 39:08:45
    INDEX 01 39:13:02
  TRACK 12 AUDIO
    TITLE "Bez Menya"
    PERFORMER "Alla Pugacheva"
    INDEX 00 43:50:17
    INDEX 01 43:53:45
  TRACK 13 AUDIO
    TITLE "Million Alih Roz"
    PERFORMER "Alla Pugacheva"
    INDEX 00 48:27:15
    INDEX 01 48:30:37
  TRACK 14 AUDIO
    TITLE "Delu Vremya"
    PERFORMER "Alla Pugacheva"
    INDEX 00 54:20:67
    INDEX 01 54:24:17
  TRACK 15 AUDIO
    TITLE "Ne Otrekayutsya Lyubya"
    PERFORMER "Alla Pugacheva"
    INDEX 00 57:47:45
    INDEX 01 57:50:70
  TRACK 16 AUDIO
    TITLE "Zhenschina Kotoraya Poyot"
    PERFORMER "Alla Pugacheva"
    INDEX 00 61:59:12
    INDEX 01 62:02:40
  TRACK 17 AUDIO
    TITLE "Leningrad"
    PERFORMER "Alla Pugacheva"
    INDEX 00 66:15:37
    INDEX 01 66:18:50
  TRACK 18 AUDIO
    TITLE "Muzikant"
    PERFORMER "Alla Pugacheva"
    INDEX 00 69:25:47
    INDEX 01 69:29:07

CD II - Ах,как хочется жить!

Код:
REM GENRE Pop
REM DATE 1996
REM DISCID 0A0FD412
REM COMMENT "ExactAudioCopy v0.99pb3"
PERFORMER "Alla Pugacheva"
TITLE "KOLLEKZIA (02) - Ah, kak hochetsa zhit !"
FILE "Alla Pugacheva - KOLLEKZIA (02) - Ah, kak hochetsa zhit !.wav" WAVE
  TRACK 01 AUDIO
    TITLE "Ochen horosho"
    PERFORMER "Alla Pugacheva"
    INDEX 01 00:00:00
  TRACK 02 AUDIO
    TITLE "Ti vozmi mena s soboi"
    PERFORMER "Alla Pugacheva"
    INDEX 00 03:20:57
    INDEX 01 03:23:60
  TRACK 03 AUDIO
    TITLE "Etot mir"
    PERFORMER "Alla Pugacheva"
    INDEX 00 06:11:57
    INDEX 01 06:14:52
  TRACK 04 AUDIO
    TITLE "Esli dolgo muchatsa"
    PERFORMER "Alla Pugacheva"
    INDEX 00 09:18:12
    INDEX 01 09:20:42
  TRACK 05 AUDIO
    TITLE "Yasnie,svetlie glaza"
    PERFORMER "Alla Pugacheva"
    INDEX 00 12:04:22
    INDEX 01 12:07:22
  TRACK 06 AUDIO
    TITLE "Okraina"
    PERFORMER "Alla Pugacheva"
    INDEX 00 15:55:55
    INDEX 01 15:57:40
  TRACK 07 AUDIO
    TITLE "Vozvrashenie"
    PERFORMER "Alla Pugacheva"
    INDEX 00 20:47:02
    INDEX 01 20:49:47
  TRACK 08 AUDIO
    TITLE "Tri zhelania"
    PERFORMER "Alla Pugacheva"
    INDEX 00 24:48:65
    INDEX 01 24:51:17
  TRACK 09 AUDIO
    TITLE "Podnimis nad suetoi"
    PERFORMER "Alla Pugacheva"
    INDEX 00 27:40:30
    INDEX 01 27:42:40
  TRACK 10 AUDIO
    TITLE "Pozdno"
    PERFORMER "Alla Pugacheva"
    INDEX 00 32:00:10
    INDEX 01 32:02:00
  TRACK 11 AUDIO
    TITLE "Vot tak sluchilos,mama"
    PERFORMER "Alla Pugacheva"
    INDEX 00 35:29:27
    INDEX 01 35:32:17
  TRACK 12 AUDIO
    TITLE "Papa kupil avtomobil"
    PERFORMER "Alla Pugacheva"
    INDEX 00 39:12:15
    INDEX 01 39:14:65
  TRACK 13 AUDIO
    TITLE "Ah,kak hochetsa zhit!"
    PERFORMER "Alla Pugacheva"
    INDEX 00 41:45:17
    INDEX 01 41:47:57
  TRACK 14 AUDIO
    TITLE "Kuda uhodit detstvo"
    PERFORMER "Alla Pugacheva"
    INDEX 00 45:18:12
    INDEX 01 45:20:34
  TRACK 15 AUDIO
    TITLE "Zhdi i pomni mena"
    PERFORMER "Alla Pugacheva"
    INDEX 00 50:10:20
    INDEX 01 50:12:32
  TRACK 16 AUDIO
    TITLE "Nostalgia v Rime"
    PERFORMER "Alla Pugacheva"
    INDEX 00 54:44:17
    INDEX 01 54:46:00
  TRACK 17 AUDIO
    TITLE "Eti letnie dozhdi"
    PERFORMER "Alla Pugacheva"
    INDEX 00 58:08:15
    INDEX 01 58:10:02
  TRACK 18 AUDIO
    TITLE "Kogda ya uidu"
    PERFORMER "Alla Pugacheva"
    INDEX 00 62:52:25
    INDEX 01 62:56:17

CD III - И в этом вся моя печаль

Код:
REM GENRE Pop
REM DATE 1996
REM DISCID E911350F
REM COMMENT "ExactAudioCopy v0.99pb3"
PERFORMER "Alla Pugacheva"
TITLE "KOLLEKZIA (03) - I v etom vsya moya pechal"
FILE "Alla Pugacheva - KOLLEKZIA (03) - I v etom vsya moya pechal.wav" WAVE
  TRACK 01 AUDIO
    TITLE "Ustalost"
    PERFORMER "Alla Pugacheva"
    INDEX 01 00:00:00
  TRACK 02 AUDIO
    TITLE "Dezhurny angel"
    PERFORMER "Alla Pugacheva"
    INDEX 00 04:29:50
    INDEX 01 04:32:00
  TRACK 03 AUDIO
    TITLE "Lestniza"
    PERFORMER "Alla Pugacheva"
    INDEX 00 09:03:25
    INDEX 01 09:05:50
  TRACK 04 AUDIO
    TITLE "Ya bolshe ne revnuyu"
    PERFORMER "Alla Pugacheva"
    INDEX 00 12:56:12
    INDEX 01 12:59:00
  TRACK 05 AUDIO
    TITLE "Kak trevozhen etot put"
    PERFORMER "Alla Pugacheva"
    INDEX 00 18:12:37
    INDEX 01 18:16:12
  TRACK 06 AUDIO
    TITLE "Ludi,Ludi"
    PERFORMER "Alla Pugacheva"
    INDEX 00 23:09:62
    INDEX 01 23:12:12
  TRACK 07 AUDIO
    TITLE "Sonet Shekspira"
    PERFORMER "Alla Pugacheva"
    INDEX 00 27:45:00
    INDEX 01 27:47:50
  TRACK 08 AUDIO
    TITLE "Prieszhai"
    PERFORMER "Alla Pugacheva"
    INDEX 00 31:08:00
    INDEX 01 31:10:50
  TRACK 09 AUDIO
    TITLE "Prosti,pover"
    PERFORMER "Alla Pugacheva"
    INDEX 00 36:52:00
    INDEX 01 36:54:25
  TRACK 10 AUDIO
    TITLE "Godi moi"
    PERFORMER "Alla Pugacheva"
    INDEX 00 40:44:37
    INDEX 01 40:47:00
  TRACK 11 AUDIO
    TITLE "Osen"
    PERFORMER "Alla Pugacheva"
    INDEX 00 46:05:25
    INDEX 01 46:08:25
  TRACK 12 AUDIO
    TITLE "Derzhi mena,solominka"
    PERFORMER "Alla Pugacheva"
    INDEX 00 52:00:50
    INDEX 01 52:03:12
  TRACK 13 AUDIO
    TITLE "Beda"
    PERFORMER "Alla Pugacheva"
    INDEX 00 56:17:50
    INDEX 01 56:21:25
  TRACK 14 AUDIO
    TITLE "I v etom vsya moya vina"
    PERFORMER "Alla Pugacheva"
    INDEX 00 61:24:50
    INDEX 01 61:26:00
  TRACK 15 AUDIO
    TITLE "Skupimsa na lubov"
    PERFORMER "Alla Pugacheva"
    INDEX 00 67:02:25
    INDEX 01 67:04:37

CD IV - Только в кино

Код:
REM GENRE Pop
REM DATE 1996
REM DISCID 38113B13
REM COMMENT "ExactAudioCopy v0.99pb3"
PERFORMER "Alla Pugacheva"
TITLE "IV (tolko v kino)"
FILE "Alla Pugacheva - IV (tolko v kino).wav" WAVE
  TRACK 01 AUDIO
    TITLE "mne sud'ba takaja vypala"
    PERFORMER "Alla Pugacheva"
    INDEX 01 00:00:00
  TRACK 02 AUDIO
    TITLE "prishla i govorju"
    PERFORMER "Alla Pugacheva"
    INDEX 00 04:13:60
    INDEX 01 04:15:57
  TRACK 03 AUDIO
    TITLE "tol'ko v kino"
    PERFORMER "Alla Pugacheva"
    INDEX 00 08:30:00
    INDEX 01 08:31:65
  TRACK 04 AUDIO
    TITLE "kanatoxodka"
    PERFORMER "Alla Pugacheva"
    INDEX 00 12:14:72
    INDEX 01 12:17:12
  TRACK 05 AUDIO
    TITLE "svjataja lozh"
    PERFORMER "Alla Pugacheva"
    INDEX 00 16:32:55
    INDEX 01 16:35:00
  TRACK 06 AUDIO
    TITLE "terema"
    PERFORMER "Alla Pugacheva"
    INDEX 00 22:40:37
    INDEX 01 22:45:35
  TRACK 07 AUDIO
    TITLE "samolety uletajut"
    PERFORMER "Alla Pugacheva"
    INDEX 00 28:04:25
    INDEX 01 28:05:57
  TRACK 08 AUDIO
    TITLE "ivan ivanych"
    PERFORMER "Alla Pugacheva"
    INDEX 00 35:02:57
    INDEX 01 35:05:25
  TRACK 09 AUDIO
    TITLE "gonka"
    PERFORMER "Alla Pugacheva"
    INDEX 00 38:17:30
    INDEX 01 38:19:27
  TRACK 10 AUDIO
    TITLE "mne nravit'sja"
    PERFORMER "Alla Pugacheva"
    INDEX 00 44:38:02
    INDEX 01 44:40:10
  TRACK 11 AUDIO
    TITLE "po ulice moej"
    PERFORMER "Alla Pugacheva"
    INDEX 00 46:13:50
    INDEX 01 46:16:40
  TRACK 12 AUDIO
    TITLE "na tixoreckuju"
    PERFORMER "Alla Pugacheva"
    INDEX 00 49:04:37
    INDEX 01 49:05:70
  TRACK 13 AUDIO
    TITLE "u zerkala"
    PERFORMER "Alla Pugacheva"
    INDEX 00 50:56:00
    INDEX 01 50:59:00
  TRACK 14 AUDIO
    TITLE "pro estradu"
    PERFORMER "Alla Pugacheva"
    INDEX 00 52:34:50
    INDEX 01 52:36:57
  TRACK 15 AUDIO
    TITLE "o ljubvi ne govori"
    PERFORMER "Alla Pugacheva"
    INDEX 00 55:43:05
    INDEX 01 55:44:60
  TRACK 16 AUDIO
    TITLE "ty ne stal sud'boj"
    PERFORMER "Alla Pugacheva"
    INDEX 00 58:01:00
    INDEX 01 58:03:10
  TRACK 17 AUDIO
    TITLE "da"
    PERFORMER "Alla Pugacheva"
    INDEX 00 62:57:67
    INDEX 01 62:59:57
  TRACK 18 AUDIO
    TITLE "ljubov'ju za ljubov'"
    PERFORMER "Alla Pugacheva"
    INDEX 00 66:22:65
    INDEX 01 66:25:17
  TRACK 19 AUDIO
    TITLE "ne obeschaj"
    PERFORMER "Alla Pugacheva"
    INDEX 00 70:31:52
    INDEX 01 70:33:27

CD V - Это завтра а сегодня...

Код:
REM GENRE Rock
REM DATE 1988
REM DISCID D90EB010
REM COMMENT "ExactAudioCopy v0.99pb3"
PERFORMER "Alla Pugacheva"
TITLE "Eto Zavtra A Segodnya"
FILE "Alla Pugacheva - Eto Zavtra A Segodnya.wav" WAVE
  TRACK 01 AUDIO
    TITLE "Belaya Panama"
    PERFORMER "Alla Pugacheva"
    INDEX 01 00:00:00
  TRACK 02 AUDIO
    TITLE "Kafe Tantsuyushikh Ognei"
    PERFORMER "Alla Pugacheva"
    INDEX 00 05:44:47
    INDEX 01 05:47:25
  TRACK 03 AUDIO
    TITLE "Bros' Sigaretu"
    PERFORMER "Alla Pugacheva"
    INDEX 00 10:39:42
    INDEX 01 10:41:57
  TRACK 04 AUDIO
    TITLE "Naiti Menya"
    PERFORMER "Alla Pugacheva"
    INDEX 00 13:30:35
    INDEX 01 13:33:17
  TRACK 05 AUDIO
    TITLE "Ne Ostavlyai Menya Odnu"
    PERFORMER "Alla Pugacheva"
    INDEX 00 17:56:50
    INDEX 01 17:59:45
  TRACK 06 AUDIO
    TITLE "Esli Ya Delayu Tebe Khorosho"
    PERFORMER "Alla Pugacheva"
    INDEX 00 21:57:50
    INDEX 01 22:00:12
  TRACK 07 AUDIO
    TITLE "Ti Ne Muzhchina"
    PERFORMER "Alla Pugacheva"
    INDEX 00 25:43:72
    INDEX 01 25:46:07
  TRACK 08 AUDIO
    TITLE "Znak Zodiaka Tigr"
    PERFORMER "Alla Pugacheva"
    INDEX 00 29:14:45
    INDEX 01 29:17:10
  TRACK 09 AUDIO
    TITLE "Allo"
    PERFORMER "Alla Pugacheva"
    INDEX 00 32:37:47
    INDEX 01 32:41:05
  TRACK 10 AUDIO
    TITLE "Sto Druzej"
    PERFORMER "Alla Pugacheva"
    INDEX 00 36:59:67
    INDEX 01 37:02:12
  TRACK 11 AUDIO
    TITLE "Pervi Shag"
    PERFORMER "Alla Pugacheva"
    INDEX 00 40:37:05
    INDEX 01 40:39:45
  TRACK 12 AUDIO
    TITLE "Ya Tebya Potselovala"
    PERFORMER "Alla Pugacheva"
    INDEX 00 44:51:25
    INDEX 01 44:53:70
  TRACK 13 AUDIO
    TITLE "Mimokhodom"
    PERFORMER "Alla Pugacheva"
    INDEX 00 47:43:37
    INDEX 01 47:46:32
  TRACK 14 AUDIO
    TITLE "Nyam Nyam"
    PERFORMER "Alla Pugacheva"
    INDEX 00 51:56:70
    INDEX 01 51:59:62
  TRACK 15 AUDIO
    TITLE "Moya Sud'ba"
    PERFORMER "Alla Pugacheva"
    INDEX 00 55:06:47
    INDEX 01 55:09:22
  TRACK 16 AUDIO
    TITLE "Snezhni Mal'chik"
    PERFORMER "Alla Pugacheva"
    INDEX 00 58:39:37
    INDEX 01 58:41:07

CD VI - Билет на вчерашний спектакль

Код:
REM GENRE Pop
REM DATE 1996
REM DISCID B90DE80F
REM COMMENT "ExactAudioCopy v0.99pb3"
PERFORMER "Alla Pugacheva"
TITLE "KOLLEKZIA (06) - Bilet na vcherashni spektakl"
FILE "Alla Pugacheva - KOLLEKZIA (06) - Bilet na vcherashni spektakl.wav" WAVE
  TRACK 01 AUDIO
    TITLE "Dve zvezdi"
    PERFORMER "Alla Pugacheva"
    INDEX 01 00:00:00
  TRACK 02 AUDIO
    TITLE "Nado zhe"
    PERFORMER "Alla Pugacheva"
    INDEX 00 03:57:07
    INDEX 01 03:59:40
  TRACK 03 AUDIO
    TITLE "Ya priglashayu vas na prazdnik"
    PERFORMER "Alla Pugacheva"
    INDEX 00 07:48:42
    INDEX 01 07:51:42
  TRACK 04 AUDIO
    TITLE "Etot paren s gitaroi"
    PERFORMER "Alla Pugacheva"
    INDEX 00 10:56:65
    INDEX 01 10:59:12
  TRACK 05 AUDIO
    TITLE "Priznanie"
    PERFORMER "Alla Pugacheva"
    INDEX 00 15:08:30
    INDEX 01 15:10:62
  TRACK 06 AUDIO
    TITLE "Moya soperniza - gitara"
    PERFORMER "Alla Pugacheva"
    INDEX 00 19:11:60
    INDEX 01 19:15:12
  TRACK 07 AUDIO
    TITLE "S toboi i bez tebya"
    PERFORMER "Alla Pugacheva"
    INDEX 00 22:29:17
    INDEX 01 22:31:72
  TRACK 08 AUDIO
    TITLE "Ptiza pevchaya"
    PERFORMER "Alla Pugacheva"
    INDEX 00 25:48:67
    INDEX 01 25:51:52
  TRACK 09 AUDIO
    TITLE "Belie zveti"
    PERFORMER "Alla Pugacheva"
    INDEX 00 30:07:67
    INDEX 01 30:10:12
  TRACK 10 AUDIO
    TITLE "Sberegi tebya sudba"
    PERFORMER "Alla Pugacheva"
    INDEX 00 33:46:40
    INDEX 01 33:48:67
  TRACK 11 AUDIO
    TITLE "Ya zhdala vas tak dolgo"
    PERFORMER "Alla Pugacheva"
    INDEX 00 38:58:57
    INDEX 01 39:01:12
  TRACK 12 AUDIO
    TITLE "Kogda menya ti pozovesh"
    PERFORMER "Alla Pugacheva"
    INDEX 00 42:42:30
    INDEX 01 42:45:20
  TRACK 13 AUDIO
    TITLE "Ciao"
    PERFORMER "Alla Pugacheva"
    INDEX 00 48:02:55
    INDEX 01 48:06:52
  TRACK 14 AUDIO
    TITLE "Zhelayu schastia v lichnoi zhizni"
    PERFORMER "Alla Pugacheva"
    INDEX 00 51:17:15
    INDEX 01 51:20:05
  TRACK 15 AUDIO
    TITLE "Blizkie ludi"
    PERFORMER "Alla Pugacheva"
    INDEX 00 55:16:57
    INDEX 01 55:19:47

CD VII - Встречи в пути | 01:11:42

Код:
REM GENRE Rock
REM DATE 1996
REM DISCID D910CE10
REM COMMENT "ExactAudioCopy v0.99pb3"
PERFORMER "Alla Pugatchova"
TITLE "13 CD Box CD 07 - Vstrechi V Pouti"
FILE "Alla Pugatchova - 13 CD Box CD 07 - Vstrechi V Pouti.wav" WAVE
  TRACK 01 AUDIO
    TITLE "Nezvanyi Gost'"
    PERFORMER "Alla Pugatchova"
    INDEX 01 00:00:00
  TRACK 02 AUDIO
    TITLE "Anna Karenina"
    PERFORMER "Alla Pugatchova"
    INDEX 00 04:34:45
    INDEX 01 04:38:15
  TRACK 03 AUDIO
    TITLE "Mezhdu Nebom i Zemlei"
    PERFORMER "Alla Pugatchova"
    INDEX 00 09:35:52
    INDEX 01 09:39:30
  TRACK 04 AUDIO
    TITLE "Christian"
    PERFORMER "Alla Pugatchova"
    INDEX 00 12:54:70
    INDEX 01 12:58:42
  TRACK 05 AUDIO
    TITLE "Bog S Toboi"
    PERFORMER "Alla Pugatchova"
    INDEX 00 16:50:15
    INDEX 01 16:53:65
  TRACK 06 AUDIO
    TITLE "Spasibo"
    PERFORMER "Alla Pugatchova"
    INDEX 00 21:20:12
    INDEX 01 21:23:52
  TRACK 07 AUDIO
    TITLE "Vstrecha v Pouti"
    PERFORMER "Alla Pugatchova"
    INDEX 00 25:55:52
    INDEX 01 25:58:70
  TRACK 08 AUDIO
    TITLE "Pridumai Chto-Nibud'"
    PERFORMER "Alla Pugatchova"
    INDEX 00 30:35:60
    INDEX 01 30:39:25
  TRACK 09 AUDIO
    TITLE "Molodoi Chelovek, Priglasite Tantsevat'"
    PERFORMER "Alla Pugatchova"
    INDEX 00 33:26:65
    INDEX 01 33:30:42
  TRACK 10 AUDIO
    TITLE "Photograph"
    PERFORMER "Alla Pugatchova"
    INDEX 00 38:12:34
    INDEX 01 38:16:07
  TRACK 11 AUDIO
    TITLE "Polnolounie"
    PERFORMER "Alla Pugatchova"
    INDEX 00 42:17:32
    INDEX 01 42:21:00
  TRACK 12 AUDIO
    TITLE "Sygraem v Loiubov'"
    PERFORMER "Alla Pugatchova"
    INDEX 00 46:47:05
    INDEX 01 46:51:50
  TRACK 13 AUDIO
    TITLE "Beglets"
    PERFORMER "Alla Pugatchova"
    INDEX 00 51:21:05
    INDEX 01 51:24:17
  TRACK 14 AUDIO
    TITLE "Ozero Nadezhdy"
    PERFORMER "Alla Pugatchova"
    INDEX 00 57:19:12
    INDEX 01 57:22:60
  TRACK 15 AUDIO
    TITLE "Golub' Sizokrylyi"
    PERFORMER "Alla Pugatchova"
    INDEX 00 62:01:35
    INDEX 01 62:05:20
  TRACK 16 AUDIO
    TITLE "Tri Schastlivykh Dnia"
    PERFORMER "Alla Pugatchova"
    INDEX 00 65:58:55
    INDEX 01 66:02:27

CD VIII - На дороге ожиданий

Код:
REM GENRE Pop
REM DATE 1996
REM DISCID F4106F10
REM COMMENT "ExactAudioCopy v0.99pb3"
PERFORMER "Alla Pugacheva"
TITLE "KOLLEKZIA (08) - Na doroge ozhidaniy"
FILE "Alla Pugacheva - KOLLEKZIA (08) - Na doroge ozhidaniy.wav" WAVE
  TRACK 01 AUDIO
    TITLE "Balet"
    PERFORMER "Alla Pugacheva"
    INDEX 01 00:00:00
  TRACK 02 AUDIO
    TITLE "Steklyannie zveti"
    PERFORMER "Alla Pugacheva"
    INDEX 00 04:24:42
    INDEX 01 04:27:25
  TRACK 03 AUDIO
    TITLE "Lubimchik Pashka"
    PERFORMER "Alla Pugacheva"
    INDEX 00 08:12:15
    INDEX 01 08:15:17
  TRACK 04 AUDIO
    TITLE "Balalaika"
    PERFORMER "Alla Pugacheva"
    INDEX 00 11:28:60
    INDEX 01 11:31:62
  TRACK 05 AUDIO
    TITLE "Karallovie busi"
    PERFORMER "Alla Pugacheva"
    INDEX 00 15:19:02
    INDEX 01 15:22:05
  TRACK 06 AUDIO
    TITLE "Bumazhni zmei"
    PERFORMER "Alla Pugacheva"
    INDEX 00 18:59:07
    INDEX 01 19:01:32
  TRACK 07 AUDIO
    TITLE "Telefonnaya knizhka"
    PERFORMER "Alla Pugacheva"
    INDEX 00 24:46:27
    INDEX 01 24:49:57
  TRACK 08 AUDIO
    TITLE "Primeta"
    PERFORMER "Alla Pugacheva"
    INDEX 00 29:43:07
    INDEX 01 29:46:47
  TRACK 09 AUDIO
    TITLE "Uletai,tucha"
    PERFORMER "Alla Pugacheva"
    INDEX 00 33:52:62
    INDEX 01 33:56:20
  TRACK 10 AUDIO
    TITLE "Ti na svete est"
    PERFORMER "Alla Pugacheva"
    INDEX 00 38:51:42
    INDEX 01 38:54:42
  TRACK 11 AUDIO
    TITLE "A znaesh,vse eshe budet"
    PERFORMER "Alla Pugacheva"
    INDEX 00 43:30:17
    INDEX 01 43:32:62
  TRACK 12 AUDIO
    TITLE "Otrazhenie v vode"
    PERFORMER "Alla Pugacheva"
    INDEX 00 46:46:30
    INDEX 01 46:49:22
  TRACK 13 AUDIO
    TITLE "Belaya dver"
    PERFORMER "Alla Pugacheva"
    INDEX 00 51:01:30
    INDEX 01 51:03:70
  TRACK 14 AUDIO
    TITLE "Sirena"
    PERFORMER "Alla Pugacheva"
    INDEX 00 55:46:65
    INDEX 01 55:49:52
  TRACK 15 AUDIO
    TITLE "Na doroge ozhidania"
    PERFORMER "Alla Pugacheva"
    INDEX 00 62:09:02
    INDEX 01 62:12:42
  TRACK 16 AUDIO
    TITLE "Vladivostok"
    PERFORMER "Alla Pugacheva"
    INDEX 00 66:33:30
    INDEX 01 66:36:17

CD IX - Размышления у камина

Код:
REM GENRE Pop
REM DATE 1996
REM DISCID B90E6C0D
REM COMMENT "ExactAudioCopy v0.99pb3"
PERFORMER "Alla Pugacheva"
TITLE "CD09 - Razmishlenia u kamina"
FILE "Alla Pugacheva - CD09 - Razmishlenia u kamina.wav" WAVE
  TRACK 01 AUDIO
    TITLE "Krisolov"
    PERFORMER "Alla Pugacheva"
    INDEX 01 00:00:00
  TRACK 02 AUDIO
    TITLE "Rasskazhite ptizi"
    PERFORMER "Alla Pugacheva"
    INDEX 00 03:29:32
    INDEX 01 03:32:37
  TRACK 03 AUDIO
    TITLE "Koroleva"
    PERFORMER "Alla Pugacheva"
    INDEX 00 09:48:07
    INDEX 01 09:51:37
  TRACK 04 AUDIO
    TITLE "Propadi ti propadom,miliy"
    PERFORMER "Alla Pugacheva"
    INDEX 00 14:50:45
    INDEX 01 14:54:10
  TRACK 05 AUDIO
    TITLE "Uvazhaemi avtor"
    PERFORMER "Alla Pugacheva"
    INDEX 00 18:39:52
    INDEX 01 18:41:57
  TRACK 06 AUDIO
    TITLE "Sto chasov schastia"
    PERFORMER "Alla Pugacheva"
    INDEX 00 22:19:00
    INDEX 01 22:21:42
  TRACK 07 AUDIO
    TITLE "Stariy drug"
    PERFORMER "Alla Pugacheva"
    INDEX 00 27:55:42
    INDEX 01 27:57:72
  TRACK 08 AUDIO
    TITLE "Svirel"
    PERFORMER "Alla Pugacheva"
    INDEX 00 33:08:60
    INDEX 01 33:13:35
  TRACK 09 AUDIO
    TITLE "Osenniy pozelui"
    PERFORMER "Alla Pugacheva"
    INDEX 00 37:08:25
    INDEX 01 37:10:42
  TRACK 10 AUDIO
    TITLE "Rekviem"
    PERFORMER "Alla Pugacheva"
    INDEX 00 42:07:27
    INDEX 01 42:10:37
  TRACK 11 AUDIO
    TITLE "Rozhdestvenskiy bal"
    PERFORMER "Alla Pugacheva"
    INDEX 00 46:36:30
    INDEX 01 46:38:37
  TRACK 12 AUDIO
    TITLE "Rossia"
    PERFORMER "Alla Pugacheva"
    INDEX 00 51:14:52
    INDEX 01 51:16:72
  TRACK 13 AUDIO
    TITLE "V rodnom krau"
    PERFORMER "Alla Pugacheva"
    INDEX 00 56:23:60
    INDEX 01 56:26:42

CD X - Это было однажды

Код:
REM GENRE Rock
REM DISCID B10D0F0D
REM COMMENT "ExactAudioCopy v0.99pb3"
PERFORMER "Alla Pugatchova"
TITLE "13 CD Box CD 10 - Eto Bylo Odnazhdy"
FILE "Alla Pugatchova - 13 CD Box CD 10 - Eto Bylo Odnazhdy.wav" WAVE
  TRACK 01 AUDIO
    TITLE "Chto Bylo Odnazhdy"
    PERFORMER "Alla Pugatchova"
    INDEX 01 00:00:00
  TRACK 02 AUDIO
    TITLE "Buben Shamana"
    PERFORMER "Alla Pugatchova"
    INDEX 00 03:36:64
    INDEX 01 03:39:65
  TRACK 03 AUDIO
    TITLE "Ne Zabyvai, Zemlia Gliadit Na Nas"
    PERFORMER "Alla Pugatchova"
    INDEX 00 10:37:70
    INDEX 01 10:41:10
  TRACK 04 AUDIO
    TITLE "Esli Zviozdy Molchat"
    PERFORMER "Alla Pugatchova"
    INDEX 00 14:14:57
    INDEX 01 14:17:37
  TRACK 05 AUDIO
    TITLE "My Ne Liubim Drug Druga"
    PERFORMER "Alla Pugatchova"
    INDEX 00 18:14:62
    INDEX 01 18:17:65
  TRACK 06 AUDIO
    TITLE "Lioubov' Odna Vinovata"
    PERFORMER "Alla Pugatchova"
    INDEX 00 21:51:02
    INDEX 01 21:54:02
  TRACK 07 AUDIO
    TITLE "Polno Vokrug Mudretsov"
    PERFORMER "Alla Pugatchova"
    INDEX 00 25:10:22
    INDEX 01 25:13:22
  TRACK 08 AUDIO
    TITLE "Drug Druga My Nashli"
    PERFORMER "Alla Pugatchova"
    INDEX 00 29:43:60
    INDEX 01 29:46:62
  TRACK 09 AUDIO
    TITLE "Veriu V Tebia"
    PERFORMER "Alla Pugatchova"
    INDEX 00 33:26:72
    INDEX 01 33:30:10
  TRACK 10 AUDIO
    TITLE "I Kto Vinovat"
    PERFORMER "Alla Pugatchova"
    INDEX 00 38:21:52
    INDEX 01 38:24:52
  TRACK 11 AUDIO
    TITLE "Naidi Sebe Druga"
    PERFORMER "Alla Pugatchova"
    INDEX 00 43:42:05
    INDEX 01 43:44:45
  TRACK 12 AUDIO
    TITLE "Do Svidania, Leto"
    PERFORMER "Alla Pugatchova"
    INDEX 00 46:18:30
    INDEX 01 46:21:15
  TRACK 13 AUDIO
    TITLE "Robinzon"
    PERFORMER "Alla Pugatchova"
    INDEX 00 50:54:45
    INDEX 01 50:57:35

CD XI - Барышня с крестьянской заставы

Код:
REM GENRE Rock
REM DISCID 8A10B918
REM COMMENT "ExactAudioCopy v0.99pb3"
PERFORMER "Alla Pugatchova"
TITLE "13 CD Box CD 11 - Barysnia S Krestianskoi Zastavy"
FILE "Alla Pugatchova - 13 CD Box CD 11 - Barysnia S Krestianskoi Zastavy.wav" WAVE
  TRACK 01 AUDIO
    TITLE "Robot"
    PERFORMER "Alla Pugatchova"
    INDEX 01 00:00:00
  TRACK 02 AUDIO
    TITLE "Ne Spor' So Mnoi"
    PERFORMER "Alla Pugatchova"
    INDEX 00 03:14:55
    INDEX 01 03:17:70
  TRACK 03 AUDIO
    TITLE "Kak By Mnie Vliubitsa"
    PERFORMER "Alla Pugatchova"
    INDEX 00 05:25:20
    INDEX 01 05:29:15
  TRACK 04 AUDIO
    TITLE "Drozdy"
    PERFORMER "Alla Pugatchova"
    INDEX 00 08:06:50
    INDEX 01 08:11:22
  TRACK 05 AUDIO
    TITLE "Po Griby"
    PERFORMER "Alla Pugatchova"
    INDEX 00 12:51:67
    INDEX 01 12:55:27
  TRACK 06 AUDIO
    TITLE "Idu Iz Kino"
    PERFORMER "Alla Pugatchova"
    INDEX 00 14:53:02
    INDEX 01 14:56:47
  TRACK 07 AUDIO
    TITLE "Belotchka"
    PERFORMER "Alla Pugatchova"
    INDEX 00 18:21:50
    INDEX 01 18:24:52
  TRACK 08 AUDIO
    TITLE "Vsio My Delim Popolam"
    PERFORMER "Alla Pugatchova"
    INDEX 00 20:34:42
    INDEX 01 20:39:65
  TRACK 09 AUDIO
    TITLE "Horoshii Ty Paren', Natashka"
    PERFORMER "Alla Pugatchova"
    INDEX 00 21:53:25
    INDEX 01 21:56:30
  TRACK 10 AUDIO
    TITLE "Chto Ne Smozhet Sdelat' Atom"
    PERFORMER "Alla Pugatchova"
    INDEX 00 24:46:50
    INDEX 01 24:50:07
  TRACK 11 AUDIO
    TITLE "Pochemu"
    PERFORMER "Alla Pugatchova"
    INDEX 00 27:52:05
    INDEX 01 27:55:70
  TRACK 12 AUDIO
    TITLE "Zachem"
    PERFORMER "Alla Pugatchova"
    INDEX 00 30:05:20
    INDEX 01 30:08:37
  TRACK 13 AUDIO
    TITLE "Takaia Korotkaia Dolgaia Zhizn'"
    PERFORMER "Alla Pugatchova"
    INDEX 00 32:59:70
    INDEX 01 33:03:02
  TRACK 14 AUDIO
    TITLE "Romans"
    PERFORMER "Alla Pugatchova"
    INDEX 00 35:58:42
    INDEX 01 36:01:34
  TRACK 15 AUDIO
    TITLE "Yekhal Rytsar' Moi"
    PERFORMER "Alla Pugatchova"
    INDEX 00 38:57:52
    INDEX 01 39:01:17
  TRACK 16 AUDIO
    TITLE "Pro Lubov'"
    PERFORMER "Alla Pugatchova"
    INDEX 00 43:01:12
    INDEX 01 43:04:17
  TRACK 17 AUDIO
    TITLE "22+28"
    PERFORMER "Alla Pugatchova"
    INDEX 00 45:35:05
    INDEX 01 45:37:60
  TRACK 18 AUDIO
    TITLE "Ei, Mushketiory"
    PERFORMER "Alla Pugatchova"
    INDEX 00 48:24:10
    INDEX 01 48:27:10
  TRACK 19 AUDIO
    TITLE "Posredi Zimy"
    PERFORMER "Alla Pugatchova"
    INDEX 00 50:52:02
    INDEX 01 50:55:42
  TRACK 20 AUDIO
    TITLE "Ty Snishsa Mnie"
    PERFORMER "Alla Pugatchova"
    INDEX 00 56:53:30
    INDEX 01 56:56:52
  TRACK 21 AUDIO
    TITLE "Vse Sily Dazhe Prilagaia"
    PERFORMER "Alla Pugatchova"
    INDEX 00 60:40:22
    INDEX 01 60:44:12
  TRACK 22 AUDIO
    TITLE "Soldashka"
    PERFORMER "Alla Pugatchova"
    INDEX 00 63:14:52
    INDEX 01 63:17:55
  TRACK 23 AUDIO
    TITLE "Kuda Uekhal Tzirk"
    PERFORMER "Alla Pugatchova"
    INDEX 00 66:32:32
    INDEX 01 66:35:32
  TRACK 24 AUDIO
    TITLE "Tchudaki"
    PERFORMER "Alla Pugatchova"
    INDEX 00 69:08:05
    INDEX 01 69:10:72

CD XII - Алла Пугачёва в Стокгольме | 00:51:26

Код:
REM GENRE Pop
REM DATE 1998
REM DISCID AF0C0E0C
REM COMMENT "ExactAudioCopy v0.99pb3"
PERFORMER "Alla Pugacheva"
TITLE "Alla Pugacheva in Stockholm "
FILE "Alla Pugacheva - Alla Pugacheva in Stockholm.wav" WAVE
  TRACK 01 AUDIO
    TITLE "Every Night And Every Day"
    PERFORMER "Alla Pugacheva"
    INDEX 01 00:00:00
  TRACK 02 AUDIO
    TITLE "Through The Eyes Of A Child"
    PERFORMER "Alla Pugacheva"
    INDEX 00 03:59:25
    INDEX 01 04:03:00
  TRACK 03 AUDIO
    TITLE "Love Can Hurt"
    PERFORMER "Alla Pugacheva"
    INDEX 00 08:33:00
    INDEX 01 08:36:25
  TRACK 04 AUDIO
    TITLE "Cool Operator"
    PERFORMER "Alla Pugacheva"
    INDEX 00 13:03:50
    INDEX 01 13:07:62
  TRACK 05 AUDIO
    TITLE "What Was I Looking For"
    PERFORMER "Alla Pugacheva"
    INDEX 00 16:43:00
    INDEX 01 16:47:00
  TRACK 06 AUDIO
    TITLE "Superman"
    PERFORMER "Alla Pugacheva"
    INDEX 00 21:36:12
    INDEX 01 21:39:37
  TRACK 07 AUDIO
    TITLE "Sacred Lie"
    PERFORMER "Alla Pugacheva"
    INDEX 00 25:54:00
    INDEX 01 25:57:25
  TRACK 08 AUDIO
    TITLE "Song-Bird"
    PERFORMER "Alla Pugacheva"
    INDEX 00 30:50:62
    INDEX 01 30:55:00
  TRACK 09 AUDIO
    TITLE "Lousy Party"
    PERFORMER "Alla Pugacheva"
    INDEX 00 35:03:25
    INDEX 01 35:06:50
  TRACK 10 AUDIO
    TITLE "Captain"
    PERFORMER "Alla Pugacheva"
    INDEX 00 38:52:62
    INDEX 01 38:57:00
  TRACK 11 AUDIO
    TITLE "Such A Miracle"
    PERFORMER "Alla Pugacheva"
    INDEX 00 42:39:50
    INDEX 01 42:43:12
  TRACK 12 AUDIO
    TITLE "Watch Out"
    PERFORMER "Alla Pugacheva"
    INDEX 00 46:27:62
    INDEX 01 46:32:50

CD XIII - Песни на бис

Код:
REM GENRE Rock
REM DISCID C4101410
REM COMMENT "ExactAudioCopy v0.99pb3"
PERFORMER "Alla Pugathova"
TITLE "13 CD Box CD 13 - Pesni Na Bis"
FILE "Alla Pugathova - 13 CD Box CD 13 - Pesni Na Bis.wav" WAVE
  TRACK 01 AUDIO
    TITLE "Tak Durno Zhit'"
    PERFORMER "Alla Pugathova"
    INDEX 01 00:00:00
  TRACK 02 AUDIO
    TITLE "Chto Vy, Plakat'? Nikogda!"
    PERFORMER "Alla Pugathova"
    INDEX 01 05:23:07
  TRACK 03 AUDIO
    TITLE "Vsio Horosho"
    PERFORMER "Alla Pugathova"
    INDEX 01 07:39:12
  TRACK 04 AUDIO
    TITLE "Kogda Ia Budu Babushkoi"
    PERFORMER "Alla Pugathova"
    INDEX 01 11:39:35
  TRACK 05 AUDIO
    TITLE "Uhodia - Uxodi"
    PERFORMER "Alla Pugathova"
    INDEX 01 15:09:40
  TRACK 06 AUDIO
    TITLE "Tziganskii Hor"
    PERFORMER "Alla Pugathova"
    INDEX 01 17:06:12
  TRACK 07 AUDIO
    TITLE "Staryi Dom"
    PERFORMER "Alla Pugathova"
    INDEX 01 19:55:32
  TRACK 08 AUDIO
    TITLE "Koshki"
    PERFORMER "Alla Pugathova"
    INDEX 01 24:05:22
  TRACK 09 AUDIO
    TITLE "XX Vek"
    PERFORMER "Alla Pugathova"
    INDEX 01 28:43:27
  TRACK 10 AUDIO
    TITLE "Tango"
    PERFORMER "Alla Pugathova"
    INDEX 01 36:53:70
  TRACK 11 AUDIO
    TITLE "Nichego Ia Ne Hotchu"
    PERFORMER "Alla Pugathova"
    INDEX 01 43:10:50
  TRACK 12 AUDIO
    TITLE "V Zemlianke"
    PERFORMER "Alla Pugathova"
    INDEX 01 46:51:40
  TRACK 13 AUDIO
    TITLE "Karavany Ptits"
    PERFORMER "Alla Pugathova"
    INDEX 01 51:00:02
  TRACK 14 AUDIO
    TITLE "Raduisia"
    PERFORMER "Alla Pugathova"
    INDEX 01 54:22:40
  TRACK 15 AUDIO
    TITLE "Pesnia Na Bis"
    PERFORMER "Alla Pugathova"
    INDEX 01 58:55:05
  TRACK 16 AUDIO
    TITLE "Zakliuchitel'naia Pesenka"
    PERFORMER "Alla Pugathova"
    INDEX 01 67:18:50

_________________
Разница между теорией и практикой в том, что теоретически разницы между теорией и практикой нет, а на практике она есть.
[Профиль] [ЛС]

Онлайн

andrew6572

Стаж:
5 лет 3 месяца
Сообщений:
5634

sergej644, Ни разу во "флэке" не слушал А.Пугачеву. Даже не представляю, как она звучит. Слышал, что она когда-то простудилась, и после этого, сама признавалась, "больше уже не пела". Не то уже. Но, альбомы "росли", концерты умножались. Получилась очень неслабая коллекция!
Спасибо за релиз!

_________________
"Любая война – всего лишь трусливое бегство от проблем мирного времени." Томас Манн.
[Профиль] [ЛС]
Показать сообщения:    

Текущее время: Сегодня 22:14

Часовой пояс: GMT + 3



Вы не можете начинать темы
Вы не можете отвечать на сообщения
Вы не можете редактировать свои сообщения
Вы не можете удалять свои сообщения
Вы не можете голосовать в опросах
Вы не можете прикреплять файлы к сообщениям
Вы не можете скачивать файлы