(Melodic Heavy Metal) Axel Rudi Pell - The Ballads V - 2017 [FLAC, image +.cue, lossless] :: Bit-Torrent Трекер Emtrek.org
 
Золотые дни идет свободное скачивание без начисления Download
 

Офлайн

sergej644

Стаж:
5 лет 7 месяцев
Сообщений:
868

-Axel Rudi Pell - The Ballads V--
Год издания: 2017
Страна: Germany
Жанр: Melodic Heavy Metal
Продолжительность: 01:13:19-Лейбл издания: SteamHammer/SPV
Страна-выпуска диска: Germany
Номер по каталогу: SPV 279452 CD-Формат: FLAC
Битрейт аудио: Lossless
Тип рипа: image +.cue
Наличие сканов в содержимом раздачи: да
-

Трэклист


01. Love's Holding On (feat. Bonnie Tyler) (5:07)
02. I See Fire (Ed Sheeran cover) (6:03)
03. On the Edge of Our Time (7:43)
04. Hey Hey My My (Neil Young cover) (5:04)
05. Lived Our Lives Before (6:32)
06. When Truth Hurts (6:48)
07. Forever Free (8:28)
08. Lost in Love (6:06)
09. The Line (Live) (7:32)
10. Mistreated (Deep Purple cover)(Live) (13:56)
-

Лог создания рипа

Код:
Exact Audio Copy V1.1 from 23. June 2015
EAC extraction logfile from 27. April 2017, 8:49
Axel Rudi Pell / The Ballads V
Used drive  : PIONEER BD-RW   BDR-209D   Adapter: 0  ID: 5
Read mode               : Secure
Utilize accurate stream : Yes
Defeat audio cache      : Yes
Make use of C2 pointers : No
Read offset correction                      : 667
Overread into Lead-In and Lead-Out          : No
Fill up missing offset samples with silence : Yes
Delete leading and trailing silent blocks   : No
Null samples used in CRC calculations       : Yes
Used interface                              : Installed external ASPI interface
Used output format              : User Defined Encoder
Selected bitrate                : 768 kBit/s
Quality                         : High
Add ID3 tag                     : No
Command line compressor         : C:\Program Files (x86)\Exact Audio Copy\FLAC\FLAC.EXE
Additional command line options : -6 -V -T "ARTIST=%artist%" -T "TITLE=%title%" -T "ALBUM=%albumtitle%" -T "DATE=%year%" -T "TRACKNUMBER=%tracknr%" -T "GENRE=%genre%" -T "COMMENT=%comment%" -T "BAND=%albuminterpret%" -T "ALBUMARTIST=%albuminterpret%" -T "COMPOSER=%composer%" %haslyrics%--tag-from-file=LYRICS="%lyricsfile%"%haslyrics% -T "DISCNUMBER=%cdnumber%" -T "TOTALDISCS=%totalcds%" -T "TOTALTRACKS=%numtracks%" %hascover%--picture="%coverfile%"%hascover% %source% -o %dest%
TOC of the extracted CD
     Track |   Start  |  Length  | Start sector | End sector
    ---------------------------------------------------------
        1  |  0:00.00 |  5:06.52 |         0    |    23001
        2  |  5:06.52 |  6:02.40 |     23002    |    50191
        3  | 11:09.17 |  7:43.18 |     50192    |    84934
        4  | 18:52.35 |  5:03.55 |     84935    |   107714
        5  | 23:56.15 |  6:31.43 |    107715    |   137082
        6  | 30:27.58 |  6:47.63 |    137083    |   167670
        7  | 37:15.46 |  8:28.32 |    167671    |   205802
        8  | 45:44.03 |  6:06.20 |    205803    |   233272
        9  | 51:50.23 |  7:32.36 |    233273    |   267208
       10  | 59:22.59 | 13:55.68 |    267209    |   329901
Range status and errors
Selected range
     Filename E:\MUSIC\Axel Rudi Pell - The Ballads V.wav
     Peak level 98.8 %
     Extraction speed 8.2 X
     Range quality 99.9 %
     Test CRC 27B4693D
     Copy CRC 27B4693D
     Copy OK
No errors occurred
AccurateRip summary
Track  1  not present in database
Track  2  not present in database
Track  3  not present in database
Track  4  not present in database
Track  5  not present in database
Track  6  not present in database
Track  7  not present in database
Track  8  not present in database
Track  9  not present in database
Track 10  not present in database
None of the tracks are present in the AccurateRip database
End of status report

Индексная карта (non-compilant .cue)

Код:
REM GENRE "Heavy/Power Metal"
REM DATE 2017
REM DISCID 82112E0A
REM COMMENT "ExactAudioCopy v1.1"
PERFORMER "Axel Rudi Pell"
TITLE "The Ballads V"
FILE "Axel Rudi Pell - The Ballads V.flac" WAVE
  TRACK 01 AUDIO
    TITLE "Love's Holding On (feat. Bonnie Tyler)"
    PERFORMER "Axel Rudi Pell"
    INDEX 01 00:00:00
  TRACK 02 AUDIO
    TITLE "I See Fire (Ed Sheeran cover)"
    PERFORMER "Axel Rudi Pell"
    INDEX 00 05:06:14
    INDEX 01 05:06:52
  TRACK 03 AUDIO
    TITLE "On the Edge of Our Time"
    PERFORMER "Axel Rudi Pell"
    INDEX 00 11:08:27
    INDEX 01 11:09:17
  TRACK 04 AUDIO
    TITLE "Hey Hey My My (Neil Young cover)"
    PERFORMER "Axel Rudi Pell"
    INDEX 00 18:50:51
    INDEX 01 18:52:35
  TRACK 05 AUDIO
    TITLE "Lived Our Lives Before"
    PERFORMER "Axel Rudi Pell"
    INDEX 00 23:55:26
    INDEX 01 23:56:15
  TRACK 06 AUDIO
    TITLE "When Truth Hurts"
    PERFORMER "Axel Rudi Pell"
    INDEX 00 30:26:58
    INDEX 01 30:27:58
  TRACK 07 AUDIO
    TITLE "Forever Free"
    PERFORMER "Axel Rudi Pell"
    INDEX 00 37:13:62
    INDEX 01 37:15:46
  TRACK 08 AUDIO
    TITLE "Lost in Love"
    PERFORMER "Axel Rudi Pell"
    INDEX 00 45:42:19
    INDEX 01 45:44:03
  TRACK 09 AUDIO
    TITLE "The Line (Live)"
    PERFORMER "Axel Rudi Pell"
    INDEX 00 51:48:69
    INDEX 01 51:50:23
  TRACK 10 AUDIO
    TITLE "Mistreated (Deep Purple cover)(Live)"
    PERFORMER "Axel Rudi Pell"
    INDEX 00 59:21:52
    INDEX 01 59:22:59
--

_________________
Разница между теорией и практикой в том, что теоретически разницы между теорией и практикой нет, а на практике она есть.
[Профиль] [ЛС]
Показать сообщения:    

Текущее время: Сегодня 07:40

Часовой пояс: GMT + 3



Вы не можете начинать темы
Вы не можете отвечать на сообщения
Вы не можете редактировать свои сообщения
Вы не можете удалять свои сообщения
Вы не можете голосовать в опросах
Вы не можете прикреплять файлы к сообщениям
Вы не можете скачивать файлы