Золотые дни идет свободное скачивание без начисления Download
 

Офлайн

sergej644

Стаж:
5 лет 11 месяцев
Сообщений:
892

-Rainbow - Ballads & Instrumentals--
Год / Год издания: 1995 / (Remaster 2012)
Страна: Hertford, Hertfordshire, England
Жанр: Classic Rock, Hard Rock
Продолжительность: 01:10:30-Страна-выпуска диска: Japan
Номер по каталогу: UІСY-93642-Формат: FLAC
Битрейт аудио: Lossless
Тип рипа: image +.cue
Наличие сканов в содержимом раздачи: да
-

Трэклист


Part One Ballads:
01. Temple Of The King (4:47)
02. Catch The Rainbow (6:35)
03. Self Portrait (3:15)
04. Rainbow Eyes (7:04)
05. Love's No Friend (4:56)
06. Midnight Tunnel Vision (4:36)
07. Stone Cold (5:22)
08. Tearin' Out My Heart (4:08)
09. Desperate Heart (4:07)
Part Two Instrumentals:
10. Still I'm Sad (3:56)
11. Maybe Next Time (3:22)
12. Difficult To Cure (5:56)
13. Showman (4:37)
14. Anybody There (2:44)
15. Weiss Heim (5:05)
-

Лог создания рипа

Код:
Exact Audio Copy V0.99 prebeta 5 from 4. May 2009
Отчёт EAC об извлечении, выполненном 20. февраля 2012, 20:48
Rainbow / Ballads & Instrumentals
Дисковод: SONY    DVD-ROM DDU1613   Adapter: 1  ID: 0
Режим чтения                 : Достоверность
Использование точного потока : Да
Отключение кэша аудио        : Да
Использование указателей C2  : Нет
Коррекция смещения при чтении                     : 12
Способность читать области Lead-in и Lead-out     : Нет
Заполнение пропущенных сэмплов тишиной            : Да
Удаление блоков с тишиной в начале и конце        : Нет
При вычислениях CRC использовались нулевые сэмплы : Да
Интерфейс                                         : Установленный внешний ASPI-интерфейс
Выходной формат : Внутренние WAV-операции
Формат сэмплов  : 44.100 Гц; 16 бит; стерео
TOC извлечённого CD
     Трек |   Старт  | Длительность | Начальный сектор | Конечный сектор
    ---------------------------------------------------------------------
       1  |  0:00.00 |    4:47.00   |           0      |      21524
       2  |  4:47.00 |    6:34.50   |       21525      |      51124
       3  | 11:21.50 |    3:14.45   |       51125      |      65719
       4  | 14:36.20 |    7:04.27   |       65720      |      97546
       5  | 21:40.47 |    4:55.53   |       97547      |     119724
       6  | 26:36.25 |    4:36.27   |      119725      |     140451
       7  | 31:12.52 |    5:21.60   |      140452      |     164586
       8  | 36:34.37 |    4:08.23   |      164587      |     183209
       9  | 40:42.60 |    4:07.32   |      183210      |     201766
      10  | 44:50.17 |    3:56.20   |      201767      |     219486
      11  | 48:46.37 |    3:21.38   |      219487      |     234599
      12  | 52:08.00 |    5:56.12   |      234600      |     261311
      13  | 58:04.12 |    4:37.08   |      261312      |     282094
      14  | 62:41.20 |    2:43.40   |      282095      |     294359
      15  | 65:24.60 |    5:05.15   |      294360      |     317249
Характеристики диапазона извлечения и сообщения об ошибках
Выбранный диапазон
     Имя файла C:\Documents and Settings\Admin\Рабочий стол\Новая папка (2)\Rainbow - Ballads & Instrumentals.wav
     Пиковый уровень 93.5 %
     Качество диапазона 99.9 %
     CRC теста 390F85A1
     CRC копии 390F85A1
     Копирование... OK
Ошибок не произошло
AccurateRip: сводка
Трек  1  нет в базе данных
Трек  2  нет в базе данных
Трек  3  нет в базе данных
Трек  4  нет в базе данных
Трек  5  нет в базе данных
Трек  6  нет в базе данных
Трек  7  нет в базе данных
Трек  8  нет в базе данных
Трек  9  нет в базе данных
Трек 10  нет в базе данных
Трек 11  нет в базе данных
Трек 12  нет в базе данных
Трек 13  нет в базе данных
Трек 14  нет в базе данных
Трек 15  нет в базе данных
Ни одного трека нет в базе AccurateRip
Конец отчёта

Индексная карта (non-compilant .cue)

Код:
REM GENRE Rock
REM DATE 2012
REM DISCID F910860F
REM COMMENT "ExactAudioCopy v0.99pb5"
PERFORMER "Rainbow"
TITLE "Ballads & Instrumentals"
FILE "Rainbow - Ballads & Instrumentals.wav" WAVE
  TRACK 01 AUDIO
    TITLE "Temple Of The King"
    PERFORMER "Rainbow"
    INDEX 01 00:00:00
  TRACK 02 AUDIO
    TITLE "Catch The Rainbow"
    PERFORMER "Rainbow"
    INDEX 00 04:42:37
    INDEX 01 04:47:00
  TRACK 03 AUDIO
    TITLE "Self Portrait"
    PERFORMER "Rainbow"
    INDEX 00 11:17:17
    INDEX 01 11:21:50
  TRACK 04 AUDIO
    TITLE "Rainbow Eyes"
    PERFORMER "Rainbow"
    INDEX 00 14:33:12
    INDEX 01 14:36:20
  TRACK 05 AUDIO
    TITLE "Love's No Friend"
    PERFORMER "Rainbow"
    INDEX 00 21:39:37
    INDEX 01 21:40:47
  TRACK 06 AUDIO
    TITLE "Midnight Tunnel Vision"
    PERFORMER "Rainbow"
    INDEX 00 26:32:00
    INDEX 01 26:36:25
  TRACK 07 AUDIO
    TITLE "Stone Cold"
    PERFORMER "Rainbow"
    INDEX 00 31:08:30
    INDEX 01 31:12:52
  TRACK 08 AUDIO
    TITLE "Tearin' Out My Heart"
    PERFORMER "Rainbow"
    INDEX 00 36:30:47
    INDEX 01 36:34:37
  TRACK 09 AUDIO
    TITLE "Desperate Heart"
    PERFORMER "Rainbow"
    INDEX 00 40:39:05
    INDEX 01 40:42:60
  TRACK 10 AUDIO
    TITLE "Still I'm Sad"
    PERFORMER "Rainbow"
    INDEX 00 44:46:00
    INDEX 01 44:50:17
  TRACK 11 AUDIO
    TITLE "Maybe Next Time"
    PERFORMER "Rainbow"
    INDEX 00 48:42:25
    INDEX 01 48:46:37
  TRACK 12 AUDIO
    TITLE "Difficult To Cure"
    PERFORMER "Rainbow"
    INDEX 00 52:03:70
    INDEX 01 52:08:00
  TRACK 13 AUDIO
    TITLE "Showman"
    PERFORMER "Rainbow"
    INDEX 00 57:59:00
    INDEX 01 58:04:12
  TRACK 14 AUDIO
    TITLE "Anybody There"
    PERFORMER "Rainbow"
    INDEX 00 62:36:37
    INDEX 01 62:41:20
  TRACK 15 AUDIO
    TITLE "Weiss Heim"
    PERFORMER "Rainbow"
    INDEX 00 65:19:50
    INDEX 01 65:24:60
--

_________________
Разница между теорией и практикой в том, что теоретически разницы между теорией и практикой нет, а на практике она есть.
[Профиль] [ЛС]
Показать сообщения:    

Текущее время: Сегодня 11:52

Часовой пояс: GMT + 3



Вы не можете начинать темы
Вы не можете отвечать на сообщения
Вы не можете редактировать свои сообщения
Вы не можете удалять свои сообщения
Вы не можете голосовать в опросах
Вы не можете прикреплять файлы к сообщениям
Вы не можете скачивать файлы