Золотые дни идет свободное скачивание без начисления Download
 

Офлайн

sergej644

Стаж:
5 лет 5 месяцев
Сообщений:
853

-Kissworld: The Best of Kiss (Compilation)--
Год издания: 2017
Страна: USA
Жанр: Hard Rock, Classic Rock, Glam Rock
Продолжительность: 01:12:35-Лейбл издания: Mercury
Страна-выпуска диска: USA
Номер по каталогу: 5377918-Формат: FLAC
Битрейт аудио: Lossless
Тип рипа: image +.cue
Наличие сканов в содержимом раздачи: да
--Новейшая компиляция американской рок-группы KISS, вышедшая 2 июня 2017 года на Mercury Records UK. KISS — американская рок-группа, основанная в Нью-Йорке в январе 1973 года, играющая в жанрах глэм-рок, шок-рок и хард-рок и известная сценическими макияжами её участников, а также концертными шоу, сопровождающимися различными пиротехническими эффектами. По состоянию на 2016 год имеют более сорока пяти золотых и платиновых альбомов и более 100 миллионов проданных записей.-

Трэклист


01. Crazy Crazy Nights (3:45)
02. Rock And Roll All Nite (2:47)
03. I Was Made For Lovin' You (4:01)
04. God Gave Rock 'N' Roll To You II (5:20)
05. Detroit Rock City (5:18)
06. Beth (2:45)
07. Lick It Up (3:57)
08. Heaven's On Fire (3:21)
09. Tears Are Falling (3:56)
10. Unholy (3:42)
11. Hard Luck Woman (3:34)
12. Psycho Circus (4:51)
13. Shout It Out Loud (2:49)
14. Calling Dr. Love (3:40)
15. Christine Sixteen (3:13)
16. Love Gun (3:17)
17. Shandi (3:36)
18. I'm A Legend Tonight (4:00)
19. Modern Day Delilah (3:36)
20. Hell Or Hallelujah (4:08)
-

Лог создания рипа

Код:
Exact Audio Copy V1.3 from 2. September 2016
EAC extraction logfile from 31. December 2017, 12:12
Kiss / Kissworld - The Best Of Kiss
Used drive  : TSSTcorpCDDVDW SH-224GB   Adapter: 1  ID: 0
Read mode               : Secure
Utilize accurate stream : Yes
Defeat audio cache      : Yes
Make use of C2 pointers : No
Read offset correction                      : 6
Overread into Lead-In and Lead-Out          : No
Fill up missing offset samples with silence : Yes
Delete leading and trailing silent blocks   : No
Null samples used in CRC calculations       : Yes
Used interface                              : Native Win32 interface for Win NT & 2000
Used output format              : User Defined Encoder
Selected bitrate                : 128 kBit/s
Quality                         : High
Add ID3 tag                     : No
Command line compressor         : C:\Program Files (x86)\Exact Audio Copy\FLAC\FLAC.EXE
Additional command line options : -V -8 -T "Date=%year%" -T "Genre=%genre%" %source%
TOC of the extracted CD
     Track |   Start  |  Length  | Start sector | End sector
    ---------------------------------------------------------
        1  |  0:00.00 |  3:45.07 |         0    |    16881
        2  |  3:45.07 |  2:46.42 |     16882    |    29373
        3  |  6:31.49 |  4:01.21 |     29374    |    47469
        4  | 10:32.70 |  5:20.21 |     47470    |    71490
        5  | 15:53.16 |  5:18.19 |     71491    |    95359
        6  | 21:11.35 |  2:45.01 |     95360    |   107735
        7  | 23:56.36 |  3:56.59 |    107736    |   125494
        8  | 27:53.20 |  3:21.00 |    125495    |   140569
        9  | 31:14.20 |  3:55.49 |    140570    |   158243
       10  | 35:09.69 |  3:41.52 |    158244    |   174870
       11  | 38:51.46 |  3:34.02 |    174871    |   190922
       12  | 42:25.48 |  4:50.61 |    190923    |   212733
       13  | 47:16.34 |  2:49.06 |    212734    |   225414
       14  | 50:05.40 |  3:40.01 |    225415    |   241915
       15  | 53:45.41 |  3:12.63 |    241916    |   256378
       16  | 56:58.29 |  3:16.45 |    256379    |   271123
       17  | 60:14.74 |  3:36.29 |    271124    |   287352
       18  | 63:51.28 |  4:00.25 |    287353    |   305377
       19  | 67:51.53 |  3:35.71 |    305378    |   321573
       20  | 71:27.49 |  4:07.38 |    321574    |   340136
Range status and errors
Selected range
     Filename F:\ЕАС\rwa12\Kiss - Kissworld - The Best Of Kiss.wav
     Peak level 98.8 %
     Extraction speed 7.9 X
     Range quality 100.0 %
     Test CRC 21072F8E
     Copy CRC 21072F8E
     Copy OK
No errors occurred
AccurateRip summary
Track  1  accurately ripped (confidence 4)  [3F64F605]  (AR v2)
Track  2  accurately ripped (confidence 4)  [ED8795A7]  (AR v2)
Track  3  accurately ripped (confidence 4)  [A7FA52D2]  (AR v2)
Track  4  accurately ripped (confidence 4)  [9E01A77F]  (AR v2)
Track  5  accurately ripped (confidence 4)  [C73806E4]  (AR v2)
Track  6  accurately ripped (confidence 4)  [20047A4F]  (AR v2)
Track  7  accurately ripped (confidence 4)  [96CAF903]  (AR v2)
Track  8  accurately ripped (confidence 4)  [B3AE02C0]  (AR v2)
Track  9  accurately ripped (confidence 4)  [8A60BDF5]  (AR v2)
Track 10  accurately ripped (confidence 4)  [289BC8A5]  (AR v2)
Track 11  accurately ripped (confidence 4)  [51220B2B]  (AR v2)
Track 12  accurately ripped (confidence 4)  [316E8C22]  (AR v2)
Track 13  accurately ripped (confidence 4)  [0BEB9FCE]  (AR v2)
Track 14  accurately ripped (confidence 4)  [58F7DE97]  (AR v2)
Track 15  accurately ripped (confidence 4)  [94065C9A]  (AR v2)
Track 16  accurately ripped (confidence 4)  [AF58EA4D]  (AR v2)
Track 17  accurately ripped (confidence 4)  [8DAC8829]  (AR v2)
Track 18  accurately ripped (confidence 4)  [D7B3168F]  (AR v2)
Track 19  accurately ripped (confidence 4)  [5AF5A09A]  (AR v2)
Track 20  accurately ripped (confidence 4)  [C5AD6594]  (AR v2)
All tracks accurately ripped
End of status report
---- CUETools DB Plugin V2.1.6
[CTDB TOCID: PtO2AudbuDOFZo.Qf7sLNBv1.p0-] found
Submit result: already submitted
Track | CTDB Status
  1   | (10/11) Accurately ripped
  2   | (11/11) Accurately ripped
  3   | (11/11) Accurately ripped
  4   | (11/11) Accurately ripped
  5   | (11/11) Accurately ripped
  6   | (11/11) Accurately ripped
  7   | (11/11) Accurately ripped
  8   | (11/11) Accurately ripped
  9   | (11/11) Accurately ripped
10   | (11/11) Accurately ripped
11   | (11/11) Accurately ripped
12   | (11/11) Accurately ripped
13   | (11/11) Accurately ripped
14   | (11/11) Accurately ripped
15   | (11/11) Accurately ripped
16   | (11/11) Accurately ripped
17   | (11/11) Accurately ripped
18   | (11/11) Accurately ripped
19   | (11/11) Accurately ripped
20   | (11/11) Accurately ripped

Индексная карта (non-compilant .cue)

Код:
REM GENRE "Hard Rock/Glam Rock"
REM DATE 2017
REM DISCID 2111B714
REM COMMENT "ExactAudioCopy v1.3"
PERFORMER "Kiss"
TITLE "Kissworld - The Best Of Kiss"
REM COMPOSER ""
FILE "Kiss - Kissworld - The Best Of Kiss.flac" WAVE
  TRACK 01 AUDIO
    TITLE "Crazy Crazy Nights"
    PERFORMER "Kiss"
    REM COMPOSER ""
    INDEX 01 00:00:00
  TRACK 02 AUDIO
    TITLE "Rock And Roll All Nite"
    PERFORMER "Kiss"
    REM COMPOSER ""
    INDEX 01 03:45:07
  TRACK 03 AUDIO
    TITLE "I Was Made For Lovin' You"
    PERFORMER "Kiss"
    REM COMPOSER ""
    INDEX 01 06:31:49
  TRACK 04 AUDIO
    TITLE "God Gave Rock 'N' Roll To You II"
    PERFORMER "Kiss"
    REM COMPOSER ""
    INDEX 01 10:32:70
  TRACK 05 AUDIO
    TITLE "Detroit Rock City"
    PERFORMER "Kiss"
    REM COMPOSER ""
    INDEX 01 15:53:16
  TRACK 06 AUDIO
    TITLE "Beth"
    PERFORMER "Kiss"
    REM COMPOSER ""
    INDEX 01 21:11:35
  TRACK 07 AUDIO
    TITLE "Lick It Up"
    PERFORMER "Kiss"
    REM COMPOSER ""
    INDEX 01 23:56:36
  TRACK 08 AUDIO
    TITLE "Heaven's On Fire"
    PERFORMER "Kiss"
    REM COMPOSER ""
    INDEX 01 27:53:20
  TRACK 09 AUDIO
    TITLE "Tears Are Falling"
    PERFORMER "Kiss"
    REM COMPOSER ""
    INDEX 01 31:14:20
  TRACK 10 AUDIO
    TITLE "Unholy"
    PERFORMER "Kiss"
    REM COMPOSER ""
    INDEX 01 35:09:69
  TRACK 11 AUDIO
    TITLE "Hard Luck Woman"
    PERFORMER "Kiss"
    REM COMPOSER ""
    INDEX 01 38:51:46
  TRACK 12 AUDIO
    TITLE "Psycho Circus"
    PERFORMER "Kiss"
    REM COMPOSER ""
    INDEX 01 42:25:48
  TRACK 13 AUDIO
    TITLE "Shout It Out Loud"
    PERFORMER "Kiss"
    REM COMPOSER ""
    INDEX 01 47:16:34
  TRACK 14 AUDIO
    TITLE "Calling Dr. Love"
    PERFORMER "Kiss"
    REM COMPOSER ""
    INDEX 01 50:05:40
  TRACK 15 AUDIO
    TITLE "Christine Sixteen"
    PERFORMER "Kiss"
    REM COMPOSER ""
    INDEX 01 53:45:41
  TRACK 16 AUDIO
    TITLE "Love Gun"
    PERFORMER "Kiss"
    REM COMPOSER ""
    INDEX 01 56:58:29
  TRACK 17 AUDIO
    TITLE "Shandi"
    PERFORMER "Kiss"
    REM COMPOSER ""
    INDEX 01 60:14:74
  TRACK 18 AUDIO
    TITLE "I'm A Legend Tonight"
    PERFORMER "Kiss"
    REM COMPOSER ""
    INDEX 01 63:51:28
  TRACK 19 AUDIO
    TITLE "Modern Day Delilah"
    PERFORMER "Kiss"
    REM COMPOSER ""
    INDEX 01 67:51:53
  TRACK 20 AUDIO
    TITLE "Hell Or Hallelujah"
    PERFORMER "Kiss"
    REM COMPOSER ""
    INDEX 01 71:27:49

Дополнительная информация

https://www.youtube.com/watch?time_continue=30&v=BdN9PXDH4xY
--

_________________
Разница между теорией и практикой в том, что теоретически разницы между теорией и практикой нет, а на практике она есть.
[Профиль] [ЛС]
Показать сообщения:    

Текущее время: Сегодня 19:23

Часовой пояс: GMT + 3



Вы не можете начинать темы
Вы не можете отвечать на сообщения
Вы не можете редактировать свои сообщения
Вы не можете удалять свои сообщения
Вы не можете голосовать в опросах
Вы не можете прикреплять файлы к сообщениям
Вы не можете скачивать файлы