Золотые дни идет свободное скачивание без начисления Download
 

Офлайн

sergej644

Стаж:
5 лет 8 месяцев
Сообщений:
885

-VA - Power Ballads The Collection (3CD)--
Год издания: 2017
Страна: n/a
Жанр: Rock, Hard Rock, Pop Rock
Продолжительность: 03:48:43-Лейбл издания: Rhino Catalog
Страна-выпуска диска: EU
Номер по каталогу: 9029586795-Формат: FLAC
Битрейт аудио: Lossless
Тип рипа: tracks +.cue
Наличие сканов в содержимом раздачи: да
-

Трэклист

CD 1 | 01:19:47


01. Foreigner - I Want To Know What Love Is (4:57)
02. Alannah Myles - Black Velvet (4:33)
03. Biffy Clyro - Many Of Horror (4:18)
04. Matchbox Twenty - Push (3:59)
05. The Animals - The House Of The Rising Sun (4:29)
06. America - Sister Golden Hair (3:15)
07. Steve Harley & Cockney Rebel - Make Me Smile (Come Up And See Me) (3:54)
08. Ultravox - Vienna (4:38)
09. En Vogue - Don't Let Go (Love) (4:49)
10. Athlete - Wires (4:19)
11. Skid Row - I Remember You (5:13)
12. Dokken - Alone Again (4:19)
13. The Dream Academy - Life In A Northern Town (4:16)
14. Labi Siffre - (Something Inside) So Strong (4:17)
15. Roxette - Fading Like A Flower (Every Time You Leave) (3:49)
16. Thunder - Love Walked In (6:24)
17. Winger - Miles Away (4:11)
18. Gerry Rafferty - Baker Street (4:08)

CD 2 | 01:17:42


01. Spandau Ballet - True (5:32)
02. Fine Young Cannibals - She Drives Me Crazy (3:36)
03. Fleetwood Mac - Don't Stop (3:11)
04. Bad Company - Feel Like Makin' Love (5:12)
05. Faith No More - Easy (3:06)
06. Peter Cetera - Glory Of Love (4:20)
07. Whitesnake - Is This Love (4:44)
08. Bread - Guitar Man (3:46)
09. The Hollies - He Ain't Heavy, He's My Brother (1998 Remastered Version) (4:18)
10. David Lee Roth - Just Like Paradise (4:04)
11. Paula Cole - I Don't Want To Wait (5:19)
12. Faces - Stay With Me (2015 Remastered Version) (4:38)
13. Funeral For A Friend - History (4:06)
14. Robert Plant - Big Log (5:02)
15. Chris Rea - Fool (If You Think It's Over) (4:03)
16. The Darkness - Love Is Only A Feeling (4:20)
17. ZZ Top - Rough Boy (4:50)
18. Uncle Kracker - Follow Me (3:35)

CD 3 | 01:11:13


01. Nickelback - How You Remind Me (3:44)
02. Chicago - If You Leave Me Now (3:55)
03. Marc Cohn - Walking In Memphis (4:15)
04. James Blunt - High (4:04)
05. Yes - Owner Of A Lonely Heart (4:26)
06. Royal Blood - Little Monster (3:34)
07. Twisted Sister - I Wanna Rock (3:04)
08. Marillion - Kayleigh (4:01)
09. The Cars - Drive (3:55)
10. Donna Lewis - I Love You Always Forever (3:56)
11. Kate Bush - Babooshka (3:26)
12. Andreas Johnson - Glorious (3:28)
13. Damn Yankees - High Enough (4:18)
14. Christopher Cross - All Right (4:15)
15. K.D. Lang - Constant Craving (Edit Version) (3:40)
16. Enuff Z'Nuff - Fly High Michelle (4:15)
17. Shakespear's Sister - Stay (3:45)
18. Daryl Hall & John Oates - She's Gone (5:14)
-

Лог создания рипа

CD 1

Код:
Exact Audio Copy V1.1 from 23. June 2015
EAC extraction logfile from 16. December 2017, 18:01
Various Artists / Power Ballads The Collection CD1
Used drive  : PIONEER BD-RW   BDR-206   Adapter: 1  ID: 0
Read mode               : Secure
Utilize accurate stream : Yes
Defeat audio cache      : Yes
Make use of C2 pointers : No
Read offset correction                      : 667
Overread into Lead-In and Lead-Out          : No
Fill up missing offset samples with silence : Yes
Delete leading and trailing silent blocks   : No
Null samples used in CRC calculations       : Yes
Used interface                              : Native Win32 interface for Win NT & 2000
Gap handling                                : Appended to previous track
Used output format              : User Defined Encoder
Selected bitrate                : 896 kBit/s
Quality                         : High
Add ID3 tag                     : No
Command line compressor         : C:\Program Files (x86)\Exact Audio Copy\Flac\flac.exe
Additional command line options : -8 -V -T "TITLE=%title%" -T "ARTIST=%artist%" -T "ALBUMARTIST=%albumartist%" -T "ALBUM=%albumtitle%" -T "DATE=%year%" -T "TRACKNUMBER=%tracknr%" -T "TRACKTOTAL=%numtracks%" -T "GENRE=%genre%" -T "COMMENT=%comment%" -T "PERFORMER=%albuminterpret%" -T "COMPOSER=%composer%" %source% -o %dest%
TOC of the extracted CD
     Track |   Start  |  Length  | Start sector | End sector
    ---------------------------------------------------------
        1  |  0:00.00 |  4:56.64 |         0    |    22263
        2  |  4:56.64 |  4:33.19 |     22264    |    42757
        3  |  9:30.08 |  4:17.63 |     42758    |    62095
        4  | 13:47.71 |  3:59.37 |     62096    |    80057
        5  | 17:47.33 |  4:28.51 |     80058    |   100208
        6  | 22:16.09 |  3:14.66 |    100209    |   114824
        7  | 25:31.00 |  3:54.09 |    114825    |   132383
        8  | 29:25.09 |  4:37.55 |    132384    |   153213
        9  | 34:02.64 |  4:49.15 |    153214    |   174903
       10  | 38:52.04 |  4:19.24 |    174904    |   194352
       11  | 43:11.28 |  5:12.51 |    194353    |   217803
       12  | 48:24.04 |  4:19.01 |    217804    |   237229
       13  | 52:43.05 |  4:15.63 |    237230    |   256417
       14  | 56:58.68 |  4:17.05 |    256418    |   275697
       15  | 61:15.73 |  3:49.34 |    275698    |   292906
       16  | 65:05.32 |  6:23.38 |    292907    |   321669
       17  | 71:28.70 |  4:10.60 |    321670    |   340479
       18  | 75:39.55 |  4:07.50 |    340480    |   359054
Track  1
     Filename D:\EAC rips\Various Artists - Power Ballads The Collection CD1 (2017) [Flac+.cue]\01 - Foreigner - I Want To Know What Love Is.wav
     Pre-gap length  0:00:02.00
     Peak level 99.0 %
     Extraction speed 3.1 X
     Track quality 100.0 %
     Test CRC 43DA7DD4
     Copy CRC 43DA7DD4
     Accurately ripped (confidence 1)  [767115DE]  (AR v2)
     Copy OK
Track  2
     Filename D:\EAC rips\Various Artists - Power Ballads The Collection CD1 (2017) [Flac+.cue]\02 - Alannah Myles - Black Velvet.wav
     Peak level 77.2 %
     Extraction speed 3.3 X
     Track quality 100.0 %
     Test CRC 1BCE7950
     Copy CRC 1BCE7950
     Accurately ripped (confidence 1)  [4E13CC61]  (AR v2)
     Copy OK
Track  3
     Filename D:\EAC rips\Various Artists - Power Ballads The Collection CD1 (2017) [Flac+.cue]\03 - Biffy Clyro - Many Of Horror.wav
     Peak level 93.3 %
     Extraction speed 3.6 X
     Track quality 100.0 %
     Test CRC 0D327C40
     Copy CRC 0D327C40
     Accurately ripped (confidence 1)  [8510E648]  (AR v2)
     Copy OK
Track  4
     Filename D:\EAC rips\Various Artists - Power Ballads The Collection CD1 (2017) [Flac+.cue]\04 - Matchbox Twenty - Push.wav
     Peak level 98.9 %
     Extraction speed 3.7 X
     Track quality 100.0 %
     Test CRC 0661A016
     Copy CRC 0661A016
     Accurately ripped (confidence 1)  [14BA9816]  (AR v2)
     Copy OK
Track  5
     Filename D:\EAC rips\Various Artists - Power Ballads The Collection CD1 (2017) [Flac+.cue]\05 - The Animals - The House Of The Rising Sun.wav
     Peak level 98.8 %
     Extraction speed 4.0 X
     Track quality 100.0 %
     Test CRC ACCE8308
     Copy CRC ACCE8308
     Accurately ripped (confidence 1)  [9BD476B5]  (AR v2)
     Copy OK
Track  6
     Filename D:\EAC rips\Various Artists - Power Ballads The Collection CD1 (2017) [Flac+.cue]\06 - America - Sister Golden Hair.wav
     Peak level 98.9 %
     Extraction speed 3.4 X
     Track quality 99.9 %
     Test CRC EF7FF7EA
     Copy CRC EF7FF7EA
     Accurately ripped (confidence 1)  [B37DD669]  (AR v2)
     Copy OK
Track  7
     Filename D:\EAC rips\Various Artists - Power Ballads The Collection CD1 (2017) [Flac+.cue]\07 - Steve Harley & Cockney Rebel - Make Me Smile (Come Up And See Me).wav
     Peak level 97.3 %
     Extraction speed 4.2 X
     Track quality 100.0 %
     Test CRC 5E300647
     Copy CRC 5E300647
     Accurately ripped (confidence 1)  [8054C1A8]  (AR v2)
     Copy OK
Track  8
     Filename D:\EAC rips\Various Artists - Power Ballads The Collection CD1 (2017) [Flac+.cue]\08 - Ultravox - Vienna.wav
     Peak level 98.8 %
     Extraction speed 4.5 X
     Track quality 100.0 %
     Test CRC 7F267DF1
     Copy CRC 7F267DF1
     Accurately ripped (confidence 1)  [3077D4AA]  (AR v2)
     Copy OK
Track  9
     Filename D:\EAC rips\Various Artists - Power Ballads The Collection CD1 (2017) [Flac+.cue]\09 - En Vogue - Don't Let Go (Love).wav
     Peak level 98.9 %
     Extraction speed 4.6 X
     Track quality 100.0 %
     Test CRC D50C2E53
     Copy CRC D50C2E53
     Accurately ripped (confidence 1)  [F5DD9DB7]  (AR v2)
     Copy OK
Track 10
     Filename D:\EAC rips\Various Artists - Power Ballads The Collection CD1 (2017) [Flac+.cue]\10 - Athlete - Wires.wav
     Peak level 80.0 %
     Extraction speed 4.3 X
     Track quality 99.9 %
     Test CRC 1E584CAB
     Copy CRC 1E584CAB
     Accurately ripped (confidence 1)  [DDBF781C]  (AR v2)
     Copy OK
Track 11
     Filename D:\EAC rips\Various Artists - Power Ballads The Collection CD1 (2017) [Flac+.cue]\11 - Skid Row - I Remember You.wav
     Peak level 99.0 %
     Extraction speed 5.1 X
     Track quality 100.0 %
     Test CRC C1AEC9FA
     Copy CRC C1AEC9FA
     Accurately ripped (confidence 1)  [41E5B63F]  (AR v2)
     Copy OK
Track 12
     Filename D:\EAC rips\Various Artists - Power Ballads The Collection CD1 (2017) [Flac+.cue]\12 - Dokken - Alone Again.wav
     Peak level 98.8 %
     Extraction speed 5.2 X
     Track quality 100.0 %
     Test CRC 95B7062D
     Copy CRC 95B7062D
     Accurately ripped (confidence 1)  [18E86710]  (AR v2)
     Copy OK
Track 13
     Filename D:\EAC rips\Various Artists - Power Ballads The Collection CD1 (2017) [Flac+.cue]\13 - The Dream Academy - Life In A Northern Town.wav
     Peak level 98.8 %
     Extraction speed 5.3 X
     Track quality 100.0 %
     Test CRC 5E0D5B76
     Copy CRC 5E0D5B76
     Accurately ripped (confidence 1)  [FE6D4CB5]  (AR v2)
     Copy OK
Track 14
     Filename D:\EAC rips\Various Artists - Power Ballads The Collection CD1 (2017) [Flac+.cue]\14 - Labi Siffre - (Something Inside) So Strong.wav
     Peak level 99.0 %
     Extraction speed 5.4 X
     Track quality 100.0 %
     Test CRC 3DD1455F
     Copy CRC 3DD1455F
     Accurately ripped (confidence 1)  [AEFC3231]  (AR v2)
     Copy OK
Track 15
     Filename D:\EAC rips\Various Artists - Power Ballads The Collection CD1 (2017) [Flac+.cue]\15 - Roxette - Fading Like A Flower (Every Time You Leave).wav
     Peak level 86.8 %
     Extraction speed 5.4 X
     Track quality 100.0 %
     Test CRC F6ECB6EB
     Copy CRC F6ECB6EB
     Accurately ripped (confidence 1)  [30FA888C]  (AR v2)
     Copy OK
Track 16
     Filename D:\EAC rips\Various Artists - Power Ballads The Collection CD1 (2017) [Flac+.cue]\16 - Thunder - Love Walked In.wav
     Peak level 98.8 %
     Extraction speed 5.9 X
     Track quality 100.0 %
     Test CRC 20BD18F6
     Copy CRC 20BD18F6
     Accurately ripped (confidence 1)  [19883A81]  (AR v2)
     Copy OK
Track 17
     Filename D:\EAC rips\Various Artists - Power Ballads The Collection CD1 (2017) [Flac+.cue]\17 - Winger - Miles Away.wav
     Peak level 98.9 %
     Extraction speed 5.8 X
     Track quality 100.0 %
     Test CRC C877328D
     Copy CRC C877328D
     Accurately ripped (confidence 1)  [5689C1DF]  (AR v2)
     Copy OK
Track 18
     Filename D:\EAC rips\Various Artists - Power Ballads The Collection CD1 (2017) [Flac+.cue]\18 - Gerry Rafferty - Baker Street.wav
     Peak level 93.7 %
     Extraction speed 5.2 X
     Track quality 99.9 %
     Test CRC E5980424
     Copy CRC E5980424
     Accurately ripped (confidence 1)  [F03EE2A5]  (AR v2)
     Copy OK
All tracks accurately ripped
No errors occurred
End of status report
---- CUETools DB Plugin V2.1.6
[CTDB TOCID: nP8ZyAy96l6SM2u_yXEFUi3Jpk4-] found
Submit result: nP8ZyAy96l6SM2u_yXEFUi3Jpk4- has been confirmed
Track | CTDB Status
  1   | (6/6) Accurately ripped
  2   | (6/6) Accurately ripped
  3   | (6/6) Accurately ripped
  4   | (6/6) Accurately ripped
  5   | (6/6) Accurately ripped
  6   | (6/6) Accurately ripped
  7   | (6/6) Accurately ripped
  8   | (6/6) Accurately ripped
  9   | (6/6) Accurately ripped
10   | (6/6) Accurately ripped
11   | (6/6) Accurately ripped
12   | (6/6) Accurately ripped
13   | (6/6) Accurately ripped
14   | (6/6) Accurately ripped
15   | (6/6) Accurately ripped
16   | (6/6) Accurately ripped
17   | (6/6) Accurately ripped
18   | (5/6) Accurately ripped

CD 2

Код:
Exact Audio Copy V1.1 from 23. June 2015
EAC extraction logfile from 16. December 2017, 19:13
Various Artists / Power Ballads The Collection CD2
Used drive  : PIONEER BD-RW   BDR-206   Adapter: 1  ID: 0
Read mode               : Secure
Utilize accurate stream : Yes
Defeat audio cache      : Yes
Make use of C2 pointers : No
Read offset correction                      : 667
Overread into Lead-In and Lead-Out          : No
Fill up missing offset samples with silence : Yes
Delete leading and trailing silent blocks   : No
Null samples used in CRC calculations       : Yes
Used interface                              : Native Win32 interface for Win NT & 2000
Gap handling                                : Appended to previous track
Used output format              : User Defined Encoder
Selected bitrate                : 896 kBit/s
Quality                         : High
Add ID3 tag                     : No
Command line compressor         : C:\Program Files (x86)\Exact Audio Copy\Flac\flac.exe
Additional command line options : -8 -V -T "TITLE=%title%" -T "ARTIST=%artist%" -T "ALBUMARTIST=%albumartist%" -T "ALBUM=%albumtitle%" -T "DATE=%year%" -T "TRACKNUMBER=%tracknr%" -T "TRACKTOTAL=%numtracks%" -T "GENRE=%genre%" -T "COMMENT=%comment%" -T "PERFORMER=%albuminterpret%" -T "COMPOSER=%composer%" %source% -o %dest%
TOC of the extracted CD
     Track |   Start  |  Length  | Start sector | End sector
    ---------------------------------------------------------
        1  |  0:00.00 |  5:31.46 |         0    |    24870
        2  |  5:31.46 |  3:36.30 |     24871    |    41100
        3  |  9:08.01 |  3:10.63 |     41101    |    55413
        4  | 12:18.64 |  5:12.24 |     55414    |    78837
        5  | 17:31.13 |  3:06.22 |     78838    |    92809
        6  | 20:37.35 |  4:20.35 |     92810    |   112344
        7  | 24:57.70 |  4:43.66 |    112345    |   133635
        8  | 29:41.61 |  3:45.61 |    133636    |   150571
        9  | 33:27.47 |  4:17.61 |    150572    |   169907
       10  | 37:45.33 |  4:04.05 |    169908    |   188212
       11  | 41:49.38 |  5:18.49 |    188213    |   212111
       12  | 47:08.12 |  4:37.59 |    212112    |   232945
       13  | 51:45.71 |  4:05.42 |    232946    |   251362
       14  | 55:51.38 |  5:02.23 |    251363    |   274035
       15  | 60:53.61 |  4:02.72 |    274036    |   292257
       16  | 64:56.58 |  4:19.62 |    292258    |   311744
       17  | 69:16.45 |  4:49.66 |    311745    |   333485
       18  | 74:06.36 |  3:35.35 |    333486    |   349645
Track  1
     Filename D:\EAC rips\VA - Power Ballads The Collection CD2 (2017) [Flac+.cue]\01. Spandau Ballet - True.wav
     Pre-gap length  0:00:02.00
     Peak level 98.9 %
     Extraction speed 3.1 X
     Track quality 100.0 %
     Test CRC 21E436D3
     Copy CRC 21E436D3
     Accurately ripped (confidence 1)  [F9C7D642]  (AR v2)
     Copy OK
Track  2
     Filename D:\EAC rips\VA - Power Ballads The Collection CD2 (2017) [Flac+.cue]\02. Fine Young Cannibals - She Drives Me Crazy.wav
     Peak level 98.8 %
     Extraction speed 3.2 X
     Track quality 100.0 %
     Test CRC C924183F
     Copy CRC C924183F
     Accurately ripped (confidence 1)  [4E09B8C7]  (AR v2)
     Copy OK
Track  3
     Filename D:\EAC rips\VA - Power Ballads The Collection CD2 (2017) [Flac+.cue]\03. Fleetwood Mac - Don't Stop.wav
     Peak level 98.9 %
     Extraction speed 3.4 X
     Track quality 100.0 %
     Test CRC B8755307
     Copy CRC B8755307
     Accurately ripped (confidence 1)  [387C8E88]  (AR v2)
     Copy OK
Track  4
     Filename D:\EAC rips\VA - Power Ballads The Collection CD2 (2017) [Flac+.cue]\04. Bad Company - Feel Like Makin' Love.wav
     Peak level 98.9 %
     Extraction speed 3.8 X
     Track quality 100.0 %
     Test CRC 4DDFD17B
     Copy CRC 4DDFD17B
     Accurately ripped (confidence 1)  [F06B7386]  (AR v2)
     Copy OK
Track  5
     Filename D:\EAC rips\VA - Power Ballads The Collection CD2 (2017) [Flac+.cue]\05. Faith No More - Easy.wav
     Peak level 98.9 %
     Extraction speed 3.7 X
     Track quality 100.0 %
     Test CRC 6128F6FA
     Copy CRC 6128F6FA
     Accurately ripped (confidence 1)  [53707A4A]  (AR v2)
     Copy OK
Track  6
     Filename D:\EAC rips\VA - Power Ballads The Collection CD2 (2017) [Flac+.cue]\06. Peter Cetera - Glory Of Love.wav
     Peak level 98.8 %
     Extraction speed 4.1 X
     Track quality 100.0 %
     Test CRC A0D6E301
     Copy CRC A0D6E301
     Accurately ripped (confidence 1)  [F4261C6E]  (AR v2)
     Copy OK
Track  7
     Filename D:\EAC rips\VA - Power Ballads The Collection CD2 (2017) [Flac+.cue]\07. Whitesnake - Is This Love.wav
     Peak level 95.6 %
     Extraction speed 3.9 X
     Track quality 99.9 %
     Test CRC F1849E8F
     Copy CRC F1849E8F
     Accurately ripped (confidence 1)  [73F2FE20]  (AR v2)
     Copy OK
Track  8
     Filename D:\EAC rips\VA - Power Ballads The Collection CD2 (2017) [Flac+.cue]\08. Bread - Guitar Man.wav
     Peak level 99.2 %
     Extraction speed 4.4 X
     Track quality 100.0 %
     Test CRC 83C66EF5
     Copy CRC 83C66EF5
     Accurately ripped (confidence 1)  [3DF8DA4D]  (AR v2)
     Copy OK
Track  9
     Filename D:\EAC rips\VA - Power Ballads The Collection CD2 (2017) [Flac+.cue]\09. The Hollies - He Ain't Heavy, He's My Brother (1998 Remastered Version).wav
     Peak level 98.8 %
     Extraction speed 4.6 X
     Track quality 100.0 %
     Test CRC 8640BE7D
     Copy CRC 8640BE7D
     Accurately ripped (confidence 1)  [20AD45E4]  (AR v2)
     Copy OK
Track 10
     Filename D:\EAC rips\VA - Power Ballads The Collection CD2 (2017) [Flac+.cue]\10. David Lee Roth - Just Like Paradise.wav
     Peak level 98.8 %
     Extraction speed 4.7 X
     Track quality 100.0 %
     Test CRC 2C17881B
     Copy CRC 2C17881B
     Accurately ripped (confidence 1)  [3F0CB230]  (AR v2)
     Copy OK
Track 11
     Filename D:\EAC rips\VA - Power Ballads The Collection CD2 (2017) [Flac+.cue]\11. Paula Cole - I Don't Want To Wait.wav
     Peak level 98.8 %
     Extraction speed 5.1 X
     Track quality 100.0 %
     Test CRC 0D30DCB3
     Copy CRC 0D30DCB3
     Accurately ripped (confidence 1)  [F6DA8FEC]  (AR v2)
     Copy OK
Track 12
     Filename D:\EAC rips\VA - Power Ballads The Collection CD2 (2017) [Flac+.cue]\12. Faces - Stay With Me (2015 Remastered Version).wav
     Peak level 98.8 %
     Extraction speed 5.1 X
     Track quality 100.0 %
     Test CRC FA0CBF46
     Copy CRC FA0CBF46
     Accurately ripped (confidence 1)  [15065F90]  (AR v2)
     Copy OK
Track 13
     Filename D:\EAC rips\VA - Power Ballads The Collection CD2 (2017) [Flac+.cue]\13. Funeral For A Friend - History.wav
     Peak level 69.2 %
     Extraction speed 5.2 X
     Track quality 100.0 %
     Test CRC C475E95B
     Copy CRC C475E95B
     Accurately ripped (confidence 1)  [F765B6FE]  (AR v2)
     Copy OK
Track 14
     Filename D:\EAC rips\VA - Power Ballads The Collection CD2 (2017) [Flac+.cue]\14. Robert Plant - Big Log.wav
     Peak level 98.9 %
     Extraction speed 5.5 X
     Track quality 100.0 %
     Test CRC F64D490D
     Copy CRC F64D490D
     Accurately ripped (confidence 1)  [BF682A67]  (AR v2)
     Copy OK
Track 15
     Filename D:\EAC rips\VA - Power Ballads The Collection CD2 (2017) [Flac+.cue]\15. Chris Rea - Fool (If You Think It's Over).wav
     Peak level 99.0 %
     Extraction speed 5.5 X
     Track quality 100.0 %
     Test CRC 6DC0E497
     Copy CRC 6DC0E497
     Accurately ripped (confidence 1)  [FBE42846]  (AR v2)
     Copy OK
Track 16
     Filename D:\EAC rips\VA - Power Ballads The Collection CD2 (2017) [Flac+.cue]\16. The Darkness - Love Is Only A Feeling.wav
     Peak level 83.1 %
     Extraction speed 5.6 X
     Track quality 100.0 %
     Test CRC 0D9B3616
     Copy CRC 0D9B3616
     Accurately ripped (confidence 1)  [5301905E]  (AR v2)
     Copy OK
Track 17
     Filename D:\EAC rips\VA - Power Ballads The Collection CD2 (2017) [Flac+.cue]\17. ZZ Top - Rough Boy.wav
     Peak level 98.8 %
     Extraction speed 5.8 X
     Track quality 100.0 %
     Test CRC B7D765BE
     Copy CRC B7D765BE
     Accurately ripped (confidence 1)  [8289A195]  (AR v2)
     Copy OK
Track 18
     Filename D:\EAC rips\VA - Power Ballads The Collection CD2 (2017) [Flac+.cue]\18. Uncle Kracker - Follow Me.wav
     Peak level 89.1 %
     Extraction speed 5.0 X
     Track quality 99.9 %
     Test CRC 4AA784D0
     Copy CRC 4AA784D0
     Accurately ripped (confidence 1)  [5AF003B7]  (AR v2)
     Copy OK
All tracks accurately ripped
No errors occurred
End of status report
---- CUETools DB Plugin V2.1.6
[CTDB TOCID: 9q1SyLXpC99bzvnnwIQ.MTmHGS0-] found
Submit result: 9q1SyLXpC99bzvnnwIQ.MTmHGS0- has been confirmed
Track | CTDB Status
  1   | (6/6) Accurately ripped
  2   | (6/6) Accurately ripped
  3   | (6/6) Accurately ripped
  4   | (6/6) Accurately ripped
  5   | (6/6) Accurately ripped
  6   | (6/6) Accurately ripped
  7   | (6/6) Accurately ripped
  8   | (6/6) Accurately ripped
  9   | (6/6) Accurately ripped
10   | (6/6) Accurately ripped
11   | (6/6) Accurately ripped
12   | (6/6) Accurately ripped
13   | (6/6) Accurately ripped
14   | (6/6) Accurately ripped
15   | (6/6) Accurately ripped
16   | (6/6) Accurately ripped
17   | (6/6) Accurately ripped
18   | (6/6) Accurately ripped

CD 3

Код:
Exact Audio Copy V1.1 from 23. June 2015
EAC extraction logfile from 16. December 2017, 22:16
Various Artists / Power Ballads The Collection CD3
Used drive  : PIONEER BD-RW   BDR-206   Adapter: 1  ID: 0
Read mode               : Secure
Utilize accurate stream : Yes
Defeat audio cache      : Yes
Make use of C2 pointers : No
Read offset correction                      : 667
Overread into Lead-In and Lead-Out          : No
Fill up missing offset samples with silence : Yes
Delete leading and trailing silent blocks   : No
Null samples used in CRC calculations       : Yes
Used interface                              : Native Win32 interface for Win NT & 2000
Gap handling                                : Appended to previous track
Used output format              : User Defined Encoder
Selected bitrate                : 896 kBit/s
Quality                         : High
Add ID3 tag                     : No
Command line compressor         : C:\Program Files (x86)\Exact Audio Copy\Flac\flac.exe
Additional command line options : -8 -V -T "TITLE=%title%" -T "ARTIST=%artist%" -T "ALBUMARTIST=%albumartist%" -T "ALBUM=%albumtitle%" -T "DATE=%year%" -T "TRACKNUMBER=%tracknr%" -T "TRACKTOTAL=%numtracks%" -T "GENRE=%genre%" -T "COMMENT=%comment%" -T "PERFORMER=%albuminterpret%" -T "COMPOSER=%composer%" %source% -o %dest%
TOC of the extracted CD
     Track |   Start  |  Length  | Start sector | End sector
    ---------------------------------------------------------
        1  |  0:00.00 |  3:43.69 |         0    |    16793
        2  |  3:43.69 |  3:55.15 |     16794    |    34433
        3  |  7:39.09 |  4:15.29 |     34434    |    53587
        4  | 11:54.38 |  4:03.73 |     53588    |    71885
        5  | 15:58.36 |  4:25.41 |     71886    |    91801
        6  | 20:24.02 |  3:33.52 |     91802    |   107828
        7  | 23:57.54 |  3:03.42 |    107829    |   121595
        8  | 27:01.21 |  4:00.39 |    121596    |   139634
        9  | 31:01.60 |  3:55.27 |    139635    |   157286
       10  | 34:57.12 |  3:55.71 |    157287    |   174982
       11  | 38:53.08 |  3:26.35 |    174983    |   190467
       12  | 42:19.43 |  3:27.44 |    190468    |   206036
       13  | 45:47.12 |  4:17.42 |    206037    |   225353
       14  | 50:04.54 |  4:14.56 |    225354    |   244459
       15  | 54:19.35 |  3:40.07 |    244460    |   260966
       16  | 57:59.42 |  4:14.46 |    260967    |   280062
       17  | 62:14.13 |  3:44.61 |    280063    |   296923
       18  | 65:58.74 |  5:14.33 |    296924    |   320506
Track  1
     Filename D:\EAC rips\VA - Power Ballads The Collection CD3 (2017) [Flac+.cue]\01. Nickelback - How You Remind Me.wav
     Pre-gap length  0:00:02.00
     Peak level 78.4 %
     Extraction speed 2.9 X
     Track quality 100.0 %
     Test CRC A4515EBE
     Copy CRC A4515EBE
     Accurately ripped (confidence 1)  [3E99EDB4]  (AR v2)
     Copy OK
Track  2
     Filename D:\EAC rips\VA - Power Ballads The Collection CD3 (2017) [Flac+.cue]\02. Chicago - If You Leave Me Now.wav
     Peak level 98.8 %
     Extraction speed 3.1 X
     Track quality 100.0 %
     Test CRC C9494906
     Copy CRC C9494906
     Accurately ripped (confidence 1)  [EFBAA3C1]  (AR v2)
     Copy OK
Track  3
     Filename D:\EAC rips\VA - Power Ballads The Collection CD3 (2017) [Flac+.cue]\03. Marc Cohn - Walking In Memphis.wav
     Peak level 98.9 %
     Extraction speed 3.4 X
     Track quality 100.0 %
     Test CRC DB55E60D
     Copy CRC DB55E60D
     Accurately ripped (confidence 1)  [6E46DEBE]  (AR v2)
     Copy OK
Track  4
     Filename D:\EAC rips\VA - Power Ballads The Collection CD3 (2017) [Flac+.cue]\04. James Blunt - High.wav
     Peak level 86.5 %
     Extraction speed 3.6 X
     Track quality 100.0 %
     Test CRC 600DBEA1
     Copy CRC 600DBEA1
     Accurately ripped (confidence 1)  [C34E3B62]  (AR v2)
     Copy OK
Track  5
     Filename D:\EAC rips\VA - Power Ballads The Collection CD3 (2017) [Flac+.cue]\05. Yes - Owner Of A Lonely Heart.wav
     Peak level 99.2 %
     Extraction speed 3.9 X
     Track quality 100.0 %
     Test CRC AFA46599
     Copy CRC AFA46599
     Accurately ripped (confidence 1)  [308F6A56]  (AR v2)
     Copy OK
Track  6
     Filename D:\EAC rips\VA - Power Ballads The Collection CD3 (2017) [Flac+.cue]\06. Royal Blood - Little Monster.wav
     Peak level 96.7 %
     Extraction speed 3.9 X
     Track quality 100.0 %
     Test CRC EEA89ABC
     Copy CRC EEA89ABC
     Accurately ripped (confidence 1)  [EA8B3447]  (AR v2)
     Copy OK
Track  7
     Filename D:\EAC rips\VA - Power Ballads The Collection CD3 (2017) [Flac+.cue]\07. Twisted Sister - I Wanna Rock.wav
     Peak level 98.8 %
     Extraction speed 3.4 X
     Track quality 99.9 %
     Test CRC 9CDE51E8
     Copy CRC 9CDE51E8
     Accurately ripped (confidence 1)  [B0560FC9]  (AR v2)
     Copy OK
Track  8
     Filename D:\EAC rips\VA - Power Ballads The Collection CD3 (2017) [Flac+.cue]\08. Marillion - Kayleigh.wav
     Peak level 98.9 %
     Extraction speed 4.3 X
     Track quality 100.0 %
     Test CRC 7201A64D
     Copy CRC 7201A64D
     Accurately ripped (confidence 1)  [37420733]  (AR v2)
     Copy OK
Track  9
     Filename D:\EAC rips\VA - Power Ballads The Collection CD3 (2017) [Flac+.cue]\09. The Cars - Drive.wav
     Peak level 98.8 %
     Extraction speed 3.9 X
     Track quality 99.9 %
     Test CRC A29B646D
     Copy CRC A29B646D
     Accurately ripped (confidence 1)  [53D086BC]  (AR v2)
     Copy OK
Track 10
     Filename D:\EAC rips\VA - Power Ballads The Collection CD3 (2017) [Flac+.cue]\10. Donna Lewis - I Love You Always Forever.wav
     Peak level 98.8 %
     Extraction speed 4.6 X
     Track quality 100.0 %
     Test CRC 9BDE9241
     Copy CRC 9BDE9241
     Accurately ripped (confidence 1)  [653B7B56]  (AR v2)
     Copy OK
Track 11
     Filename D:\EAC rips\VA - Power Ballads The Collection CD3 (2017) [Flac+.cue]\11. Kate Bush - Babooshka.wav
     Peak level 98.8 %
     Extraction speed 4.0 X
     Track quality 99.9 %
     Test CRC 5A7C496D
     Copy CRC 5A7C496D
     Accurately ripped (confidence 1)  [7201B88F]  (AR v2)
     Copy OK
Track 12
     Filename D:\EAC rips\VA - Power Ballads The Collection CD3 (2017) [Flac+.cue]\12. Andreas Johnson - Glorious.wav
     Peak level 78.3 %
     Extraction speed 4.7 X
     Track quality 100.0 %
     Test CRC F2CFB64E
     Copy CRC F2CFB64E
     Accurately ripped (confidence 1)  [F3D5B36D]  (AR v2)
     Copy OK
Track 13
     Filename D:\EAC rips\VA - Power Ballads The Collection CD3 (2017) [Flac+.cue]\13. Damn Yankees - High Enough.wav
     Peak level 98.9 %
     Extraction speed 5.0 X
     Track quality 100.0 %
     Test CRC 204E5834
     Copy CRC 204E5834
     Accurately ripped (confidence 1)  [3721E182]  (AR v2)
     Copy OK
Track 14
     Filename D:\EAC rips\VA - Power Ballads The Collection CD3 (2017) [Flac+.cue]\14. Christopher Cross - All Right.wav
     Peak level 98.8 %
     Extraction speed 5.1 X
     Track quality 100.0 %
     Test CRC 97AE866F
     Copy CRC 97AE866F
     Accurately ripped (confidence 1)  [965DA32F]  (AR v2)
     Copy OK
Track 15
     Filename D:\EAC rips\VA - Power Ballads The Collection CD3 (2017) [Flac+.cue]\15. K.D. Lang - Constant Craving (Edit Version).wav
     Peak level 98.8 %
     Extraction speed 4.5 X
     Track quality 99.9 %
     Test CRC A38EF045
     Copy CRC A38EF045
     Accurately ripped (confidence 1)  [82A03A82]  (AR v2)
     Copy OK
Track 16
     Filename D:\EAC rips\VA - Power Ballads The Collection CD3 (2017) [Flac+.cue]\16. Enuff Z'Nuff - Fly High Michelle.wav
     Peak level 98.9 %
     Extraction speed 4.8 X
     Track quality 99.9 %
     Test CRC 08CD6E97
     Copy CRC 08CD6E97
     Accurately ripped (confidence 1)  [EB213B1E]  (AR v2)
     Copy OK
Track 17
     Filename D:\EAC rips\VA - Power Ballads The Collection CD3 (2017) [Flac+.cue]\17. Shakespear's Sister - Stay.wav
     Peak level 98.9 %
     Extraction speed 5.4 X
     Track quality 100.0 %
     Test CRC AAB4A9A5
     Copy CRC AAB4A9A5
     Accurately ripped (confidence 1)  [99B60436]  (AR v2)
     Copy OK
Track 18
     Filename D:\EAC rips\VA - Power Ballads The Collection CD3 (2017) [Flac+.cue]\18. Daryl Hall & John Oates - She's Gone.wav
     Peak level 98.9 %
     Extraction speed 5.2 X
     Track quality 99.9 %
     Test CRC ACC66ABC
     Copy CRC ACC66ABC
     Accurately ripped (confidence 1)  [2D0CC620]  (AR v2)
     Copy OK
All tracks accurately ripped
No errors occurred
End of status report
---- CUETools DB Plugin V2.1.6
[CTDB TOCID: tgtvcZdWYWyLIjjYvYVN_oZywhU-] found
Submit result: tgtvcZdWYWyLIjjYvYVN_oZywhU- has been confirmed
Track | CTDB Status
  1   | (5/5) Accurately ripped
  2   | (5/5) Accurately ripped
  3   | (5/5) Accurately ripped
  4   | (5/5) Accurately ripped
  5   | (5/5) Accurately ripped
  6   | (5/5) Accurately ripped
  7   | (5/5) Accurately ripped
  8   | (5/5) Accurately ripped
  9   | (5/5) Accurately ripped
10   | (5/5) Accurately ripped
11   | (5/5) Accurately ripped
12   | (5/5) Accurately ripped
13   | (5/5) Accurately ripped
14   | (5/5) Accurately ripped
15   | (5/5) Accurately ripped
16   | (5/5) Accurately ripped
17   | (4/5) Accurately ripped
18   | (5/5) Accurately ripped

Индексная карта (non-compilant .cue)

CD 1

Код:
REM GENRE Other
REM DATE 2017
REM DISCID 1012B312
REM COMMENT "ExactAudioCopy v1.1"
PERFORMER "Various Artists"
TITLE "Power Ballads The Collection CD1"
FILE "Various Artists - Power Ballads The Collection CD1 (2017) [Flac+.cue]\01 - Foreigner - I Want To Know What Love Is.wav" WAVE
  TRACK 01 AUDIO
    TITLE "Foreigner - I Want To Know What Love Is"
    PERFORMER "Various Artists"
    INDEX 01 00:00:00
FILE "Various Artists - Power Ballads The Collection CD1 (2017) [Flac+.cue]\02 - Alannah Myles - Black Velvet.wav" WAVE
  TRACK 02 AUDIO
    TITLE "Alannah Myles - Black Velvet"
    PERFORMER "Various Artists"
    INDEX 01 00:00:00
FILE "Various Artists - Power Ballads The Collection CD1 (2017) [Flac+.cue]\03 - Biffy Clyro - Many Of Horror.wav" WAVE
  TRACK 03 AUDIO
    TITLE "Biffy Clyro - Many Of Horror"
    PERFORMER "Various Artists"
    INDEX 01 00:00:00
FILE "Various Artists - Power Ballads The Collection CD1 (2017) [Flac+.cue]\04 - Matchbox Twenty - Push.wav" WAVE
  TRACK 04 AUDIO
    TITLE "Matchbox Twenty - Push"
    PERFORMER "Various Artists"
    INDEX 01 00:00:00
FILE "Various Artists - Power Ballads The Collection CD1 (2017) [Flac+.cue]\05 - The Animals - The House Of The Rising Sun.wav" WAVE
  TRACK 05 AUDIO
    TITLE "The Animals - The House Of The Rising Sun"
    PERFORMER "Various Artists"
    INDEX 01 00:00:00
FILE "Various Artists - Power Ballads The Collection CD1 (2017) [Flac+.cue]\06 - America - Sister Golden Hair.wav" WAVE
  TRACK 06 AUDIO
    TITLE "America - Sister Golden Hair"
    PERFORMER "Various Artists"
    INDEX 01 00:00:00
FILE "Various Artists - Power Ballads The Collection CD1 (2017) [Flac+.cue]\07 - Steve Harley & Cockney Rebel - Make Me Smile (Come Up And See Me).wav" WAVE
  TRACK 07 AUDIO
    TITLE "Steve Harley & Cockney Rebel - Make Me Smile (Come Up And See Me)"
    PERFORMER "Various Artists"
    INDEX 01 00:00:00
FILE "Various Artists - Power Ballads The Collection CD1 (2017) [Flac+.cue]\08 - Ultravox - Vienna.wav" WAVE
  TRACK 08 AUDIO
    TITLE "Ultravox - Vienna"
    PERFORMER "Various Artists"
    INDEX 01 00:00:00
FILE "Various Artists - Power Ballads The Collection CD1 (2017) [Flac+.cue]\09 - En Vogue - Don't Let Go (Love).wav" WAVE
  TRACK 09 AUDIO
    TITLE "En Vogue - Don't Let Go (Love)"
    PERFORMER "Various Artists"
    INDEX 01 00:00:00
FILE "Various Artists - Power Ballads The Collection CD1 (2017) [Flac+.cue]\10 - Athlete - Wires.wav" WAVE
  TRACK 10 AUDIO
    TITLE "Athlete - Wires"
    PERFORMER "Various Artists"
    INDEX 01 00:00:00
FILE "Various Artists - Power Ballads The Collection CD1 (2017) [Flac+.cue]\11 - Skid Row - I Remember You.wav" WAVE
  TRACK 11 AUDIO
    TITLE "Skid Row - I Remember You"
    PERFORMER "Various Artists"
    INDEX 01 00:00:00
FILE "Various Artists - Power Ballads The Collection CD1 (2017) [Flac+.cue]\12 - Dokken - Alone Again.wav" WAVE
  TRACK 12 AUDIO
    TITLE "Dokken - Alone Again"
    PERFORMER "Various Artists"
    INDEX 01 00:00:00
FILE "Various Artists - Power Ballads The Collection CD1 (2017) [Flac+.cue]\13 - The Dream Academy - Life In A Northern Town.wav" WAVE
  TRACK 13 AUDIO
    TITLE "The Dream Academy - Life In A Northern Town"
    PERFORMER "Various Artists"
    INDEX 01 00:00:00
FILE "Various Artists - Power Ballads The Collection CD1 (2017) [Flac+.cue]\14 - Labi Siffre - (Something Inside) So Strong.wav" WAVE
  TRACK 14 AUDIO
    TITLE "Labi Siffre - (Something Inside) So Strong"
    PERFORMER "Various Artists"
    INDEX 01 00:00:00
FILE "Various Artists - Power Ballads The Collection CD1 (2017) [Flac+.cue]\15 - Roxette - Fading Like A Flower (Every Time You Leave).wav" WAVE
  TRACK 15 AUDIO
    TITLE "Roxette - Fading Like A Flower (Every Time You Leave)"
    PERFORMER "Various Artists"
    INDEX 01 00:00:00
FILE "Various Artists - Power Ballads The Collection CD1 (2017) [Flac+.cue]\16 - Thunder - Love Walked In.wav" WAVE
  TRACK 16 AUDIO
    TITLE "Thunder - Love Walked In"
    PERFORMER "Various Artists"
    INDEX 01 00:00:00
FILE "Various Artists - Power Ballads The Collection CD1 (2017) [Flac+.cue]\17 - Winger - Miles Away.wav" WAVE
  TRACK 17 AUDIO
    TITLE "Winger - Miles Away"
    PERFORMER "Various Artists"
    INDEX 01 00:00:00
FILE "Various Artists - Power Ballads The Collection CD1 (2017) [Flac+.cue]\18 - Gerry Rafferty - Baker Street.wav" WAVE
  TRACK 18 AUDIO
    TITLE "Gerry Rafferty - Baker Street"
    PERFORMER "Various Artists"
    INDEX 01 00:00:00

CD 2

Код:
REM GENRE Other
REM DATE 2017
REM DISCID 03123512
REM COMMENT "ExactAudioCopy v1.1"
PERFORMER "Various Artists"
TITLE "Power Ballads The Collection CD2"
FILE "VA - Power Ballads The Collection CD2 (2017) [Flac+.cue]\01. Spandau Ballet - True.wav" WAVE
  TRACK 01 AUDIO
    TITLE "True"
    PERFORMER "Spandau Ballet"
    INDEX 01 00:00:00
FILE "VA - Power Ballads The Collection CD2 (2017) [Flac+.cue]\02. Fine Young Cannibals - She Drives Me Crazy.wav" WAVE
  TRACK 02 AUDIO
    TITLE "She Drives Me Crazy"
    PERFORMER "Fine Young Cannibals"
    INDEX 01 00:00:00
FILE "VA - Power Ballads The Collection CD2 (2017) [Flac+.cue]\03. Fleetwood Mac - Don't Stop.wav" WAVE
  TRACK 03 AUDIO
    TITLE "Don't Stop"
    PERFORMER "Fleetwood Mac"
    INDEX 01 00:00:00
FILE "VA - Power Ballads The Collection CD2 (2017) [Flac+.cue]\04. Bad Company - Feel Like Makin' Love.wav" WAVE
  TRACK 04 AUDIO
    TITLE "Feel Like Makin' Love"
    PERFORMER "Bad Company"
    INDEX 01 00:00:00
FILE "VA - Power Ballads The Collection CD2 (2017) [Flac+.cue]\05. Faith No More - Easy.wav" WAVE
  TRACK 05 AUDIO
    TITLE "Easy"
    PERFORMER "Faith No More"
    INDEX 01 00:00:00
FILE "VA - Power Ballads The Collection CD2 (2017) [Flac+.cue]\06. Peter Cetera - Glory Of Love.wav" WAVE
  TRACK 06 AUDIO
    TITLE "Glory Of Love"
    PERFORMER "Peter Cetera"
    INDEX 01 00:00:00
FILE "VA - Power Ballads The Collection CD2 (2017) [Flac+.cue]\07. Whitesnake - Is This Love.wav" WAVE
  TRACK 07 AUDIO
    TITLE "Is This Love"
    PERFORMER "Whitesnake"
    INDEX 01 00:00:00
FILE "VA - Power Ballads The Collection CD2 (2017) [Flac+.cue]\08. Bread - Guitar Man.wav" WAVE
  TRACK 08 AUDIO
    TITLE "Guitar Man"
    PERFORMER "Bread"
    INDEX 01 00:00:00
FILE "VA - Power Ballads The Collection CD2 (2017) [Flac+.cue]\09. The Hollies - He Ain't Heavy, He's My Brother (1998 Remastered Version).wav" WAVE
  TRACK 09 AUDIO
    TITLE "He Ain't Heavy, He's My Brother (1998 Remastered Version)"
    PERFORMER "The Hollies"
    INDEX 01 00:00:00
FILE "VA - Power Ballads The Collection CD2 (2017) [Flac+.cue]\10. David Lee Roth - Just Like Paradise.wav" WAVE
  TRACK 10 AUDIO
    TITLE "Just Like Paradise"
    PERFORMER "David Lee Roth"
    INDEX 01 00:00:00
FILE "VA - Power Ballads The Collection CD2 (2017) [Flac+.cue]\11. Paula Cole - I Don't Want To Wait.wav" WAVE
  TRACK 11 AUDIO
    TITLE "I Don't Want To Wait"
    PERFORMER "Paula Cole"
    INDEX 01 00:00:00
FILE "VA - Power Ballads The Collection CD2 (2017) [Flac+.cue]\12. Faces - Stay With Me (2015 Remastered Version).wav" WAVE
  TRACK 12 AUDIO
    TITLE "Stay With Me (2015 Remastered Version)"
    PERFORMER "Faces"
    INDEX 01 00:00:00
FILE "VA - Power Ballads The Collection CD2 (2017) [Flac+.cue]\13. Funeral For A Friend - History.wav" WAVE
  TRACK 13 AUDIO
    TITLE "History"
    PERFORMER "Funeral For A Friend"
    INDEX 01 00:00:00
FILE "VA - Power Ballads The Collection CD2 (2017) [Flac+.cue]\14. Robert Plant - Big Log.wav" WAVE
  TRACK 14 AUDIO
    TITLE "Big Log"
    PERFORMER "Robert Plant"
    INDEX 01 00:00:00
FILE "VA - Power Ballads The Collection CD2 (2017) [Flac+.cue]\15. Chris Rea - Fool (If You Think It's Over).wav" WAVE
  TRACK 15 AUDIO
    TITLE "Fool (If You Think It's Over)"
    PERFORMER "Chris Rea"
    INDEX 01 00:00:00
FILE "VA - Power Ballads The Collection CD2 (2017) [Flac+.cue]\16. The Darkness - Love Is Only A Feeling.wav" WAVE
  TRACK 16 AUDIO
    TITLE "Love Is Only A Feeling"
    PERFORMER "The Darkness"
    INDEX 01 00:00:00
FILE "VA - Power Ballads The Collection CD2 (2017) [Flac+.cue]\17. ZZ Top - Rough Boy.wav" WAVE
  TRACK 17 AUDIO
    TITLE "Rough Boy"
    PERFORMER "ZZ Top"
    INDEX 01 00:00:00
FILE "VA - Power Ballads The Collection CD2 (2017) [Flac+.cue]\18. Uncle Kracker - Follow Me.wav" WAVE
  TRACK 18 AUDIO
    TITLE "Follow Me"
    PERFORMER "Uncle Kracker"
    INDEX 01 00:00:00

CD 3

Код:
REM GENRE Other
REM DATE 2017
REM DISCID FA10B112
REM COMMENT "ExactAudioCopy v1.1"
PERFORMER "Various Artists"
TITLE "Power Ballads The Collection CD3"
FILE "VA - Power Ballads The Collection CD3 (2017) [Flac+.cue]\01. Nickelback - How You Remind Me.wav" WAVE
  TRACK 01 AUDIO
    TITLE "How You Remind Me"
    PERFORMER "Nickelback"
    INDEX 01 00:00:00
FILE "VA - Power Ballads The Collection CD3 (2017) [Flac+.cue]\02. Chicago - If You Leave Me Now.wav" WAVE
  TRACK 02 AUDIO
    TITLE "If You Leave Me Now"
    PERFORMER "Chicago"
    INDEX 01 00:00:00
FILE "VA - Power Ballads The Collection CD3 (2017) [Flac+.cue]\03. Marc Cohn - Walking In Memphis.wav" WAVE
  TRACK 03 AUDIO
    TITLE "Walking In Memphis"
    PERFORMER "Marc Cohn"
    INDEX 01 00:00:00
FILE "VA - Power Ballads The Collection CD3 (2017) [Flac+.cue]\04. James Blunt - High.wav" WAVE
  TRACK 04 AUDIO
    TITLE "High"
    PERFORMER "James Blunt"
    INDEX 01 00:00:00
FILE "VA - Power Ballads The Collection CD3 (2017) [Flac+.cue]\05. Yes - Owner Of A Lonely Heart.wav" WAVE
  TRACK 05 AUDIO
    TITLE "Owner Of A Lonely Heart"
    PERFORMER "Yes"
    INDEX 01 00:00:00
FILE "VA - Power Ballads The Collection CD3 (2017) [Flac+.cue]\06. Royal Blood - Little Monster.wav" WAVE
  TRACK 06 AUDIO
    TITLE "Little Monster"
    PERFORMER "Royal Blood"
    INDEX 01 00:00:00
FILE "VA - Power Ballads The Collection CD3 (2017) [Flac+.cue]\07. Twisted Sister - I Wanna Rock.wav" WAVE
  TRACK 07 AUDIO
    TITLE "I Wanna Rock"
    PERFORMER "Twisted Sister"
    INDEX 01 00:00:00
FILE "VA - Power Ballads The Collection CD3 (2017) [Flac+.cue]\08. Marillion - Kayleigh.wav" WAVE
  TRACK 08 AUDIO
    TITLE "Kayleigh"
    PERFORMER "Marillion"
    INDEX 01 00:00:00
FILE "VA - Power Ballads The Collection CD3 (2017) [Flac+.cue]\09. The Cars - Drive.wav" WAVE
  TRACK 09 AUDIO
    TITLE "Drive"
    PERFORMER "The Cars"
    INDEX 01 00:00:00
FILE "VA - Power Ballads The Collection CD3 (2017) [Flac+.cue]\10. Donna Lewis - I Love You Always Forever.wav" WAVE
  TRACK 10 AUDIO
    TITLE "I Love You Always Forever"
    PERFORMER "Donna Lewis"
    INDEX 01 00:00:00
FILE "VA - Power Ballads The Collection CD3 (2017) [Flac+.cue]\11. Kate Bush - Babooshka.wav" WAVE
  TRACK 11 AUDIO
    TITLE "Babooshka"
    PERFORMER "Kate Bush"
    INDEX 01 00:00:00
FILE "VA - Power Ballads The Collection CD3 (2017) [Flac+.cue]\12. Andreas Johnson - Glorious.wav" WAVE
  TRACK 12 AUDIO
    TITLE "Glorious"
    PERFORMER "Andreas Johnson"
    INDEX 01 00:00:00
FILE "VA - Power Ballads The Collection CD3 (2017) [Flac+.cue]\13. Damn Yankees - High Enough.wav" WAVE
  TRACK 13 AUDIO
    TITLE "High Enough"
    PERFORMER "Damn Yankees"
    INDEX 01 00:00:00
FILE "VA - Power Ballads The Collection CD3 (2017) [Flac+.cue]\14. Christopher Cross - All Right.wav" WAVE
  TRACK 14 AUDIO
    TITLE "All Right"
    PERFORMER "Christopher Cross"
    INDEX 01 00:00:00
FILE "VA - Power Ballads The Collection CD3 (2017) [Flac+.cue]\15. K.D. Lang - Constant Craving (Edit Version).wav" WAVE
  TRACK 15 AUDIO
    TITLE "Constant Craving (Edit Version)"
    PERFORMER "K.D. Lang"
    INDEX 01 00:00:00
FILE "VA - Power Ballads The Collection CD3 (2017) [Flac+.cue]\16. Enuff Z'Nuff - Fly High Michelle.wav" WAVE
  TRACK 16 AUDIO
    TITLE "Fly High Michelle"
    PERFORMER "Enuff Z'Nuff"
    INDEX 01 00:00:00
FILE "VA - Power Ballads The Collection CD3 (2017) [Flac+.cue]\17. Shakespear's Sister - Stay.wav" WAVE
  TRACK 17 AUDIO
    TITLE "Stay"
    PERFORMER "Shakespear's Sister"
    INDEX 01 00:00:00
FILE "VA - Power Ballads The Collection CD3 (2017) [Flac+.cue]\18. Daryl Hall & John Oates - She's Gone.wav" WAVE
  TRACK 18 AUDIO
    TITLE "She's Gone"
    PERFORMER "Daryl Hall & John Oates"
    INDEX 01 00:00:00
--

_________________
Разница между теорией и практикой в том, что теоретически разницы между теорией и практикой нет, а на практике она есть.
[Профиль] [ЛС]
Показать сообщения:    

Текущее время: Сегодня 16:34

Часовой пояс: GMT + 3



Вы не можете начинать темы
Вы не можете отвечать на сообщения
Вы не можете редактировать свои сообщения
Вы не можете удалять свои сообщения
Вы не можете голосовать в опросах
Вы не можете прикреплять файлы к сообщениям
Вы не можете скачивать файлы