Золотые дни идет свободное скачивание без начисления Download
 

Офлайн

sergej644

Стаж:
5 лет 8 месяцев
Сообщений:
885

-Smokie - Greatest Hits vol.1 & vol.2 (2CD)
Год издания: 2017
Страна: UK
Жанр: Rock, Pop Rock, Soft Rock
Продолжительность: 02:33:47-Лейбл издания: Sony Music
Страна-выпуска диска: EU
Номер по каталогу: 88985321972-Формат: FLAC
Битрейт аудио: Lossless
Тип рипа: image +.cue
Наличие сканов в содержимом раздачи: да
-

Трэклист

CD vol.1 | 01:17:38


01. Lay Back In Your Arms Of Someone (4:07)
02. Something's Been Making Me Blue (3:01)
03. If You Think You Know How To Love Me (3:26)
04. Looking Daggers (3:45)
05. Pass It Around (3:06)
06. Rock Away Your Teardrops (3:47)
07. I'll Meet You At Midnight (3:17)
08. Number On My Wall (3:40)
09. Living Next Door To Alice (3:29)
10. Changing All The Time (3:23)
11. Hiding From The Night (3:48)
12. I'm In Love With You (3:30)
13. Don't Play Your Rock 'n' Roll To Me (3:19)
14. No More Letters (3:30)
15. Hearts Need Company (4:23)
16. Back To Bradford (2:44)
17. Wild Wild Angels (3:57)
18. Love Remains a Stranger (4:02)
19. Belinda (3:00)
20. Little Town Flirt (3:24)
21. If You Think You Know How To Love Me (3:05)
22. The Girl Can't Help It (3:55)

CD vol.2 | 01:16:08


01. It's Your Life (3:35)
02. Oh Carol (3:41)
03. Mexican Girl (3:59)
04. Umbrella Day (3:46)
05. Two Strangers Falling (3:42)
06. Baby It's You (3:51)
07. Stumblin' In (3:58)
08. Needles And Pins (2:45)
09. Jet Lagged (3:01)
10. Do To Me (3:19)
11. Oh Well, Oh Well (3:18)
12. Don't Throw It Away (3:27)
13. Babe It's Up To You (3:43)
14. Take Good Care Of My Baby (3:26)
15. San Francisco Bay (3:17)
16. Poor Lady (Midnight Baby) (4:43)
17. For A Few Dollars More (3:35)
18. Run To Me (4:13)
19. Hey Baby (2:55)
20. The Book (3:39)
21. What Can I Do? (Live, Bonus Tracks) (4:16)
-

Лог создания рипа

CD vol.1

Код:
Exact Audio Copy V1.0 beta 3 from 29. August 2011
EAC extraction logfile from 1. April 2017, 4:04
Smokie / Greatest Hits
Used drive  : PIONEER BD-RW   BDR-TD03   Adapter: 0  ID: 1
Read mode               : Secure
Utilize accurate stream : Yes
Defeat audio cache      : Yes
Make use of C2 pointers : No
Read offset correction                      : 667
Overread into Lead-In and Lead-Out          : No
Fill up missing offset samples with silence : Yes
Delete leading and trailing silent blocks   : No
Null samples used in CRC calculations       : Yes
Used interface                              : Native Win32 interface for Win NT & 2000
Used output format              : User Defined Encoder
Selected bitrate                : 768 kBit/s
Quality                         : High
Add ID3 tag                     : No
Command line compressor         : C:\Program Files (x86)\Exact Audio Copy\FLAC\FLAC.EXE
Additional command line options : -6 -V -T "ARTIST=%artist%" -T "TITLE=%title%" -T "ALBUM=%albumtitle%" -T "DATE=%year%" -T "TRACKNUMBER=%tracknr%" -T "GENRE=%genre%" -T "COMMENT=%comment%" -T "BAND=%albuminterpret%" -T "ALBUMARTIST=%albuminterpret%" -T "COMPOSER=%composer%" %haslyrics%--tag-from-file=LYRICS="%lyricsfile%"%haslyrics% -T "DISCNUMBER=%cdnumber%" -T "TOTALDISCS=%totalcds%" -T "TOTALTRACKS=%numtracks%" %hascover%--picture="%coverfile%"%hascover% %source% -o %dest%
TOC of the extracted CD
     Track |   Start  |  Length  | Start sector | End sector
    ---------------------------------------------------------
        1  |  0:00.00 |  4:07.00 |         0    |    18524
        2  |  4:07.00 |  3:01.31 |     18525    |    32130
        3  |  7:08.31 |  3:26.09 |     32131    |    47589
        4  | 10:34.40 |  3:45.29 |     47590    |    64493
        5  | 14:19.69 |  3:06.29 |     64494    |    78472
        6  | 17:26.23 |  3:46.70 |     78473    |    95492
        7  | 21:13.18 |  3:16.47 |     95493    |   110239
        8  | 24:29.65 |  3:40.32 |    110240    |   126771
        9  | 28:10.22 |  3:28.54 |    126772    |   142425
       10  | 31:39.01 |  3:22.64 |    142426    |   157639
       11  | 35:01.65 |  3:47.68 |    157640    |   174732
       12  | 38:49.58 |  3:30.19 |    174733    |   190501
       13  | 42:20.02 |  3:18.49 |    190502    |   205400
       14  | 45:38.51 |  3:30.24 |    205401    |   221174
       15  | 49:09.00 |  4:22.46 |    221175    |   240870
       16  | 53:31.46 |  2:43.70 |    240871    |   253165
       17  | 56:15.41 |  3:56.60 |    253166    |   270925
       18  | 60:12.26 |  4:02.19 |    270926    |   289094
       19  | 64:14.45 |  3:00.09 |    289095    |   302603
       20  | 67:14.54 |  3:24.24 |    302604    |   317927
       21  | 70:39.03 |  3:04.64 |    317928    |   331791
       22  | 73:43.67 |  3:54.46 |    331792    |   349387
Range status and errors
Selected range
     Filename C:\Users\Deris\Desktop\kpnemo.eu\Smokits1\Smokie - Greatest Hits.wav
     Peak level 100.0 %
     Extraction speed 5.2 X
     Range quality 100.0 %
     Test CRC 57D5B51A
     Copy CRC 57D5B51A
     Copy OK
No errors occurred
AccurateRip summary
Track  1  accurately ripped (confidence 1)  [55C7CF76]  (AR v2)
Track  2  accurately ripped (confidence 1)  [DFAFE6B0]  (AR v2)
Track  3  accurately ripped (confidence 1)  [B8AE09F3]  (AR v2)
Track  4  accurately ripped (confidence 1)  [0655722E]  (AR v2)
Track  5  accurately ripped (confidence 1)  [B7C315E1]  (AR v2)
Track  6  accurately ripped (confidence 1)  [B7E5BA3E]  (AR v2)
Track  7  accurately ripped (confidence 1)  [2D63FA53]  (AR v2)
Track  8  accurately ripped (confidence 1)  [EE5679A7]  (AR v2)
Track  9  accurately ripped (confidence 1)  [4FB2326E]  (AR v2)
Track 10  accurately ripped (confidence 1)  [792BD215]  (AR v2)
Track 11  accurately ripped (confidence 1)  [EE13F716]  (AR v2)
Track 12  accurately ripped (confidence 1)  [B6B7F0AC]  (AR v2)
Track 13  accurately ripped (confidence 1)  [2122783B]  (AR v2)
Track 14  accurately ripped (confidence 1)  [6555585B]  (AR v2)
Track 15  accurately ripped (confidence 1)  [914E3C5A]  (AR v2)
Track 16  accurately ripped (confidence 1)  [308B914B]  (AR v2)
Track 17  accurately ripped (confidence 1)  [4CE2AF26]  (AR v2)
Track 18  accurately ripped (confidence 1)  [543D8997]  (AR v2)
Track 19  accurately ripped (confidence 1)  [C182A329]  (AR v2)
Track 20  accurately ripped (confidence 1)  [3C63DF09]  (AR v2)
Track 21  accurately ripped (confidence 1)  [441B7AC4]  (AR v2)
Track 22  accurately ripped (confidence 1)  [9C80AEEA]  (AR v2)
All tracks accurately ripped
End of status report

CD vol.2

Код:
Exact Audio Copy V1.0 beta 3 from 29. August 2011
EAC extraction logfile from 1. April 2017, 21:49
Smokie / Greatest Hits Volume 2
Used drive  : PIONEER BD-RW   BDR-TD03   Adapter: 0  ID: 1
Read mode               : Secure
Utilize accurate stream : Yes
Defeat audio cache      : Yes
Make use of C2 pointers : No
Read offset correction                      : 667
Overread into Lead-In and Lead-Out          : No
Fill up missing offset samples with silence : Yes
Delete leading and trailing silent blocks   : No
Null samples used in CRC calculations       : Yes
Used interface                              : Native Win32 interface for Win NT & 2000
Used output format              : User Defined Encoder
Selected bitrate                : 768 kBit/s
Quality                         : High
Add ID3 tag                     : No
Command line compressor         : C:\Program Files (x86)\Exact Audio Copy\FLAC\FLAC.EXE
Additional command line options : -6 -V -T "ARTIST=%artist%" -T "TITLE=%title%" -T "ALBUM=%albumtitle%" -T "DATE=%year%" -T "TRACKNUMBER=%tracknr%" -T "GENRE=%genre%" -T "COMMENT=%comment%" -T "BAND=%albuminterpret%" -T "ALBUMARTIST=%albuminterpret%" -T "COMPOSER=%composer%" %haslyrics%--tag-from-file=LYRICS="%lyricsfile%"%haslyrics% -T "DISCNUMBER=%cdnumber%" -T "TOTALDISCS=%totalcds%" -T "TOTALTRACKS=%numtracks%" %hascover%--picture="%coverfile%"%hascover% %source% -o %dest%
TOC of the extracted CD
     Track |   Start  |  Length  | Start sector | End sector
    ---------------------------------------------------------
        1  |  0:00.00 |  3:34.50 |         0    |    16099
        2  |  3:34.50 |  3:40.44 |     16100    |    32643
        3  |  7:15.19 |  3:59.31 |     32644    |    50599
        4  | 11:14.50 |  3:46.08 |     50600    |    67557
        5  | 15:00.58 |  3:41.61 |     67558    |    84193
        6  | 18:42.44 |  3:50.69 |     84194    |   101512
        7  | 22:33.38 |  3:58.28 |    101513    |   119390
        8  | 26:31.66 |  2:45.02 |    119391    |   131767
        9  | 29:16.68 |  3:01.02 |    131768    |   145344
       10  | 32:17.70 |  3:18.71 |    145345    |   160265
       11  | 35:36.66 |  3:17.69 |    160266    |   175109
       12  | 38:54.60 |  3:27.10 |    175110    |   190644
       13  | 42:21.70 |  3:43.10 |    190645    |   207379
       14  | 46:05.05 |  3:25.51 |    207380    |   222805
       15  | 49:30.56 |  3:17.01 |    222806    |   237581
       16  | 52:47.57 |  4:42.50 |    237582    |   258781
       17  | 57:30.32 |  3:34.43 |    258782    |   274874
       18  | 61:05.00 |  4:12.65 |    274875    |   293839
       19  | 65:17.65 |  2:55.34 |    293840    |   306998
       20  | 68:13.24 |  3:39.11 |    306999    |   323434
       21  | 71:52.35 |  4:15.48 |    323435    |   342607
Range status and errors
Selected range
     Filename C:\Users\Deris\Desktop\kpnemo.eu\Smokits2\Smokie - Greatest Hits Volume 2.wav
     Peak level 99.5 %
     Extraction speed 5.1 X
     Range quality 100.0 %
     Test CRC DF8840A1
     Copy CRC DF8840A1
     Copy OK
No errors occurred
AccurateRip summary
Track  1  not present in database
Track  2  not present in database
Track  3  not present in database
Track  4  not present in database
Track  5  not present in database
Track  6  not present in database
Track  7  not present in database
Track  8  not present in database
Track  9  not present in database
Track 10  not present in database
Track 11  not present in database
Track 12  not present in database
Track 13  not present in database
Track 14  not present in database
Track 15  not present in database
Track 16  not present in database
Track 17  not present in database
Track 18  not present in database
Track 19  not present in database
Track 20  not present in database
Track 21  not present in database
None of the tracks are present in the AccurateRip database
End of status report

Индексная карта (non-compilant .cue)

CD vol.1

Код:
REM GENRE Rock
REM DATE 2017
REM DISCID 1F123216
REM COMMENT "ExactAudioCopy v1.0b3"
PERFORMER "Smokie"
TITLE "Greatest Hits"
FILE "Smokie - Greatest Hits.flac" WAVE
  TRACK 01 AUDIO
    TITLE "Lay Back In Your Arms Of Someone"
    PERFORMER "Smokie"
    INDEX 01 00:00:00
  TRACK 02 AUDIO
    TITLE "Something's Been Making Me Blue"
    PERFORMER "Smokie"
    INDEX 00 04:05:56
    INDEX 01 04:07:00
  TRACK 03 AUDIO
    TITLE "If You Think You Know How To Love Me"
    PERFORMER "Smokie"
    INDEX 00 07:06:50
    INDEX 01 07:08:31
  TRACK 04 AUDIO
    TITLE "Looking Daggers"
    PERFORMER "Smokie"
    INDEX 00 10:33:56
    INDEX 01 10:34:40
  TRACK 05 AUDIO
    TITLE "Pass It Around"
    PERFORMER "Smokie"
    INDEX 00 14:18:32
    INDEX 01 14:19:69
  TRACK 06 AUDIO
    TITLE "Rock Away Your Teardrops"
    PERFORMER "Smokie"
    INDEX 00 17:25:42
    INDEX 01 17:26:23
  TRACK 07 AUDIO
    TITLE "I'll Meet You At Midnight"
    PERFORMER "Smokie"
    INDEX 00 21:12:17
    INDEX 01 21:13:18
  TRACK 08 AUDIO
    TITLE "Number On My Wall"
    PERFORMER "Smokie"
    INDEX 00 24:28:52
    INDEX 01 24:29:65
  TRACK 09 AUDIO
    TITLE "Living Next Door To Alice"
    PERFORMER "Smokie"
    INDEX 00 28:09:03
    INDEX 01 28:10:22
  TRACK 10 AUDIO
    TITLE "Changing All The Time"
    PERFORMER "Smokie"
    INDEX 00 31:37:35
    INDEX 01 31:39:01
  TRACK 11 AUDIO
    TITLE "Hiding From The Night"
    PERFORMER "Smokie"
    INDEX 00 35:01:08
    INDEX 01 35:01:65
  TRACK 12 AUDIO
    TITLE "I'm In Love With You"
    PERFORMER "Smokie"
    INDEX 00 38:48:37
    INDEX 01 38:49:58
  TRACK 13 AUDIO
    TITLE "Don't Play Your Rock 'n' Roll To Me"
    PERFORMER "Smokie"
    INDEX 00 42:17:73
    INDEX 01 42:20:02
  TRACK 14 AUDIO
    TITLE "No More Letters"
    PERFORMER "Smokie"
    INDEX 00 45:37:57
    INDEX 01 45:38:51
  TRACK 15 AUDIO
    TITLE "Hearts Need Company"
    PERFORMER "Smokie"
    INDEX 00 49:07:14
    INDEX 01 49:09:00
  TRACK 16 AUDIO
    TITLE "Back To Bradford"
    PERFORMER "Smokie"
    INDEX 00 53:30:31
    INDEX 01 53:31:46
  TRACK 17 AUDIO
    TITLE "Wild Wild Angels"
    PERFORMER "Smokie"
    INDEX 00 56:14:01
    INDEX 01 56:15:41
  TRACK 18 AUDIO
    TITLE "Love Remains a Stranger"
    PERFORMER "Smokie"
    INDEX 00 60:11:53
    INDEX 01 60:12:26
  TRACK 19 AUDIO
    TITLE "Belinda"
    PERFORMER "Smokie"
    INDEX 00 64:13:17
    INDEX 01 64:14:45
  TRACK 20 AUDIO
    TITLE "Little Town Flirt"
    PERFORMER "Smokie"
    INDEX 00 67:13:63
    INDEX 01 67:14:54
  TRACK 21 AUDIO
    TITLE "If You Think You Know How To Love Me"
    PERFORMER "Smokie"
    INDEX 00 70:38:28
    INDEX 01 70:39:03
  TRACK 22 AUDIO
    TITLE "The Girl Can't Help It"
    PERFORMER "Smokie"
    INDEX 00 73:42:29
    INDEX 01 73:43:67

CD vol.2

Код:
REM GENRE Rock
REM DATE 2017
REM DISCID 4A11D815
REM COMMENT "ExactAudioCopy v1.0b3"
PERFORMER "Smokie"
TITLE "Greatest Hits Volume 2"
FILE "Smokie - Greatest Hits Volume 2.flac" WAVE
  TRACK 01 AUDIO
    TITLE "It's Your Life"
    PERFORMER "Smokie"
    INDEX 01 00:00:00
  TRACK 02 AUDIO
    TITLE "Oh Carol"
    PERFORMER "Smokie"
    INDEX 00 03:33:32
    INDEX 01 03:34:50
  TRACK 03 AUDIO
    TITLE "Mexican Girl"
    PERFORMER "Smokie"
    INDEX 00 07:13:60
    INDEX 01 07:15:19
  TRACK 04 AUDIO
    TITLE "Umbrella Day"
    PERFORMER "Smokie"
    INDEX 00 11:13:18
    INDEX 01 11:14:50
  TRACK 05 AUDIO
    TITLE "Two Strangers Falling"
    PERFORMER "Smokie"
    INDEX 00 14:59:03
    INDEX 01 15:00:58
  TRACK 06 AUDIO
    TITLE "Baby It's You"
    PERFORMER "Smokie"
    INDEX 00 18:41:10
    INDEX 01 18:42:44
  TRACK 07 AUDIO
    TITLE "Stumblin' In"
    PERFORMER "Smokie"
    INDEX 00 22:32:17
    INDEX 01 22:33:38
  TRACK 08 AUDIO
    TITLE "Needles And Pins"
    PERFORMER "Smokie"
    INDEX 00 26:30:18
    INDEX 01 26:31:66
  TRACK 09 AUDIO
    TITLE "Jet Lagged"
    PERFORMER "Smokie"
    INDEX 00 29:15:58
    INDEX 01 29:16:68
  TRACK 10 AUDIO
    TITLE "Do To Me"
    PERFORMER "Smokie"
    INDEX 00 32:15:22
    INDEX 01 32:17:70
  TRACK 11 AUDIO
    TITLE "Oh Well, Oh Well"
    PERFORMER "Smokie"
    INDEX 00 35:36:02
    INDEX 01 35:36:66
  TRACK 12 AUDIO
    TITLE "Don't Throw It Away"
    PERFORMER "Smokie"
    INDEX 00 38:53:21
    INDEX 01 38:54:60
  TRACK 13 AUDIO
    TITLE "Babe It's Up To You"
    PERFORMER "Smokie"
    INDEX 00 42:21:09
    INDEX 01 42:21:70
  TRACK 14 AUDIO
    TITLE "Take Good Care Of My Baby"
    PERFORMER "Smokie"
    INDEX 00 46:04:00
    INDEX 01 46:05:05
  TRACK 15 AUDIO
    TITLE "San Francisco Bay"
    PERFORMER "Smokie"
    INDEX 00 49:28:57
    INDEX 01 49:30:56
  TRACK 16 AUDIO
    TITLE "Poor Lady (Midnight Baby)"
    PERFORMER "Smokie"
    INDEX 00 52:46:24
    INDEX 01 52:47:57
  TRACK 17 AUDIO
    TITLE "For A Few Dollars More"
    PERFORMER "Smokie"
    INDEX 00 57:29:13
    INDEX 01 57:30:32
  TRACK 18 AUDIO
    TITLE "Run To Me"
    PERFORMER "Smokie"
    INDEX 00 61:03:47
    INDEX 01 61:05:00
  TRACK 19 AUDIO
    TITLE "Hey Baby"
    PERFORMER "Smokie"
    INDEX 00 65:16:24
    INDEX 01 65:17:65
  TRACK 20 AUDIO
    TITLE "The Book"
    PERFORMER "Smokie"
    INDEX 00 68:11:52
    INDEX 01 68:13:24
  TRACK 21 AUDIO
    TITLE "What Can I Do?"
    PERFORMER "Smokie"
    INDEX 00 71:50:50
    INDEX 01 71:52:35
-- --

_________________
Разница между теорией и практикой в том, что теоретически разницы между теорией и практикой нет, а на практике она есть.
[Профиль] [ЛС]
Показать сообщения:    

Текущее время: Сегодня 16:47

Часовой пояс: GMT + 3



Вы не можете начинать темы
Вы не можете отвечать на сообщения
Вы не можете редактировать свои сообщения
Вы не можете удалять свои сообщения
Вы не можете голосовать в опросах
Вы не можете прикреплять файлы к сообщениям
Вы не можете скачивать файлы