Золотые дни идет свободное скачивание без начисления Download
 

Офлайн

sergej644

Стаж:
5 лет 1 месяц
Сообщений:
814

-Brian May & Kerry Ellis - Golden Days--
Год издания: 2017
Страна: UK
Жанр: Rock
Продолжительность: 00:48:39-Лейбл издания: Sony Music
Страна-выпуска диска: EU
Номер по каталогу: 88985425362-Формат: FLAC
Битрейт аудио: Lossless
Тип рипа: image +.cue
Наличие сканов в содержимом раздачи: да
-

Трэклист


01. Brian May & Kerry Ellis - Love In A Rainbow (4:30)
02. Brian May & Kerry Ellis - Roll With You (3:55)
03. Brian May & Kerry Ellis - Golden Days (4:22)
04. Brian May & Kerry Ellis - It's Gonna Be All Right (The Panic Attack Song) (3:46)
05. Brian May & Kerry Ellis - Amazing Grace (2:48)
06. Brian May & Kerry Ellis - One Voice (3:22)
07. Brian May & Kerry Ellis - If I Loved You (3:33)
08. Brian May & Kerry Ellis - Born Free (3:11)
09. Brian May & Kerry Ellis - Parisienne Walkways (3:44)
10. Brian May & Kerry Ellis - I Who Have Nothing (4:08)
11. Brian May & Kerry Ellis - The Kissing Me Song (3:43)
12. Brian May & Kerry Ellis - Story Of A Heart (4:23)
13. Brian May & Kerry Ellis - Can't Help Falling In Love (3:13)
-

Лог создания рипа

Код:
Exact Audio Copy V1.1 from 23. June 2015
EAC extraction logfile from 10. April 2017, 22:26
Brian May & Kerry Ellis / Golden Days
Used drive  : PIONEER DVD-RW  DVR-219L   Adapter: 1  ID: 0
Read mode               : Secure
Utilize accurate stream : Yes
Defeat audio cache      : Yes
Make use of C2 pointers : No
Read offset correction                      : 6
Overread into Lead-In and Lead-Out          : No
Fill up missing offset samples with silence : Yes
Delete leading and trailing silent blocks   : No
Null samples used in CRC calculations       : Yes
Used interface                              : Installed external ASPI interface
Used output format : Internal WAV Routines
Sample format      : 44.100 Hz; 16 Bit; Stereo
TOC of the extracted CD
     Track |   Start  |  Length  | Start sector | End sector
    ---------------------------------------------------------
        1  |  0:00.00 |  4:30.09 |         0    |    20258
        2  |  4:30.09 |  3:54.73 |     20259    |    37881
        3  |  8:25.07 |  4:21.65 |     37882    |    57521
        4  | 12:46.72 |  3:45.65 |     57522    |    74461
        5  | 16:32.62 |  2:48.32 |     74462    |    87093
        6  | 19:21.19 |  3:21.38 |     87094    |   102206
        7  | 22:42.57 |  3:33.36 |    102207    |   118217
        8  | 26:16.18 |  3:11.33 |    118218    |   132575
        9  | 29:27.51 |  3:43.73 |    132576    |   149373
       10  | 33:11.49 |  4:07.60 |    149374    |   167958
       11  | 37:19.34 |  3:43.31 |    167959    |   184714
       12  | 41:02.65 |  4:22.62 |    184715    |   204426
       13  | 45:25.52 |  3:13.22 |    204427    |   218923
Range status and errors
Selected range
     Filename D:\EAC Rip\ALEXXX & Co\Brian May & Kerry Ellis - Golden Days\Brian May & Kerry Ellis - Golden Days.wav
     Peak level 100.0 %
     Extraction speed 6.3 X
     Range quality 100.0 %
     Test CRC 5876448E
     Copy CRC 5876448E
     Copy OK
No errors occurred
AccurateRip summary
Track  1  not present in database
Track  2  not present in database
Track  3  not present in database
Track  4  not present in database
Track  5  not present in database
Track  6  not present in database
Track  7  not present in database
Track  8  not present in database
Track  9  not present in database
Track 10  not present in database
Track 11  not present in database
Track 12  not present in database
Track 13  not present in database
None of the tracks are present in the AccurateRip database
End of status report

Индексная карта (non-compilant .cue)

Код:
REM GENRE Rock
REM DATE 2017
REM DISCID CA0B660D
REM COMMENT "ExactAudioCopy v1.1"
PERFORMER "Brian May & Kerry Ellis"
TITLE "Golden Days"
FILE "Brian May & Kerry Ellis - Golden Days.wav" WAVE
  TRACK 01 AUDIO
    TITLE "Love In A Rainbow"
    PERFORMER "Brian May & Kerry Ellis"
    INDEX 01 00:00:00
  TRACK 02 AUDIO
    TITLE "Roll With You"
    PERFORMER "Brian May & Kerry Ellis"
    INDEX 01 04:30:09
  TRACK 03 AUDIO
    TITLE "Golden Days"
    PERFORMER "Brian May & Kerry Ellis"
    INDEX 01 08:25:07
  TRACK 04 AUDIO
    TITLE "It's Gonna Be All Right (The Panic Attack Song)"
    PERFORMER "Brian May & Kerry Ellis"
    INDEX 01 12:46:72
  TRACK 05 AUDIO
    TITLE "Amazing Grace"
    PERFORMER "Brian May & Kerry Ellis"
    INDEX 01 16:32:62
  TRACK 06 AUDIO
    TITLE "One Voice"
    PERFORMER "Brian May & Kerry Ellis"
    INDEX 01 19:21:19
  TRACK 07 AUDIO
    TITLE "If I Loved You"
    PERFORMER "Brian May & Kerry Ellis"
    INDEX 01 22:42:57
  TRACK 08 AUDIO
    TITLE "Born Free"
    PERFORMER "Brian May & Kerry Ellis"
    INDEX 01 26:16:18
  TRACK 09 AUDIO
    TITLE "Parisienne Walkways"
    PERFORMER "Brian May & Kerry Ellis"
    INDEX 01 29:27:51
  TRACK 10 AUDIO
    TITLE "I Who Have Nothing"
    PERFORMER "Brian May & Kerry Ellis"
    INDEX 01 33:11:49
  TRACK 11 AUDIO
    TITLE "The Kissing Me Song"
    PERFORMER "Brian May & Kerry Ellis"
    INDEX 01 37:19:34
  TRACK 12 AUDIO
    TITLE "Story Of A Heart"
    PERFORMER "Brian May & Kerry Ellis"
    INDEX 01 41:02:65
  TRACK 13 AUDIO
    TITLE "Can't Help Falling In Love"
    PERFORMER "Brian May & Kerry Ellis"
    INDEX 01 45:25:52

Информация об альбоме:

Все, что выходит под брендом Brian May само по себе предполагает высокий уровень качества. Именно это, похоже, было главной мотивацией для появления «нового» альбома знаменитого гитариста. Этот релиз — продолжение сотрудничества экс-участника группы Queen и его протеже, вокалистки Керри Эллис.
Их первая совместная работа, альбом «Anthems» 5 лет назад представил Эллис, с которой Мэй сотрудничает с начала нулевых, как способную вокалистку, но на половину состоял из песен других авторов.
«Golden Days» продолжает линию. Оригинальных песен здесь лишь четыре, остальной материал — кавер-версии мировых хитов в виде клишированного поп-рока для adult-аудитории, который станет неплохим музыкальным сопровождением для ресторанов уровня premium и на который не стыдно сходить всей семьей.
Эллис, как принято говорить, «молодая» (в свои 37) певица начала карьеру почти 20 лет назад. Она «засветилась» в мюзикле We Will Rock You и играла на одной сцене вместе с Мэем и Тэйлором еще в 2003 году. Ее видение мировых поп-хитов на «Golden Days» отличается театральностью и склонностью к излишнему интонированию. Голос Эллис звучит фальшиво, но не в техническом смысле, а по интонациям, которые выдают исполнительницу мюзиклов с многолетним стажем — неестественно и по-театральному экзальтированно.
--

_________________
Разница между теорией и практикой в том, что теоретически разницы между теорией и практикой нет, а на практике она есть.
[Профиль] [ЛС]
Показать сообщения:    

Текущее время: Сегодня 03:19

Часовой пояс: GMT + 3



Вы не можете начинать темы
Вы не можете отвечать на сообщения
Вы не можете редактировать свои сообщения
Вы не можете удалять свои сообщения
Вы не можете голосовать в опросах
Вы не можете прикреплять файлы к сообщениям
Вы не можете скачивать файлы