Золотые дни идет свободное скачивание без начисления Download
 

Офлайн

sergej644

Стаж:
5 лет 11 месяцев
Сообщений:
892

-Gotthard - Silver--
Год издания: 2017
Страна: Switzerland
Жанр: Hard Rock
Продолжительность: 00:56:11-Лейбл издания: G. Records
Страна-выпуска диска: Austria
Номер по каталогу: G042 INT-Формат: FLAC
Битрейт аудио: Lossless
Тип рипа: image +.cue
Наличие сканов в содержимом раздачи: да
-

Трэклист


01. Silver River (3:40)
02. Electrified (4:01)
03. Stay with Me (4:00)
04. Beautiful (3:53)
05. Everything Inside (3:50)
06. Reason for this (3:14)
07. Not fooling Anyone (2:58)
08. Miss Me (3:51)
09. Tequila Symphony No. 5 (4:13)
10. Why (3:28)
11. Only Love is Real (3:27)
12. My oh My (4:47)
13. Blame on Me (3:28)
14. Walk On (3:37)
15. Customized Lovin (3:44)
-

Лог создания рипа

Код:
Exact Audio Copy V1.0 beta 4 from 7. December 2014
EAC extraction logfile from 18. January 2017, 18:23
Gotthard / Silver
Used drive  : HL-DT-STDVDRAM GU40N   Adapter: 0  ID: 1
Read mode               : Secure
Utilize accurate stream : Yes
Defeat audio cache      : Yes
Make use of C2 pointers : No
Read offset correction                      : 103
Overread into Lead-In and Lead-Out          : No
Fill up missing offset samples with silence : Yes
Delete leading and trailing silent blocks   : No
Null samples used in CRC calculations       : Yes
Used interface                              : Installed external ASPI interface
Used output format              : User Defined Encoder
Selected bitrate                : 1024 kBit/s
Quality                         : High
Add ID3 tag                     : No
Command line compressor         : C:\Program Files (x86)\AudioConverter\AudioConverter.exe
Additional command line options : FLAC
TOC of the extracted CD
     Track |   Start  |  Length  | Start sector | End sector
    ---------------------------------------------------------
        1  |  0:00.00 |  3:39.51 |         0    |    16475
        2  |  3:39.51 |  4:00.44 |     16476    |    34519
        3  |  7:40.20 |  4:00.03 |     34520    |    52522
        4  | 11:40.23 |  3:52.66 |     52523    |    69988
        5  | 15:33.14 |  3:50.24 |     69989    |    87262
        6  | 19:23.38 |  3:14.26 |     87263    |   101838
        7  | 22:37.64 |  2:57.42 |    101839    |   115155
        8  | 25:35.31 |  3:51.27 |    115156    |   132507
        9  | 29:26.58 |  4:12.38 |    132508    |   151445
       10  | 33:39.21 |  3:28.05 |    151446    |   167050
       11  | 37:07.26 |  3:27.18 |    167051    |   182593
       12  | 40:34.44 |  4:47.01 |    182594    |   204119
       13  | 45:21.45 |  3:27.61 |    204120    |   219705
       14  | 48:49.31 |  3:37.07 |    219706    |   235987
       15  | 52:26.38 |  3:44.09 |    235988    |   252796
Range status and errors
Selected range
     Filename C:\Users\workutagin\Desktop\Gotthard -Silver 2017\Gotthard - Silver.wav
     Peak level 94.2 %
     Extraction speed 2.1 X
     Range quality 100.0 %
     Test CRC 848FC892
     Copy CRC 848FC892
     Copy OK
No errors occurred
AccurateRip summary
Track  1  not present in database
Track  2  not present in database
Track  3  not present in database
Track  4  not present in database
Track  5  not present in database
Track  6  not present in database
Track  7  not present in database
Track  8  not present in database
Track  9  not present in database
Track 10  not present in database
Track 11  not present in database
Track 12  not present in database
Track 13  not present in database
Track 14  not present in database
Track 15  not present in database
None of the tracks are present in the AccurateRip database
End of status report

Индексная карта (non-compilant .cue)

Код:
REM GENRE "Hard Rock"
REM DATE 2017
REM DISCID C20D2A0F
REM COMMENT "ExactAudioCopy v1.0b4"
PERFORMER "Gotthard"
TITLE "Silver"
FILE "Gotthard - Silver.flac" WAVE
  TRACK 01 AUDIO
    TITLE "Silver River"
    PERFORMER "Gotthard"
    INDEX 01 00:00:00
  TRACK 02 AUDIO
    TITLE "Electrified"
    PERFORMER "Gotthard"
    INDEX 01 03:39:51
  TRACK 03 AUDIO
    TITLE "Stay with Me"
    PERFORMER "Gotthard"
    INDEX 01 07:40:20
  TRACK 04 AUDIO
    TITLE "Beautiful"
    PERFORMER "Gotthard"
    INDEX 00 11:39:21
    INDEX 01 11:40:23
  TRACK 05 AUDIO
    TITLE "Everything Inside"
    PERFORMER "Gotthard"
    INDEX 01 15:33:14
  TRACK 06 AUDIO
    TITLE "Reason for this"
    PERFORMER "Gotthard"
    INDEX 00 19:22:34
    INDEX 01 19:23:38
  TRACK 07 AUDIO
    TITLE "Not fooling Anyone"
    PERFORMER "Gotthard"
    INDEX 00 22:36:21
    INDEX 01 22:37:64
  TRACK 08 AUDIO
    TITLE "Miss Me"
    PERFORMER "Gotthard"
    INDEX 01 25:35:31
  TRACK 09 AUDIO
    TITLE "Tequila Symphony No. 5"
    PERFORMER "Gotthard"
    INDEX 01 29:26:58
  TRACK 10 AUDIO
    TITLE "Why"
    PERFORMER "Gotthard"
    INDEX 00 33:38:04
    INDEX 01 33:39:21
  TRACK 11 AUDIO
    TITLE "Only Love is Real"
    PERFORMER "Gotthard"
    INDEX 00 37:06:25
    INDEX 01 37:07:26
  TRACK 12 AUDIO
    TITLE "My oh My"
    PERFORMER "Gotthard"
    INDEX 01 40:34:44
  TRACK 13 AUDIO
    TITLE "Blame on Me"
    PERFORMER "Gotthard"
    INDEX 01 45:21:45
  TRACK 14 AUDIO
    TITLE "Walk On"
    PERFORMER "Gotthard"
    INDEX 00 48:47:62
    INDEX 01 48:49:31
  TRACK 15 AUDIO
    TITLE "Customized Lovin"
    PERFORMER "Gotthard"
    INDEX 01 52:26:38
--

_________________
Разница между теорией и практикой в том, что теоретически разницы между теорией и практикой нет, а на практике она есть.
[Профиль] [ЛС]
Показать сообщения:    

Текущее время: Сегодня 13:07

Часовой пояс: GMT + 3



Вы не можете начинать темы
Вы не можете отвечать на сообщения
Вы не можете редактировать свои сообщения
Вы не можете удалять свои сообщения
Вы не можете голосовать в опросах
Вы не можете прикреплять файлы к сообщениям
Вы не можете скачивать файлы