Золотые дни идет свободное скачивание без начисления Download
 

Офлайн

sergej644

Стаж:
5 лет 1 месяц
Сообщений:
818

-The Alan Parsons Project - Eye In The Sky (35th Anniversary) (3CD)--
Год издания: 2017
Страна: UK
Жанр: Art Rock, Prog Rock, Symphonic Rock
Продолжительность: 03:10:48-Лейбл издания: Arista
Страна-выпуска диска: UK -Формат: FLAC
Битрейт аудио: Lossless
Тип рипа: image +.cue
Наличие сканов в содержимом раздачи: front
-

Трэклист

CD 1 | Original Album & Expanded Bonus Tracks | 01:17:19


01. Sirius (1:47)
02. Eye In The Sky (4:45)
03. Children Of The Moon (4:51)
04. Gemini (2:10)
05. Silence And I (7:24)
06. You're Gonna Get Your Fingers Burned (4:22)
07. Psychobabble (4:53)
08. Mammagamma (3:34)
09. Step By Step (3:55)
10. Old And Wise (5:05)
11. Sirius (Demo) (1:56)
12. Old And Wise (Eric Woolfson Vocal) (4:34)
13. Any Other Day (Studio Demo) (1:43)
14. Silence And I (Eric Woolfson Vocal) (7:36)
15. The Naked Eye (10:50)
16. Eye Pieces (Classical Naked Eye) (7:52)

CD 2 | Eric Woolfson’s Songwriting Diaries | 00:47:49


01. Eye In The Sky (Eric's Songwriting Diary 1) (2:47)
02. Eye In The Sky (Eric's Songwriting Diary 2) (4:31)
03. Eye In The Sky (Eric's Songwriting Diary 3) (1:47)
04. Eye In The Sky (Eric's Songwriting Diary 4) (1:24)
05. Children Of The Moon (Eric's Songwriting Diary 1) (2:25)
06. Children Of The Moon (Eric's Songwriting Diary 2) (2:36)
07. Gemini (Eric's Songwriting Diary 1) (0:42)
08. Gemini (Eric's Songwriting Diary 2) (0:37)
09. Gemini (Eric's Songwriting Diary 3) (1:39)
10. Gemini & Silence And I (Eric's Songwriting Diary) (1:25)
11. Silence And I (Eric's Songwriting Diary) (6:06)
12. Cooper's Theme - Silence And I (Chord Beginnings - Eric's Songwriting Diary) (3:03)
13. Cooper's Theme - Silence And I (Beginnings - Eric's Songwriting Diary) (3:09)
14. Silence And I - Fly Away (Eric's Songwriting Diary 1) (2:16)
15. Silence And I - Fly Away (Eric's Songwriting Diary 1) (5:24)
16. Old And Wise (Eric's Songwriting Diary 1) (1:42)
17. Old And Wise (Eric's Songwriting Diary 2) (4:27)
18. Old And Wise (Eric's Songwriting Diary 3) (1:48)

CD 3 | Previously Unreleased Bonus Material | 01:05:40


01. Eye In The Sky (Ian 12-string Acoustic Guitar Out Take) (4:22)
02. Sirius & Eye In The Sky (Early Rough Mix) (6:05)
03. Eye In The Sky (Eric Demo Verses - No Lyrics) (1:37)
04. Chlidren Of The Moon (12-string Acoustic Guitar & Marching Band Snare Drum) (4:23)
05. Children Of The Moon (Early Rough Mix With Eric Demo Vocal) (4:34)
06. Gemini (Chris Rainbow Vocal Harmonies) (1:01)
07. Silence And I (Orchestral Take With Eric Demo) (7:46)
08. You're Gonna Get Your Fingers Burned (Rough Mix Section - Different Guitar Solo) (1:03)
09. You're Gonna Get Your Fingers Burned (Rough Mix With Alan Demo Vocal - Few Ly... (4:33)
10. Psychobabble (Orchestral Take) (1:03)
11. Psychobabble (Rough Mix With Eric Demo Vocal) (4:35)
12. Step By Step (12-string Acoustic Guitars) (3:59)
13. Step By Step (Rough Mix Backing Track - Extended Intro) (4:17)
14. Old And Wise (Chris Rainbow Beach Boys Experiment) (0:54)
15. Old And Wise (Eric Piano Track) (3:29)
16. Eye In The Sky (Single Edit) (3:58)
17. Old And Wise (Single Edit) (4:16)
18. Psychobabble (Single Edit) (3:46)
-

Лог создания рипа

CD 1

Код:
Exact Audio Copy V1.3 from 2. September 2016
EAC extraction logfile from 16. December 2017, 6:57
The Alan Parsons Project / Eye In The Sky (35th Anniversary Boxset)
Used drive  : PLDS    DVD+-RW DH-16ABS   Adapter: 1  ID: 0
Read mode               : Secure
Utilize accurate stream : Yes
Defeat audio cache      : Yes
Make use of C2 pointers : No
Read offset correction                      : 0
Overread into Lead-In and Lead-Out          : No
Fill up missing offset samples with silence : Yes
Delete leading and trailing silent blocks   : No
Null samples used in CRC calculations       : Yes
Used interface                              : Native Win32 interface for Win NT & 2000
Used output format              : User Defined Encoder
Selected bitrate                : 1024 kBit/s
Quality                         : High
Add ID3 tag                     : No
Command line compressor         : C:\Program Files (x86)\Exact Audio Copy\Flac\flac.exe
TOC of the extracted CD
     Track |   Start  |  Length  | Start sector | End sector
    ---------------------------------------------------------
        1  |  0:00.00 |  1:47.03 |         0    |     8027
        2  |  1:47.03 |  4:44.61 |      8028    |    29388
        3  |  6:31.64 |  4:51.31 |     29389    |    51244
        4  | 11:23.20 |  2:10.11 |     51245    |    61005
        5  | 13:33.31 |  7:24.21 |     61006    |    94326
        6  | 20:57.52 |  4:21.68 |     94327    |   113969
        7  | 25:19.45 |  4:52.47 |    113970    |   135916
        8  | 30:12.17 |  3:34.33 |    135917    |   151999
        9  | 33:46.50 |  3:55.01 |    152000    |   169625
       10  | 37:41.51 |  5:04.45 |    169626    |   192470
       11  | 42:46.21 |  1:56.16 |    192471    |   201186
       12  | 44:42.37 |  4:34.19 |    201187    |   221755
       13  | 49:16.56 |  1:43.23 |    221756    |   229503
       14  | 51:00.04 |  7:36.18 |    229504    |   263721
       15  | 58:36.22 | 10:50.15 |    263722    |   312486
       16  | 69:26.37 |  7:52.23 |    312487    |   347909
Range status and errors
Selected range
     Filename I:\Demonoid\The Alan Parsons Project - Eye In The Sky (35th Anniversary Boxset)\CD 1\The Alan Parsons Project - Eye In The Sky (CD 1).wav
     Peak level 100.0 %
     Extraction speed 6.2 X
     Range quality 100.0 %
     Copy CRC 29A45CA5
     Copy OK
No errors occurred
End of status report
---- CUETools DB Plugin V2.1.6
[CTDB TOCID: sIq_A2siTda96yMXPblRXcg.zho-] found
Submit result: sIq_A2siTda96yMXPblRXcg.zho- has been confirmed
Track | CTDB Status
  1   | (12/12) Accurately ripped
  2   | (12/12) Accurately ripped
  3   | (12/12) Accurately ripped
  4   | (12/12) Accurately ripped
  5   | (12/12) Accurately ripped
  6   | (12/12) Accurately ripped
  7   | (12/12) Accurately ripped
  8   | (12/12) Accurately ripped
  9   | (12/12) Accurately ripped
10   | (12/12) Accurately ripped
11   | (12/12) Accurately ripped
12   | (12/12) Accurately ripped
13   | (12/12) Accurately ripped
14   | (12/12) Accurately ripped
15   | (12/12) Accurately ripped
16   | (12/12) Accurately ripped

CD 2

Код:
Exact Audio Copy V1.3 from 2. September 2016
EAC extraction logfile from 16. December 2017, 7:17
Alan Parsons Project / Eye In The Sky (35th Anniversary Edition - CD 2)
Used drive  : PLDS    DVD+-RW DH-16ABS   Adapter: 1  ID: 0
Read mode               : Secure
Utilize accurate stream : Yes
Defeat audio cache      : Yes
Make use of C2 pointers : No
Read offset correction                      : 0
Overread into Lead-In and Lead-Out          : No
Fill up missing offset samples with silence : Yes
Delete leading and trailing silent blocks   : No
Null samples used in CRC calculations       : Yes
Used interface                              : Native Win32 interface for Win NT & 2000
Used output format              : User Defined Encoder
Selected bitrate                : 1024 kBit/s
Quality                         : High
Add ID3 tag                     : No
Command line compressor         : C:\Program Files (x86)\Exact Audio Copy\Flac\flac.exe
TOC of the extracted CD
     Track |   Start  |  Length  | Start sector | End sector
    ---------------------------------------------------------
        1  |  0:00.00 |  2:47.00 |         0    |    12524
        2  |  2:47.00 |  4:30.42 |     12525    |    32816
        3  |  7:17.42 |  1:47.26 |     32817    |    40867
        4  |  9:04.68 |  1:24.22 |     40868    |    47189
        5  | 10:29.15 |  2:24.63 |     47190    |    58052
        6  | 12:54.03 |  2:36.02 |     58053    |    69754
        7  | 15:30.05 |  0:42.26 |     69755    |    72930
        8  | 16:12.31 |  0:36.61 |     72931    |    75691
        9  | 16:49.17 |  1:38.72 |     75692    |    83113
       10  | 18:28.14 |  1:25.33 |     83114    |    89521
       11  | 19:53.47 |  6:05.39 |     89522    |   116935
       12  | 25:59.11 |  3:02.40 |    116936    |   130625
       13  | 29:01.51 |  3:09.08 |    130626    |   144808
       14  | 32:10.59 |  2:16.06 |    144809    |   155014
       15  | 34:26.65 |  5:24.17 |    155015    |   179331
       16  | 39:51.07 |  1:42.25 |    179332    |   187006
       17  | 41:33.32 |  4:27.17 |    187007    |   207048
       18  | 46:00.49 |  1:47.69 |    207049    |   215142
Range status and errors
Selected range
     Filename I:\Demonoid\The Alan Parsons Project - Eye In The Sky (35th Anniversary Boxset)\CD 2\Alan Parsons Project - Eye In The Sky (CD 2).wav
     Peak level 100.0 %
     Extraction speed 5.0 X
     Range quality 100.0 %
     Copy CRC 9C956032
     Copy OK
No errors occurred
End of status report
---- CUETools DB Plugin V2.1.6
[CTDB TOCID: bk6hz198Ne.UOAz8Wn5MEFqcO0w-] found
Submit result: bk6hz198Ne.UOAz8Wn5MEFqcO0w- has been confirmed
Track | CTDB Status
  1   | (8/8) Accurately ripped
  2   | (8/8) Accurately ripped
  3   | (8/8) Accurately ripped
  4   | (8/8) Accurately ripped
  5   | (8/8) Accurately ripped
  6   | (8/8) Accurately ripped
  7   | (8/8) Accurately ripped
  8   | (8/8) Accurately ripped
  9   | (8/8) Accurately ripped
10   | (8/8) Accurately ripped
11   | (8/8) Accurately ripped
12   | (8/8) Accurately ripped
13   | (8/8) Accurately ripped
14   | (8/8) Accurately ripped
15   | (8/8) Accurately ripped
16   | (8/8) Accurately ripped
17   | (8/8) Accurately ripped
18   | (8/8) Accurately ripped

CD 3

Код:
Exact Audio Copy V1.3 from 2. September 2016
EAC extraction logfile from 16. December 2017, 8:18
Alan Parsons Project / Eye In The Sky (35th Anniversary Edition - CD 3)
Used drive  : PLDS    DVD+-RW DH-16ABS   Adapter: 1  ID: 0
Read mode               : Secure
Utilize accurate stream : Yes
Defeat audio cache      : Yes
Make use of C2 pointers : No
Read offset correction                      : 0
Overread into Lead-In and Lead-Out          : No
Fill up missing offset samples with silence : Yes
Delete leading and trailing silent blocks   : No
Null samples used in CRC calculations       : Yes
Used interface                              : Native Win32 interface for Win NT & 2000
Used output format              : User Defined Encoder
Selected bitrate                : 1024 kBit/s
Quality                         : High
Add ID3 tag                     : No
Command line compressor         : C:\Program Files (x86)\Exact Audio Copy\Flac\flac.exe
TOC of the extracted CD
     Track |   Start  |  Length  | Start sector | End sector
    ---------------------------------------------------------
        1  |  0:00.00 |  4:21.54 |         0    |    19628
        2  |  4:21.54 |  6:04.71 |     19629    |    46999
        3  | 10:26.50 |  1:37.14 |     47000    |    54288
        4  | 12:03.64 |  4:22.64 |     54289    |    74002
        5  | 16:26.53 |  4:33.67 |     74003    |    94544
        6  | 21:00.45 |  1:01.31 |     94545    |    99150
        7  | 22:02.01 |  7:45.47 |     99151    |   134072
        8  | 29:47.48 |  1:02.43 |    134073    |   138765
        9  | 30:50.16 |  4:32.68 |    138766    |   159233
       10  | 35:23.09 |  1:02.53 |    159234    |   163936
       11  | 36:25.62 |  4:35.31 |    163937    |   184592
       12  | 41:01.18 |  3:58.74 |    184593    |   202516
       13  | 45:00.17 |  4:16.50 |    202517    |   221766
       14  | 49:16.67 |  0:53.63 |    221767    |   225804
       15  | 50:10.55 |  3:28.42 |    225805    |   241446
       16  | 53:39.22 |  3:58.37 |    241447    |   259333
       17  | 57:37.59 |  4:15.71 |    259334    |   278529
       18  | 61:53.55 |  3:46.35 |    278530    |   295514
Range status and errors
Selected range
     Filename I:\Demonoid\The Alan Parsons Project - Eye In The Sky (35th Anniversary Boxset)\CD 3\Alan Parsons Project - Eye In The Sky (CD 3).wav
     Peak level 97.6 %
     Extraction speed 5.4 X
     Range quality 99.9 %
     Copy CRC 7EDB80C4
     Copy OK
No errors occurred
End of status report
---- CUETools DB Plugin V2.1.6
[CTDB TOCID: iROc7jPftHAue4gw0e4Kk9b82Ds-] found
Submit result: iROc7jPftHAue4gw0e4Kk9b82Ds- has been confirmed
Track | CTDB Status
  1   | (7/7) Accurately ripped
  2   | (7/7) Accurately ripped
  3   | (7/7) Accurately ripped
  4   | (7/7) Accurately ripped
  5   | (7/7) Accurately ripped
  6   | (7/7) Accurately ripped
  7   | (7/7) Accurately ripped
  8   | (7/7) Accurately ripped
  9   | (7/7) Accurately ripped
10   | (7/7) Accurately ripped
11   | (7/7) Accurately ripped
12   | (7/7) Accurately ripped
13   | (7/7) Accurately ripped
14   | (7/7) Accurately ripped
15   | (7/7) Accurately ripped
16   | (7/7) Accurately ripped
17   | (7/7) Accurately ripped
18   | (7/7) Accurately ripped

Индексная карта (non-compilant .cue)

CD 1

Код:
REM GENRE "Progressive Rock"
REM DATE 2017
REM DISCID ED121E10
REM COMMENT "ExactAudioCopy v1.3"
PERFORMER "The Alan Parsons Project"
TITLE "Eye In The Sky (35th Anniversary Boxset)"
REM COMPOSER "Eric Woolfson & Alan Parsons"
FILE "The Alan Parsons Project - Eye In The Sky (CD 1).flac" WAVE
  TRACK 01 AUDIO
    TITLE "Sirius"
    PERFORMER "The Alan Parsons Project"
    REM COMPOSER "Eric Woolfson & Alan Parsons"
    INDEX 01 00:00:00
  TRACK 02 AUDIO
    TITLE "Eye In The Sky"
    PERFORMER "The Alan Parsons Project"
    REM COMPOSER "Eric Woolfson & Alan Parsons"
    INDEX 01 01:47:03
  TRACK 03 AUDIO
    TITLE "Children Of The Moon"
    PERFORMER "The Alan Parsons Project"
    REM COMPOSER "Eric Woolfson & Alan Parsons"
    INDEX 01 06:31:64
  TRACK 04 AUDIO
    TITLE "Gemini"
    PERFORMER "The Alan Parsons Project"
    REM COMPOSER "Eric Woolfson & Alan Parsons"
    INDEX 01 11:23:20
  TRACK 05 AUDIO
    TITLE "Silence And I"
    PERFORMER "The Alan Parsons Project"
    REM COMPOSER "Eric Woolfson & Alan Parsons"
    INDEX 01 13:33:31
  TRACK 06 AUDIO
    TITLE "You're Gonna Get Your Fingers Burned"
    PERFORMER "The Alan Parsons Project"
    REM COMPOSER "Eric Woolfson & Alan Parsons"
    INDEX 01 20:57:52
  TRACK 07 AUDIO
    TITLE "Psychobabble"
    PERFORMER "The Alan Parsons Project"
    REM COMPOSER "Eric Woolfson & Alan Parsons"
    INDEX 01 25:19:45
  TRACK 08 AUDIO
    TITLE "Mammagamma"
    PERFORMER "The Alan Parsons Project"
    REM COMPOSER "Eric Woolfson & Alan Parsons"
    INDEX 01 30:12:17
  TRACK 09 AUDIO
    TITLE "Step By Step"
    PERFORMER "The Alan Parsons Project"
    REM COMPOSER "Eric Woolfson & Alan Parsons"
    INDEX 01 33:46:50
  TRACK 10 AUDIO
    TITLE "Old And Wise"
    PERFORMER "The Alan Parsons Project"
    REM COMPOSER "Eric Woolfson & Alan Parsons"
    INDEX 01 37:41:51
  TRACK 11 AUDIO
    TITLE "Sirius (Demo)"
    PERFORMER "The Alan Parsons Project"
    REM COMPOSER "Eric Woolfson & Alan Parsons"
    INDEX 00 42:36:21
    INDEX 01 42:46:21
  TRACK 12 AUDIO
    TITLE "Old And Wise (Eric Woolfson Vocal)"
    PERFORMER "The Alan Parsons Project"
    REM COMPOSER "Eric Woolfson & Alan Parsons"
    INDEX 00 44:39:54
    INDEX 01 44:42:37
  TRACK 13 AUDIO
    TITLE "Any Other Day (Studio Demo)"
    PERFORMER "The Alan Parsons Project"
    REM COMPOSER "Eric Woolfson & Alan Parsons"
    INDEX 00 49:14:53
    INDEX 01 49:16:56
  TRACK 14 AUDIO
    TITLE "Silence And I (Eric Woolfson Vocal)"
    PERFORMER "The Alan Parsons Project"
    REM COMPOSER "Eric Woolfson & Alan Parsons"
    INDEX 00 50:58:28
    INDEX 01 51:00:04
  TRACK 15 AUDIO
    TITLE "The Naked Eye"
    PERFORMER "The Alan Parsons Project"
    REM COMPOSER "Eric Woolfson & Alan Parsons"
    INDEX 00 58:34:06
    INDEX 01 58:36:22
  TRACK 16 AUDIO
    TITLE "Eye Pieces (Classical Naked Eye)"
    PERFORMER "The Alan Parsons Project"
    REM COMPOSER "Eric Woolfson & Alan Parsons"
    INDEX 00 69:23:52
    INDEX 01 69:26:37

CD 2

Код:
REM GENRE Pop
REM DATE 1982
REM DISCID F80B3412
REM COMMENT "ExactAudioCopy v1.3"
PERFORMER "Alan Parsons Project"
TITLE "Eye In The Sky (35th Anniversary Edition - CD 2)"
REM COMPOSER "Eric Woolfson & Alan Parsons"
FILE "Alan Parsons Project - Eye In The Sky (CD 2).flac" WAVE
  TRACK 01 AUDIO
    TITLE "Eye In The Sky (Eric's Songwriting Diary 1)"
    PERFORMER "Alan Parsons Project"
    REM COMPOSER "Eric Woolfson & Alan Parsons"
    INDEX 01 00:00:00
  TRACK 02 AUDIO
    TITLE "Eye In The Sky (Eric's Songwriting Diary 2)"
    PERFORMER "Alan Parsons Project"
    REM COMPOSER "Eric Woolfson & Alan Parsons"
    INDEX 00 02:44:56
    INDEX 01 02:47:00
  TRACK 03 AUDIO
    TITLE "Eye In The Sky (Eric's Songwriting Diary 3)"
    PERFORMER "Alan Parsons Project"
    REM COMPOSER "Eric Woolfson & Alan Parsons"
    INDEX 00 07:15:23
    INDEX 01 07:17:42
  TRACK 04 AUDIO
    TITLE "Eye In The Sky (Eric's Songwriting Diary 4)"
    PERFORMER "Alan Parsons Project"
    REM COMPOSER "Eric Woolfson & Alan Parsons"
    INDEX 00 09:02:49
    INDEX 01 09:04:68
  TRACK 05 AUDIO
    TITLE "Children Of The Moon (Eric's Songwriting Diary 1)"
    PERFORMER "Alan Parsons Project"
    REM COMPOSER "Eric Woolfson & Alan Parsons"
    INDEX 00 10:26:71
    INDEX 01 10:29:15
  TRACK 06 AUDIO
    TITLE "Children Of The Moon (Eric's Songwriting Diary 2)"
    PERFORMER "Alan Parsons Project"
    REM COMPOSER "Eric Woolfson & Alan Parsons"
    INDEX 00 12:51:59
    INDEX 01 12:54:03
  TRACK 07 AUDIO
    TITLE "Gemini (Eric's Songwriting Diary 1)"
    PERFORMER "Alan Parsons Project"
    REM COMPOSER "Eric Woolfson & Alan Parsons"
    INDEX 00 15:27:61
    INDEX 01 15:30:05
  TRACK 08 AUDIO
    TITLE "Gemini (Eric's Songwriting Diary 2)"
    PERFORMER "Alan Parsons Project"
    REM COMPOSER "Eric Woolfson & Alan Parsons"
    INDEX 00 16:10:12
    INDEX 01 16:12:31
  TRACK 09 AUDIO
    TITLE "Gemini (Eric's Songwriting Diary 3)"
    PERFORMER "Alan Parsons Project"
    REM COMPOSER "Eric Woolfson & Alan Parsons"
    INDEX 00 16:46:73
    INDEX 01 16:49:17
  TRACK 10 AUDIO
    TITLE "Gemini & Silence And I (Eric's Songwriting Diary)"
    PERFORMER "Alan Parsons Project"
    REM COMPOSER "Eric Woolfson & Alan Parsons"
    INDEX 00 18:25:70
    INDEX 01 18:28:14
  TRACK 11 AUDIO
    TITLE "Silence And I (Eric's Songwriting Diary)"
    PERFORMER "Alan Parsons Project"
    REM COMPOSER "Eric Woolfson & Alan Parsons"
    INDEX 00 19:51:28
    INDEX 01 19:53:47
  TRACK 12 AUDIO
    TITLE "Cooper's Theme - Silence And I (Chord Beginnings - Eric's Songwriting Diary)"
    PERFORMER "Alan Parsons Project"
    REM COMPOSER "Eric Woolfson & Alan Parsons"
    INDEX 00 25:56:67
    INDEX 01 25:59:11
  TRACK 13 AUDIO
    TITLE "Cooper's Theme - Silence And I (Beginnings - Eric's Songwriting Diary)"
    PERFORMER "Alan Parsons Project"
    REM COMPOSER "Eric Woolfson & Alan Parsons"
    INDEX 00 28:59:32
    INDEX 01 29:01:51
  TRACK 14 AUDIO
    TITLE "Silence And I - Fly Away (Eric's Songwriting Diary 1)"
    PERFORMER "Alan Parsons Project"
    REM COMPOSER "Eric Woolfson & Alan Parsons"
    INDEX 00 32:08:40
    INDEX 01 32:10:59
  TRACK 15 AUDIO
    TITLE "Silence And I - Fly Away (Eric's Songwriting Diary 1)"
    PERFORMER "Alan Parsons Project"
    REM COMPOSER "Eric Woolfson & Alan Parsons"
    INDEX 00 34:24:46
    INDEX 01 34:26:65
  TRACK 16 AUDIO
    TITLE "Old And Wise (Eric's Songwriting Diary 1)"
    PERFORMER "Alan Parsons Project"
    REM COMPOSER "Eric Woolfson & Alan Parsons"
    INDEX 00 39:48:63
    INDEX 01 39:51:07
  TRACK 17 AUDIO
    TITLE "Old And Wise (Eric's Songwriting Diary 2)"
    PERFORMER "Alan Parsons Project"
    REM COMPOSER ""
    INDEX 00 41:31:13
    INDEX 01 41:33:32
  TRACK 18 AUDIO
    TITLE "Old And Wise (Eric's Songwriting Diary 3)"
    PERFORMER "Alan Parsons Project"
    REM COMPOSER ""
    INDEX 00 45:58:30
    INDEX 01 46:00:49

CD 3

Код:
REM GENRE Pop
REM DATE 1982
REM DISCID 040F6412
REM COMMENT "ExactAudioCopy v1.3"
PERFORMER "Alan Parsons Project"
TITLE "Eye In The Sky (35th Anniversary Edition - CD 3)"
REM COMPOSER "Eric Woolfson & Alan Parsons"
FILE "Alan Parsons Project - Eye In The Sky (CD 3).flac" WAVE
  TRACK 01 AUDIO
    TITLE "Eye In The Sky (Ian 12-string Acoustic Guitar Out Take)"
    PERFORMER "Alan Parsons Project"
    REM COMPOSER "Eric Woolfson & Alan Parsons"
    INDEX 01 00:00:00
  TRACK 02 AUDIO
    TITLE "Sirius & Eye In The Sky (Early Rough Mix)"
    PERFORMER "Alan Parsons Project"
    REM COMPOSER "Eric Woolfson & Alan Parsons"
    INDEX 00 04:19:11
    INDEX 01 04:21:54
  TRACK 03 AUDIO
    TITLE "Eye In The Sky (Eric Demo Verses - No Lyrics)"
    PERFORMER "Alan Parsons Project"
    REM COMPOSER "Eric Woolfson & Alan Parsons"
    INDEX 00 10:24:51
    INDEX 01 10:26:50
  TRACK 04 AUDIO
    TITLE "Chlidren Of The Moon (12-string Acoustic Guitar & Marching Band Snare Drum)"
    PERFORMER "Alan Parsons Project"
    REM COMPOSER "Eric Woolfson & Alan Parsons"
    INDEX 00 12:01:66
    INDEX 01 12:03:64
  TRACK 05 AUDIO
    TITLE "Children Of The Moon (Early Rough Mix With Eric Demo Vocal)"
    PERFORMER "Alan Parsons Project"
    REM COMPOSER "Eric Woolfson & Alan Parsons"
    INDEX 00 16:24:55
    INDEX 01 16:26:53
  TRACK 06 AUDIO
    TITLE "Gemini (Chris Rainbow Vocal Harmonies)"
    PERFORMER "Alan Parsons Project"
    REM COMPOSER "Eric Woolfson & Alan Parsons"
    INDEX 00 20:58:47
    INDEX 01 21:00:45
  TRACK 07 AUDIO
    TITLE "Silence And I (Orchestral Take With Eric Demo)"
    PERFORMER "Alan Parsons Project"
    REM COMPOSER "Eric Woolfson & Alan Parsons"
    INDEX 00 22:00:03
    INDEX 01 22:02:01
  TRACK 08 AUDIO
    TITLE "You're Gonna Get Your Fingers Burned (Rough Mix Section - Different Guitar Solo)"
    PERFORMER "Alan Parsons Project"
    REM COMPOSER "Eric Woolfson & Alan Parsons"
    INDEX 00 29:45:50
    INDEX 01 29:47:48
  TRACK 09 AUDIO
    TITLE "You're Gonna Get Your Fingers Burned (Rough Mix With Alan Demo Vocal - Few Ly..."
    PERFORMER "Alan Parsons Project"
    REM COMPOSER "Eric Woolfson & Alan Parsons"
    INDEX 00 30:48:18
    INDEX 01 30:50:16
  TRACK 10 AUDIO
    TITLE "Psychobabble (Orchestral Take)"
    PERFORMER "Alan Parsons Project"
    REM COMPOSER "Eric Woolfson & Alan Parsons"
    INDEX 00 35:21:11
    INDEX 01 35:23:09
  TRACK 11 AUDIO
    TITLE "Psychobabble (Rough Mix With Eric Demo Vocal)"
    PERFORMER "Alan Parsons Project"
    REM COMPOSER "Eric Woolfson & Alan Parsons"
    INDEX 00 36:23:64
    INDEX 01 36:25:62
  TRACK 12 AUDIO
    TITLE "Step By Step (12-string Acoustic Guitars)"
    PERFORMER "Alan Parsons Project"
    REM COMPOSER "Eric Woolfson & Alan Parsons"
    INDEX 00 40:59:19
    INDEX 01 41:01:18
  TRACK 13 AUDIO
    TITLE "Step By Step (Rough Mix Backing Track - Extended Intro)"
    PERFORMER "Alan Parsons Project"
    REM COMPOSER "Eric Woolfson & Alan Parsons"
    INDEX 00 44:58:18
    INDEX 01 45:00:17
  TRACK 14 AUDIO
    TITLE "Old And Wise (Chris Rainbow Beach Boys Experiment)"
    PERFORMER "Alan Parsons Project"
    REM COMPOSER "Eric Woolfson & Alan Parsons"
    INDEX 00 49:14:68
    INDEX 01 49:16:67
  TRACK 15 AUDIO
    TITLE "Old And Wise (Eric Piano Track)"
    PERFORMER "Alan Parsons Project"
    REM COMPOSER "Eric Woolfson & Alan Parsons"
    INDEX 00 50:09:68
    INDEX 01 50:10:55
  TRACK 16 AUDIO
    TITLE "Eye In The Sky (Single Edit)"
    PERFORMER "Alan Parsons Project"
    REM COMPOSER "Eric Woolfson & Alan Parsons"
    INDEX 00 53:37:23
    INDEX 01 53:39:22
  TRACK 17 AUDIO
    TITLE "Old And Wise (Single Edit)"
    PERFORMER "Alan Parsons Project"
    REM COMPOSER "Eric Woolfson & Alan Parsons"
    INDEX 00 57:35:61
    INDEX 01 57:37:59
  TRACK 18 AUDIO
    TITLE "Psychobabble (Single Edit)"
    PERFORMER "Alan Parsons Project"
    REM COMPOSER "Eric Woolfson & Alan Parsons"
    INDEX 00 61:51:56
    INDEX 01 61:53:55
--

_________________
Разница между теорией и практикой в том, что теоретически разницы между теорией и практикой нет, а на практике она есть.
[Профиль] [ЛС]
Показать сообщения:    

Текущее время: Сегодня 23:00

Часовой пояс: GMT + 3



Вы не можете начинать темы
Вы не можете отвечать на сообщения
Вы не можете редактировать свои сообщения
Вы не можете удалять свои сообщения
Вы не можете голосовать в опросах
Вы не можете прикреплять файлы к сообщениям
Вы не можете скачивать файлы