Золотые дни идет свободное скачивание без начисления Download
 

Офлайн

sergej644

Стаж:
5 лет 1 месяц
Сообщений:
814

-Snakecharmer - Second Skin--
Год издания: 2017
Страна: UK
Жанр: Melodic Hard Rock
Продолжительность: 00:50:48-Лейбл издания: Frontiers Records
Страна-выпуска диска: Italy
Номер по каталогу: FR CD 791-Формат: FLAC
Битрейт аудио: Lossless
Тип рипа: image +.cue
Наличие сканов в содержимом раздачи: да
-

Трэклист


01. Sounds Like A Plan (4:18)
02. That Kind Of Love (5:28)
03. Are You Ready To Fly (4:08)
04. Follow Me Under (4:54)
05. I'll Take You As You Are (5:08)
06. Hell Of A Way To Live (4:39)
07. Fade Away (5:34)
08. Dress It Up (4:46)
09. Punching Above My Weight (3:17)
10. Forgive & Forget (4:40)
11. Where Do We Go From Here (3:56)
-

Лог создания рипа

Код:
Exact Audio Copy V1.0 beta 3 from 29. August 2011
EAC extraction logfile from 26. May 2017, 22:38
Snakecharmer / Second Skin
Used drive  : MATSHITABD-CMB UJ242AS   Adapter: 0  ID: 1
Read mode               : Secure
Utilize accurate stream : Yes
Defeat audio cache      : Yes
Make use of C2 pointers : No
Read offset correction                      : 103
Overread into Lead-In and Lead-Out          : No
Fill up missing offset samples with silence : Yes
Delete leading and trailing silent blocks   : No
Null samples used in CRC calculations       : Yes
Used interface                              : Installed external ASPI interface
Used output format              : User Defined Encoder
Selected bitrate                : 1024 kBit/s
Quality                         : High
Add ID3 tag                     : Yes
Command line compressor         : C:\Program Files (x86)\Exact Audio Copy\Flac\flac.exe
Additional command line options : -V -8 -T "Date=%year%" -T "Genre=%genre%" %source%
TOC of the extracted CD
     Track |   Start  |  Length  | Start sector | End sector
    ---------------------------------------------------------
        1  |  0:00.00 |  4:17.42 |         0    |    19316
        2  |  4:17.42 |  5:27.42 |     19317    |    43883
        3  |  9:45.09 |  4:08.37 |     43884    |    62520
        4  | 13:53.46 |  4:53.67 |     62521    |    84562
        5  | 18:47.38 |  5:08.10 |     84563    |   107672
        6  | 23:55.48 |  4:38.64 |    107673    |   128586
        7  | 28:34.37 |  5:34.32 |    128587    |   153668
        8  | 34:08.69 |  4:46.27 |    153669    |   175145
        9  | 38:55.21 |  3:16.71 |    175146    |   189916
       10  | 42:12.17 |  4:40.23 |    189917    |   210939
       11  | 46:52.40 |  3:55.54 |    210940    |   228618
Range status and errors
Selected range
     Filename C:\EACrip\Snakecharmer - Second Skin.wav
     Peak level 100.0 %
     Extraction speed 4.1 X
     Range quality 100.0 %
     Test CRC DC993BD4
     Copy CRC DC993BD4
     Copy OK
No errors occurred
AccurateRip summary
Track  1  not present in database
Track  2  not present in database
Track  3  not present in database
Track  4  not present in database
Track  5  not present in database
Track  6  not present in database
Track  7  not present in database
Track  8  not present in database
Track  9  not present in database
Track 10  not present in database
Track 11  not present in database
None of the tracks are present in the AccurateRip database
End of status report

Индексная карта (non-compilant .cue)

Код:
REM GENRE Rock
REM DATE 2017
REM DISCID 940BE80B
REM COMMENT "ExactAudioCopy v1.0b3"
PERFORMER "Snakecharmer"
TITLE "Second Skin"
FILE "Snakecharmer - Second Skin.flac" WAVE
  TRACK 01 AUDIO
    TITLE "Sounds Like A Plan"
    PERFORMER "Snakecharmer"
    INDEX 01 00:00:00
  TRACK 02 AUDIO
    TITLE "That Kind Of Love"
    PERFORMER "Snakecharmer"
    INDEX 01 04:17:42
  TRACK 03 AUDIO
    TITLE "Are You Ready To Fly"
    PERFORMER "Snakecharmer"
    INDEX 01 09:45:09
  TRACK 04 AUDIO
    TITLE "Follow Me Under"
    PERFORMER "Snakecharmer"
    INDEX 01 13:53:46
  TRACK 05 AUDIO
    TITLE "I'll Take You As You Are"
    PERFORMER "Snakecharmer"
    INDEX 01 18:47:38
  TRACK 06 AUDIO
    TITLE "Hell Of A Way To Live"
    PERFORMER "Snakecharmer"
    INDEX 01 23:55:48
  TRACK 07 AUDIO
    TITLE "Fade Away"
    PERFORMER "Snakecharmer"
    INDEX 01 28:34:37
  TRACK 08 AUDIO
    TITLE "Dress It Up"
    PERFORMER "Snakecharmer"
    INDEX 01 34:08:69
  TRACK 09 AUDIO
    TITLE "Punching Above My Weight"
    PERFORMER "Snakecharmer"
    INDEX 01 38:55:21
  TRACK 10 AUDIO
    TITLE "Forgive & Forget"
    PERFORMER "Snakecharmer"
    INDEX 01 42:12:17
  TRACK 11 AUDIO
    TITLE "Where Do We Go From Here"
    PERFORMER "Snakecharmer"
    INDEX 01 46:52:40
--

_________________
Разница между теорией и практикой в том, что теоретически разницы между теорией и практикой нет, а на практике она есть.
[Профиль] [ЛС]
Показать сообщения:    

Текущее время: Сегодня 19:39

Часовой пояс: GMT + 3



Вы не можете начинать темы
Вы не можете отвечать на сообщения
Вы не можете редактировать свои сообщения
Вы не можете удалять свои сообщения
Вы не можете голосовать в опросах
Вы не можете прикреплять файлы к сообщениям
Вы не можете скачивать файлы