Золотые дни идет свободное скачивание без начисления Download
 

Офлайн

sergej644

Стаж:
5 лет 1 месяц
Сообщений:
818

---
Год издания: 2017
Страна: Germany
Жанр: Electronic, Pop, Synth-Pop, Pop Rock
Продолжительность: 01:14:25-Лейбл издания: Da.Music
Страна-выпуска диска: Germany
Номер по каталогу: CD 877139-2-Формат: FLAC
Битрейт аудио: Lossless
Тип рипа: image +.cue
Наличие сканов в содержимом раздачи: да
-

Трэклист


01. Ich Liebe Dich (2016)(2:53)
02. Angel Of Mine (1981)(4:15)
03. Touch My Soul (1986)(7:31)
04. Sadness And Hope (2016)(4:41)
05. Eurydice (Instrumental) (2009) (4:26)
06. Lied Der Sehnsucht (2014)(5:31)
07. Give Me Your Love (1983)(4:29)
08. Todesengel (1979)(4:32)
09. Face To Face (1982)(4:24)
10. Time For Lovers (1985)(5:07)
11. Sayonara (2008)(4:11)
12. Liebe Und Tod (1986)(5:44)
13. Road To Scantaya (1996) (3:25)
14. Something Is Crying (1984) (3:51)
15. Love Me, Love (1988)(3:35)
16. Secret Thoughts (2014) (5:49)
-

Лог создания рипа

Код:
Exact Audio Copy V1.3 from 2. September 2016
Отчёт EAC об извлечении, выполненном 6. декабря 2017, 12:04
Frank Duval / My Star
Дисковод: ASUS    DRW-24D5MT   Adapter: 1  ID: 0
Режим чтения                 : Достоверность
Использование точного потока : Да
Отключение кэша аудио        : Да
Использование указателей C2  : Нет
Коррекция смещения при чтении                     : 6
Способность читать области Lead-in и Lead-out     : Нет
Заполнение пропущенных сэмплов тишиной            : Да
Удаление блоков с тишиной в начале и конце        : Нет
При вычислениях CRC использовались нулевые сэмплы : Да
Интерфейс                                         : Встроенный Win32-интерфейс для Win NT/2000
Выходной формат          : Пользовательский кодировщик
Выбранный битрейт        : 128 kBit/s
Качество                 : Высокий
Добавление ID3-тега      : Нет
Утилита сжатия           : C:\Program Files (x86)\Exact Audio Copy\Flac\flac.exe
Дополнительные параметры : -V -8 -T "Date=%year%" -T "Genre=%genre%" %source%
TOC извлечённого CD
     Трек |   Старт  | Длительность | Начальный сектор | Конечный сектор
    ---------------------------------------------------------------------
       1  |  0:00.00 |    2:53.01   |           0      |      12975
       2  |  2:53.01 |    4:14.40   |       12976      |      32065
       3  |  7:07.41 |    7:31.02   |       32066      |      65892
       4  | 14:38.43 |    4:41.36   |       65893      |      87003
       5  | 19:20.04 |    4:25.69   |       87004      |     106947
       6  | 23:45.73 |    5:30.49   |      106948      |     131746
       7  | 29:16.47 |    4:29.17   |      131747      |     151938
       8  | 33:45.64 |    4:32.24   |      151939      |     172362
       9  | 38:18.13 |    4:24.16   |      172363      |     192178
      10  | 42:42.29 |    5:07.34   |      192179      |     215237
      11  | 47:49.63 |    4:11.01   |      215238      |     234063
      12  | 52:00.64 |    5:43.51   |      234064      |     259839
      13  | 57:44.40 |    3:24.46   |      259840      |     275185
      14  | 61:09.11 |    3:50.59   |      275186      |     292494
      15  | 64:59.70 |    3:35.23   |      292495      |     308642
      16  | 68:35.18 |    5:49.32   |      308643      |     334849
Характеристики диапазона извлечения и сообщения об ошибках
Выбранный диапазон
     Имя файла E:\Раздачи\Папки\Frank Duval - My Star\Frank Duval - My Star.wav
     Пиковый уровень 98.8 %
     Скорость извлечения 3.5 X
     Качество диапазона 100.0 %
     CRC теста 37B1F7E4
     CRC копии 37B1F7E4
     Копирование... OK
Ошибок не произошло
AccurateRip: сводка
Трек  1  отсутствует в базе данных
Трек  2  отсутствует в базе данных
Трек  3  отсутствует в базе данных
Трек  4  отсутствует в базе данных
Трек  5  отсутствует в базе данных
Трек  6  отсутствует в базе данных
Трек  7  отсутствует в базе данных
Трек  8  отсутствует в базе данных
Трек  9  отсутствует в базе данных
Трек 10  отсутствует в базе данных
Трек 11  отсутствует в базе данных
Трек 12  отсутствует в базе данных
Трек 13  отсутствует в базе данных
Трек 14  отсутствует в базе данных
Трек 15  отсутствует в базе данных
Трек 16  отсутствует в базе данных
Ни одного трека нет в базе AccurateRip
Конец отчёта

Индексная карта (non-compilant .cue)

Код:
REM GENRE Pop
REM DATE 2017
REM DISCID D4117010
REM COMMENT "ExactAudioCopy v1.3"
PERFORMER "Frank Duval"
TITLE "My Star"
FILE "Frank Duval - My Star.flac" WAVE
  TRACK 01 AUDIO
    TITLE "Ich Liebe Dich"
    PERFORMER "Frank Duval"
    INDEX 01 00:00:00
  TRACK 02 AUDIO
    TITLE "Angel Of Mine"
    PERFORMER "Frank Duval"
    INDEX 00 02:51:02
    INDEX 01 02:53:01
  TRACK 03 AUDIO
    TITLE "Touch My Soul"
    PERFORMER "Frank Duval"
    INDEX 00 07:05:42
    INDEX 01 07:07:41
  TRACK 04 AUDIO
    TITLE "Sadness And Hope"
    PERFORMER "Frank Duval"
    INDEX 00 14:36:44
    INDEX 01 14:38:43
  TRACK 05 AUDIO
    TITLE "Eurydice (Instrumental)"
    PERFORMER "Frank Duval"
    INDEX 00 19:18:05
    INDEX 01 19:20:04
  TRACK 06 AUDIO
    TITLE "Lied Der Sehnsucht"
    PERFORMER "Frank Duval"
    INDEX 00 23:43:74
    INDEX 01 23:45:73
  TRACK 07 AUDIO
    TITLE "Give Me Your Love"
    PERFORMER "Frank Duval"
    INDEX 00 29:14:48
    INDEX 01 29:16:47
  TRACK 08 AUDIO
    TITLE "Todesengel "
    PERFORMER "Frank Duval"
    INDEX 00 33:43:65
    INDEX 01 33:45:64
  TRACK 09 AUDIO
    TITLE "Face To Face"
    PERFORMER "Frank Duval"
    INDEX 00 38:16:14
    INDEX 01 38:18:13
  TRACK 10 AUDIO
    TITLE "Time For Lovers"
    PERFORMER "Frank Duval"
    INDEX 00 42:40:30
    INDEX 01 42:42:29
  TRACK 11 AUDIO
    TITLE "Sayonara"
    PERFORMER "Frank Duval"
    INDEX 00 47:47:64
    INDEX 01 47:49:63
  TRACK 12 AUDIO
    TITLE "Liebe Und Tod"
    PERFORMER "Frank Duval"
    INDEX 00 51:58:65
    INDEX 01 52:00:64
  TRACK 13 AUDIO
    TITLE "Road To Scantaya"
    PERFORMER "Frank Duval"
    INDEX 00 57:42:41
    INDEX 01 57:44:40
  TRACK 14 AUDIO
    TITLE "Something Is Crying"
    PERFORMER "Frank Duval"
    INDEX 00 61:07:12
    INDEX 01 61:09:11
  TRACK 15 AUDIO
    TITLE "Love Me, Love"
    PERFORMER "Frank Duval"
    INDEX 00 64:57:71
    INDEX 01 64:59:70
  TRACK 16 AUDIO
    TITLE "Secret Thoughts"
    PERFORMER "Frank Duval"
    INDEX 00 68:33:19
    INDEX 01 68:35:18
--

_________________
Разница между теорией и практикой в том, что теоретически разницы между теорией и практикой нет, а на практике она есть.
[Профиль] [ЛС]
Показать сообщения:    

Текущее время: Сегодня 23:01

Часовой пояс: GMT + 3



Вы не можете начинать темы
Вы не можете отвечать на сообщения
Вы не можете редактировать свои сообщения
Вы не можете удалять свои сообщения
Вы не можете голосовать в опросах
Вы не можете прикреплять файлы к сообщениям
Вы не можете скачивать файлы