Today is free to download without increasing Download
 

Offline

sergej644

Longevity:
6 years 4 months
Posts:
913

-Jeff Lynne's ELO - Wembley Or Bust - 2017--
Год выпуска: 2017
Страна: UK
Жанр:Progressive & Art Rock
Лейбл: Columbia ‎– 88985 48742 1
Продолжительность: 01:58:22
-Качество видео: Blu-Ray
Контейнер: BDMV
Стандарт разрешения: 1080p
Видео кодек: H.264
Аудио кодек: PCM
Видео: MPEG-4 AVC Video / 19993 kbps / 1080p / 23,976 fps / 16:9 / High Profile 4.1
Аудио 1: English / LPCM Audio / 2.0 / 48 kHz / 2304 kbps / 24-bit
-

Recorded at Wembley Stadium, London 24th June 2017
-

Трэклист


01. Standin' in the Rain
02. Evil Woman
03. All Over the World
04. Showdown
05. Livin' Thing
06. Scene 1
07. Do Ya
08. When I Was a Boy
09. Handle with Care
10. Scene 2
11. Last Train to London
12. Xanadu
13. Rockaria!
14. Band Introductions
15. Can't Get It Out of My Head
16. 10538 Overture
17. Scene 3
18. Twilight
19. Ma-Ma-Ma Belle
20. Shine a Little Love
21. Wild West Hero
22. Scene 4
23. Sweet Talkin' Woman
24. Telephone Line
25. Turn to Stone
26. Don't Bring Me Down
27. Mr. Blue Sky
28. Scene 5
29. Roll Over Beethoven
30. Credits

Media Info

Код:
Общее
Идентификатор                            : 0 (0x0)
Полное имя                               : D:\Torrent Files\Jeff Lynne's ELO - Wembley Or Bust (SD Blu Ray) 2017\BDMV\STREAM\00006.m2ts
Формат                                   : BDAV
Формат/Информация                        : Blu-ray Video
Размер файла                             : 19,3 Гбайт
Продолжительность                        : 1 ч. 58 м.
Режим общего битрейта                    : Переменный
Общий поток                              : 23,4 Мбит/сек
Максимальный общий битрейт               : 48,0 Мбит/сек
Видео
Идентификатор                            : 4113 (0x1011)
Идентификатор меню                       : 1 (0x1)
Формат                                   : AVC
Формат/Информация                        : Advanced Video Codec
Профиль формата                          : High@L4.1
Параметр CABAC формата                   : Да
Параметр ReFrames формата                : 4 кадра
Идентификатор кодека                     : 27
Продолжительность                        : 1 ч. 58 м.
Вид битрейта                             : Переменный
Битрейт                                  : 20,2 Мбит/сек
Максимальный битрейт                     : 39,0 Мбит/сек
Ширина                                   : 1920 пикселей
Высота                                   : 1080 пикселей
Соотношение сторон                       : 16:9
Частота кадров                           : 23,976 (24000/1001) кадра/сек
Цветовое пространство                    : YUV
Субдискретизация насыщенности            : 4:2:0
Битовая глубина                          : 8 бит
Тип развёртки                            : Прогрессивная
Бит/(Пиксели*Кадры)                      : 0.405
Размер потока                            : 16,7 Гбайт (86%)
Аудио
Идентификатор                            : 4352 (0x1100)
Идентификатор меню                       : 1 (0x1)
Формат                                   : PCM
Параметр Endianness формата              : Big
Параметр Sign формата                    : Signed
Режим смешивания                         : Blu-ray
Идентификатор кодека                     : 128
Продолжительность                        : 1 ч. 58 м.
Вид битрейта                             : Постоянный
Битрейт                                  : 2304 Кбит/сек
Каналы                                   : 2 канала
Расположение каналов                     : Front: L R
Частота                                  : 48,0 КГц
Битовая глубина                          : 24 бит
Размер потока                            : 1,90 Гбайт (10%)

BDInfo:

Disc Title: Jeff Lynne's ELO - Wembley Or Bust (SD Blu Ray) 2017
Disc Size: 21 108 990 678 bytes
Protection: AACS
BD-Java: No
BDInfo: 0.5.8
Notes:
BDINFO HOME:
Cinema Squid
http://www.cinemasquid.com/blu-ray/tools/bdinfo
INCLUDES FORUMS REPORT FOR:
AVS Forum Blu-ray Audio and Video Specifications Thread
http://www.avsforum.com/avs-vb/showthread.php?t=1155731
********************
PLAYLIST: 00020.MPLS
********************
<--- BEGIN FORUMS PASTE --->
Код:
Total   Video
Title                                                           Codec   Length  Movie Size      Disc Size       Bitrate Bitrate Main Audio Track                          Secondary Audio Track
-----                                                           ------  ------- --------------  --------------  ------- ------- ------------------                        ---------------------
00020.MPLS                                                      AVC     1:58:22 20 767 236 096  21 108 990 678  23,39   19,99   LPCM 2.0 2304Kbps (48kHz/24-bit)
Код:
DISC INFO:
Disc Title:     Jeff Lynne's ELO - Wembley Or Bust (SD Blu Ray) 2017
Disc Size:      21 108 990 678 bytes
Protection:     AACS
BD-Java:        No
BDInfo:         0.5.8
PLAYLIST REPORT:
Name:                   00020.MPLS
Length:                 1:58:22.345 (h:m:s.ms)
Size:                   20 767 236 096 bytes
Total Bitrate:          23,39 Mbps
VIDEO:
Codec                   Bitrate             Description
-----                   -------             -----------
MPEG-4 AVC Video        19993 kbps          1080p / 23,976 fps / 16:9 / High Profile 4.1
AUDIO:
Codec                           Language        Bitrate         Description
-----                           --------        -------         -----------
LPCM Audio                      English         2304 kbps       2.0 / 48 kHz / 2304 kbps / 24-bit
FILES:
Name            Time In         Length          Size            Total Bitrate
----            -------         ------          ----            -------------
00006.M2TS      0:00:00.000     1:58:21.344     20 766 965 760  23 395
00000.M2TS      1:58:21.344     0:00:01.000     270 336         2 161
CHAPTERS:
Number          Time In         Length          Avg Video Rate  Max 1-Sec Rate  Max 1-Sec Time  Max 5-Sec Rate  Max 5-Sec Time  Max 10Sec Rate  Max 10Sec Time  Avg Frame Size  Max Frame Size  Max Frame Time
------          -------         ------          --------------  --------------  --------------  --------------  --------------  --------------  --------------  --------------  --------------  --------------
1               0:00:00.000     0:04:30.687     20 989 kbps     40 085 kbps     00:01:20.705    38 603 kbps     00:01:17.452    35 487 kbps     00:01:12.614    109 412 bytes   493 308 bytes   00:01:15.742
2               0:04:30.687     0:04:36.776     21 241 kbps     38 610 kbps     00:08:50.947    31 548 kbps     00:08:46.943    28 900 kbps     00:08:41.979    110 740 bytes   585 725 bytes   00:09:05.211
3               0:09:07.463     0:04:07.121     23 557 kbps     41 422 kbps     00:11:02.870    38 569 kbps     00:11:15.716    34 638 kbps     00:11:13.172    122 815 bytes   585 228 bytes   00:11:03.746
4               0:13:14.585     0:04:22.971     20 610 kbps     36 285 kbps     00:17:29.006    30 852 kbps     00:17:28.422    28 787 kbps     00:13:14.668    107 451 bytes   470 429 bytes   00:17:29.131
5               0:17:37.556     0:04:29.602     20 635 kbps     39 270 kbps     00:18:46.583    31 028 kbps     00:18:09.713    27 818 kbps     00:20:32.648    107 582 bytes   467 090 bytes   00:21:10.060
6               0:22:07.159     0:02:42.495     16 448 kbps     28 740 kbps     00:23:45.090    20 667 kbps     00:23:43.171    19 500 kbps     00:23:43.171    85 750 bytes    314 374 bytes   00:22:32.225
7               0:24:49.654     0:04:11.960     21 438 kbps     36 351 kbps     00:25:09.508    30 997 kbps     00:25:06.379    26 611 kbps     00:25:02.375    111 770 bytes   461 959 bytes   00:26:54.738
8               0:29:01.614     0:03:33.046     19 344 kbps     27 311 kbps     00:31:32.807    25 958 kbps     00:31:20.461    25 594 kbps     00:31:15.582    100 848 bytes   447 630 bytes   00:32:32.700
9               0:32:34.661     0:03:37.091     21 419 kbps     38 671 kbps     00:35:33.130    33 297 kbps     00:36:02.952    25 895 kbps     00:34:24.270    111 667 bytes   348 837 bytes   00:33:45.606
10              0:36:11.752     0:03:24.704     17 037 kbps     27 611 kbps     00:37:22.740    23 906 kbps     00:37:19.570    22 576 kbps     00:39:20.024    88 821 bytes    429 637 bytes   00:36:20.595
11              0:39:36.457     0:04:16.965     20 585 kbps     30 814 kbps     00:40:18.457    26 437 kbps     00:42:24.583    25 465 kbps     00:42:22.456    107 323 bytes   361 324 bytes   00:42:31.799
12              0:43:53.422     0:03:48.436     21 848 kbps     39 427 kbps     00:44:34.254    38 051 kbps     00:44:30.876    36 413 kbps     00:44:27.873    113 905 bytes   379 674 bytes   00:44:35.047
13              0:47:41.859     0:03:28.708     22 176 kbps     41 014 kbps     00:51:08.940    29 550 kbps     00:49:51.363    29 365 kbps     00:49:48.360    115 616 bytes   510 655 bytes   00:51:09.900
14              0:51:10.567     0:02:05.208     18 076 kbps     38 508 kbps     00:51:10.817    30 760 kbps     00:51:25.624    26 540 kbps     00:51:20.660    94 238 bytes    576 519 bytes   00:51:27.709
15              0:53:15.775     0:04:47.495     19 386 kbps     35 900 kbps     00:57:24.482    33 282 kbps     00:57:20.478    31 582 kbps     00:55:13.852    101 071 bytes   579 617 bytes   00:57:23.690
16              0:58:03.271     0:04:47.495     19 772 kbps     34 416 kbps     01:01:21.260    28 549 kbps     01:01:02.283    25 741 kbps     01:00:58.404    103 083 bytes   535 367 bytes   01:01:22.220
17              1:02:50.767     0:03:12.275     14 787 kbps     26 239 kbps     01:02:51.851    24 196 kbps     01:02:56.397    23 237 kbps     01:02:50.850    77 093 bytes    231 908 bytes   01:02:52.769
18              1:06:03.042     0:04:35.191     20 007 kbps     37 841 kbps     01:09:52.938    29 411 kbps     01:08:00.534    28 156 kbps     01:07:55.529    104 309 bytes   419 686 bytes   01:08:04.872
19              1:10:38.234     0:04:13.211     23 155 kbps     42 867 kbps     01:13:54.012    37 925 kbps     01:13:18.268    34 417 kbps     01:13:51.635    120 721 bytes   356 167 bytes   01:14:51.445
20              1:14:51.445     0:04:05.745     23 907 kbps     40 520 kbps     01:16:43.974    39 116 kbps     01:16:18.448    35 167 kbps     01:16:15.070    124 641 bytes   460 741 bytes   01:15:02.164
21              1:18:57.190     0:04:14.212     17 283 kbps     32 958 kbps     01:21:18.248    31 262 kbps     01:21:18.248    27 251 kbps     01:20:40.544    90 104 bytes    498 319 bytes   01:21:55.994
22              1:23:11.403     0:00:52.260     20 493 kbps     29 528 kbps     01:23:43.476    24 634 kbps     01:23:16.741    23 721 kbps     01:23:15.365    106 841 bytes   274 320 bytes   01:23:15.407
23              1:24:03.663     0:03:46.851     18 831 kbps     31 790 kbps     01:27:37.418    27 522 kbps     01:27:35.333    25 297 kbps     01:27:33.039    98 176 bytes    281 994 bytes   01:25:07.811
24              1:27:50.515     0:04:59.716     19 458 kbps     34 950 kbps     01:29:18.853    34 164 kbps     01:29:15.016    28 797 kbps     01:28:02.860    101 447 bytes   475 072 bytes   01:29:17.101
25              1:32:50.231     0:04:02.450     19 174 kbps     35 418 kbps     01:34:51.852    27 754 kbps     01:36:09.889    25 397 kbps     01:34:44.136    99 964 bytes    410 306 bytes   01:34:53.145
26              1:36:52.681     0:04:22.387     21 322 kbps     33 807 kbps     01:39:08.192    31 468 kbps     01:39:04.980    29 667 kbps     01:39:04.980    111 163 bytes   471 523 bytes   01:39:29.380
27              1:41:15.068     0:05:15.690     20 661 kbps     38 170 kbps     01:44:56.581    33 452 kbps     01:44:53.495    28 101 kbps     01:44:51.618    107 716 bytes   402 154 bytes   01:42:19.633
28              1:46:30.759     0:00:55.930     18 476 kbps     34 488 kbps     01:46:35.889    25 917 kbps     01:46:35.889    24 121 kbps     01:46:35.889    96 323 bytes    457 700 bytes   01:46:35.931
29              1:47:26.690     0:06:45.655     19 665 kbps     36 224 kbps     01:53:37.227    29 124 kbps     01:53:37.227    26 102 kbps     01:49:45.745    102 527 bytes   506 724 bytes   01:53:37.268
30              1:54:12.345     0:04:08.998     13 784 kbps     40 158 kbps     01:54:48.923    37 006 kbps     01:54:45.670    34 565 kbps     01:54:40.665    71 864 bytes    418 926 bytes   01:55:04.105
31              1:58:21.344     0:00:01.001     1 996 kbps      0 kbps          00:00:00.000    0 kbps          00:00:00.000    0 kbps          00:00:00.000    10 860 bytes    182 469 bytes   01:58:22.303
STREAM DIAGNOSTICS:
File            PID             Type            Codec           Language                Seconds                 Bitrate                 Bytes           Packets
----            ---             ----            -----           --------                --------------          --------------          -------------   -----
00006.M2TS      4113 (0x1011)   0x1B            AVC                                     7101,177                19 996                  17 749 006 945  96 561 219
00006.M2TS      4352 (0x1100)   0x80            LPCM            eng (English)           7101,177                2 310                   2 050 868 436   11 362 152
00000.M2TS      4113 (0x1011)   0x1B            AVC                                     0,834                   2 405                   250 731         1 368
<---- END FORUMS PASTE ---->
QUICK SUMMARY:
Disc Title: Jeff Lynne's ELO - Wembley Or Bust (SD Blu Ray) 2017
Disc Size: 21 108 990 678 bytes
Protection: AACS
BD-Java: No
Playlist: 00020.MPLS
Size: 20 767 236 096 bytes
Length: 1:58:22.345
Total Bitrate: 23,39 Mbps
Video: MPEG-4 AVC Video / 19993 kbps / 1080p / 23,976 fps / 16:9 / High Profile 4.1
Audio: English / LPCM Audio / 2.0 / 48 kHz / 2304 kbps / 24-bit
********************
PLAYLIST: 00021.MPLS
********************
<--- BEGIN FORUMS PASTE --->
Код:
Total   Video
Title                                                           Codec   Length  Movie Size      Disc Size       Bitrate Bitrate Main Audio Track                          Secondary Audio Track
-----                                                           ------  ------- --------------  --------------  ------- ------- ------------------                        ---------------------
00021.MPLS                                                      AVC     0:00:35 74 274 816      21 108 990 678  16,96   16,18
Код:
DISC INFO:
Disc Title:     Jeff Lynne's ELO - Wembley Or Bust (SD Blu Ray) 2017
Disc Size:      21 108 990 678 bytes
Protection:     AACS
BD-Java:        No
BDInfo:         0.5.8
PLAYLIST REPORT:
Name:                   00021.MPLS
Length:                 0:00:35.034 (h:m:s.ms)
Size:                   74 274 816 bytes
Total Bitrate:          16,96 Mbps
VIDEO:
Codec                   Bitrate             Description
-----                   -------             -----------
MPEG-4 AVC Video        16184 kbps          1080p / 23,976 fps / 16:9 / High Profile 4.1
FILES:
Name            Time In         Length          Size            Total Bitrate
----            -------         ------          ----            -------------
00002.M2TS      0:00:00.000     0:00:34.033     74 004 480      17 395
00000.M2TS      0:00:34.033     0:00:01.000     270 336         2 161
CHAPTERS:
Number          Time In         Length          Avg Video Rate  Max 1-Sec Rate  Max 1-Sec Time  Max 5-Sec Rate  Max 5-Sec Time  Max 10Sec Rate  Max 10Sec Time  Avg Frame Size  Max Frame Size  Max Frame Time
------          -------         ------          --------------  --------------  --------------  --------------  --------------  --------------  --------------  --------------  --------------  --------------
1               0:00:00.000     0:00:35.034     16 184 kbps     25 747 kbps     00:00:00.709    20 313 kbps     00:00:00.709    19 664 kbps     00:00:00.750    84 377 bytes    570 807 bytes   00:00:31.030
STREAM DIAGNOSTICS:
File            PID             Type            Codec           Language                Seconds                 Bitrate                 Bytes           Packets
----            ---             ----            -----           --------                --------------          --------------          -------------   -----
00002.M2TS      4113 (0x1011)   0x1B            AVC                                     33,867                  16 683                  70 625 764      384 292
00000.M2TS      4113 (0x1011)   0x1B            AVC                                     0,834                   2 405                   250 731         1 368
<---- END FORUMS PASTE ---->
QUICK SUMMARY:
Disc Title: Jeff Lynne's ELO - Wembley Or Bust (SD Blu Ray) 2017
Disc Size: 21 108 990 678 bytes
Protection: AACS
BD-Java: No
Playlist: 00021.MPLS
Size: 74 274 816 bytes
Length: 0:00:35.034
Total Bitrate: 16,96 Mbps
Video: MPEG-4 AVC Video / 16184 kbps / 1080p / 23,976 fps / 16:9 / High Profile 4.1
-

Скриншоты

-

Дополнительные скриншоты

-
--

_________________
Разница между теорией и практикой в том, что теоретически разницы между теорией и практикой нет, а на практике она есть.
[Profile] [PM]

Offline

mr.Visitor

Longevity:
5 years 9 months
Posts:
307

sergej644, а по короче записать? Звук укорачивать не нужно.
Люблю твои шедевры!!! bo
------------------------------------------------
Я в полном шоке после просмотра!!!
[Profile] [PM]

Offline

sergej644

Longevity:
6 years 4 months
Posts:
913

247555sergej644, а по короче записать? Звук укорачивать не нужно.
Люблю твои шедевры!!! bo
------------------------------------------------
Я в полном шоке после просмотра!!!
Хочу пролить немного света:
1. SD-Blu-ray - это изображение высокого качества, но рассчитанное на телевизоры 4:3, то есть по горизонтали меньше, а по вертикали 1080i сохраняется. Но судя по изображению, здесь обычный blu-ray, хотя для музыки не совсем стандартный. Заметили 2 черные полосы на экране (на официальном YouTube канале залито это же видео)?
2. Я приобрел официальный релиз и скажу, что никакого упоминания от DTS или 5.1 я не увидел, кстати и в меню нет выбора звука. Смотрите сами, может пропустил.
Считаю релиз на трекере настоящим. К сожалению в последних релизах Линна, со звуком сложности. Надеюсь кому-то помог.

_________________
Разница между теорией и практикой в том, что теоретически разницы между теорией и практикой нет, а на практике она есть.
[Profile] [PM]

Offline

mr.Visitor

Longevity:
5 years 9 months
Posts:
307

У меня нет соответствующего проигрывателя, я просто переименовал исходный файл в Jeff Lynne's ELO - Wembley Or Bust (SD Blu Ray) 2017.m2ts, и прослушиваю или на ПК или с древнего мини-линукс сервера iconBIT HD40NMT на большом телеке + 150-ваттные колонки!
ay
[Profile] [PM]

Offline

mr.Visitor

Longevity:
5 years 9 months
Posts:
307

Telephone Line

[Profile] [PM]
Display posts from previous:    

The time now is: Today 08:12

All times are GMT + 3 Hours



You cannot post new topics in this forum
You cannot reply to topics in this forum
You cannot edit your posts in this forum
You cannot delete your posts in this forum
You cannot vote in polls in this forum
You cannot attach files in this forum
You cannot download files in this forum