Золотые дни идет свободное скачивание без начисления Download
 

Офлайн

sergej644

Стаж:
5 лет 10 месяцев
Сообщений:
892

-Queen - News Of The World - 1977 (3CD Box Set UMC Germany 2017)--
Год издания: 2017
Страна: UK
Жанр: Rock, Pop Rock, Hard Rock
Продолжительность: 02:31:20-Лейбл издания: Virgin EMI Records / Universal Music Catalogue
Страна-выпуска диска: Germany
Номер по каталогу: 00602557842678-Формат: FLAC
Битрейт аудио: Lossless
Тип рипа: image +.cue
Наличие сканов в содержимом раздачи: да
-

Трэклист

CD 1 | Original Album (Bob Ludwig 2011 Master) | 00:39:24


01. We Will Rock You (2:02)
02. We Are The Champions (2:59)
03. Sheer Heart Attack (3:28)
04. All Dead, All Dead (3:10)
05. Spread Your Wings (4:34)
06. Fight From The Inside (3:06)
07. Get Down, Make Love (3:50)
08. Sleeping On The Sidewalk (3:08)
09. Who Needs You (3:08)
10. It's Late (6:28)
11. My Melancholy Blues (3:31)

CD 2 | Raw Sessions | 00:43:34


01. We Will Rock You (Alternative Version) (2:28)
02. We Are The Champions (Alternative Version) (4:35)
03. Sheer Heart Attack (Original Rough Mix) (4:10)
04. All Dead, All Dead (Original Rough Mix) (3:10)
05. Spread Your Wings (Alternative Take) (4:57)
06. Fight From The Inside (Demo Vocal Version) (3:08)
07. Get Down, Make Love (Early Take) (4:03)
08. Sleeping On The Sidewalk (Live In The USA 1977) (3:51)
09. Who Needs You (Acoustic Take) (2:38)
10. It's Late (Alternative Version) (6:51)
11. My Melancholy Blues (Original Rough Mix) (3:43)

CD 3 | Bonus Tracks | 01:08:22


01. Feelings Feelings (Take 10, July 1977) (1:55)
02. We Will Rock You (BBC Session) (1:35)
03. We Will Rock You (Fast) (BBC Session) (2:52)
04. Spread Your Wings (BBC Session) (5:33)
05. It's Late (BBC Session) (6:38)
06. My Melancholy Blues (BBC Session) (3:12)
07. We Will Rock You (Backing Track) (2:03)
08. We Are The Champions (Backing Track) (2:58)
09. Spread Your Wings (Instrumental) (4:22)
10. Fight From The Inside (Instrumental) (3:02)
11. Get Down, Make Love (Instrumental) (3:49)
12. It's Late (USA Radio Edit 1978) (3:52)
13. Sheer Heart Attack (Live In Paris 1979) (3:35)
14. We Will Rock You (Live In Tokyo 1982) (2:54)
15. My Melancholy Blues (Live In Houston 1977) (4:12)
16. Get Down, Make Love (Live In Montreal 1981) (4:37)
17. Spread Your Wings (Live In Europe 1979) (5:22)
18. We Will Rock You (Live At The MK Bowl 1982) (2:11)
19. We Are The Champions (Live At The MK Bowl 1982) (3:41)
-

Лог создания рипа

CD 1

Код:
Exact Audio Copy V1.3 from 2. September 2016
EAC extraction logfile from 30. November 2017, 18:52
Queen / News Of The World CD1 Original Album
Used drive  : PLEXTOR BD-R  PX-B950SA   Adapter: 1  ID: 1
Read mode               : Secure
Utilize accurate stream : Yes
Defeat audio cache      : Yes
Make use of C2 pointers : No
Read offset correction                      : 6
Overread into Lead-In and Lead-Out          : No
Fill up missing offset samples with silence : Yes
Delete leading and trailing silent blocks   : No
Null samples used in CRC calculations       : Yes
Used interface                              : Native Win32 interface for Win NT & 2000
Used output format : Internal WAV Routines
Sample format      : 44.100 Hz; 16 Bit; Stereo
TOC of the extracted CD
     Track |   Start  |  Length  | Start sector | End sector
    ---------------------------------------------------------
        1  |  0:00.00 |  2:02.05 |         0    |     9154
        2  |  2:02.05 |  2:59.15 |      9155    |    22594
        3  |  5:01.20 |  3:27.45 |     22595    |    38164
        4  |  8:28.65 |  3:09.44 |     38165    |    52383
        5  | 11:38.34 |  4:34.17 |     52384    |    72950
        6  | 16:12.51 |  3:06.34 |     72951    |    86934
        7  | 19:19.10 |  3:50.09 |     86935    |   104193
        8  | 23:09.19 |  3:07.39 |    104194    |   118257
        9  | 26:16.58 |  3:08.35 |    118258    |   132392
       10  | 29:25.18 |  6:27.42 |    132393    |   161459
       11  | 35:52.60 |  3:31.25 |    161460    |   177309
Range status and errors
Selected range
     Filename C:\Users\Alex\Desktop\Lossless Galaxy ALLexxess\Queen\1977 News Of The World (5-Disc Box Set UMC 2017)\CD1\Queen - News Of The World CD1 Original Album.wav
     Peak level 100.0 %
     Extraction speed 6.5 X
     Range quality 100.0 %
     Test CRC 5DB452EB
     Copy CRC 5DB452EB
     Copy OK
No errors occurred
AccurateRip summary
Track  1  cannot be verified as accurate (confidence 200)  [A9E6AF64], AccurateRip returned [6D21D90A]  (AR v2)
Track  2  cannot be verified as accurate (confidence 200)  [26F50BC4], AccurateRip returned [74752526]  (AR v2)
Track  3  cannot be verified as accurate (confidence 200)  [385CCD75], AccurateRip returned [9CADCE32]  (AR v2)
Track  4  cannot be verified as accurate (confidence 200)  [3560BEA7], AccurateRip returned [3CDC2D50]  (AR v2)
Track  5  cannot be verified as accurate (confidence 200)  [4EE0CEE3], AccurateRip returned [C656B291]  (AR v2)
Track  6  cannot be verified as accurate (confidence 200)  [2A511B22], AccurateRip returned [4C8D5DB5]  (AR v2)
Track  7  cannot be verified as accurate (confidence 200)  [F9BD1746], AccurateRip returned [4D2CFCF0]  (AR v2)
Track  8  cannot be verified as accurate (confidence 200)  [A215755C], AccurateRip returned [8DCCA555]  (AR v2)
Track  9  cannot be verified as accurate (confidence 200)  [F823EFB3], AccurateRip returned [9FC698B3]  (AR v2)
Track 10  cannot be verified as accurate (confidence 200)  [C5176737], AccurateRip returned [F57CC0F0]  (AR v2)
Track 11  cannot be verified as accurate (confidence 200)  [D7AA8CF0], AccurateRip returned [854C7269]  (AR v2)
No tracks could be verified as accurate
You may have a different pressing from the one(s) in the database
End of status report
---- CUETools DB Plugin V2.1.6
[CTDB TOCID: wmmIAsQNO66FKxN61C.5_ADkmlo-] found
Submit result: wmmIAsQNO66FKxN61C.5_ADkmlo- has been confirmed
Track | CTDB Status
  1   | (470/627) Accurately ripped
  2   | (469/627) Accurately ripped
  3   | (466/627) Accurately ripped
  4   | (468/627) Accurately ripped
  5   | (469/627) Accurately ripped
  6   | (468/627) Accurately ripped
  7   | (468/627) Accurately ripped
  8   | (468/627) Accurately ripped
  9   | (469/627) Accurately ripped
10   | (467/627) Accurately ripped
11   | (466/627) Accurately ripped

CD 2

Код:
Exact Audio Copy V1.3 from 2. September 2016
EAC extraction logfile from 30. November 2017, 18:23
Queen / News Of The World CD2 Raw Sessions
Used drive  : PLEXTOR BD-R  PX-B950SA   Adapter: 1  ID: 1
Read mode               : Secure
Utilize accurate stream : Yes
Defeat audio cache      : Yes
Make use of C2 pointers : No
Read offset correction                      : 6
Overread into Lead-In and Lead-Out          : No
Fill up missing offset samples with silence : Yes
Delete leading and trailing silent blocks   : No
Null samples used in CRC calculations       : Yes
Used interface                              : Native Win32 interface for Win NT & 2000
Used output format : Internal WAV Routines
Sample format      : 44.100 Hz; 16 Bit; Stereo
TOC of the extracted CD
     Track |   Start  |  Length  | Start sector | End sector
    ---------------------------------------------------------
        1  |  0:00.00 |  2:28.32 |         0    |    11131
        2  |  2:28.32 |  4:34.51 |     11132    |    31732
        3  |  7:03.08 |  4:10.20 |     31733    |    50502
        4  | 11:13.28 |  3:10.28 |     50503    |    64780
        5  | 14:23.56 |  4:56.61 |     64781    |    87041
        6  | 19:20.42 |  3:08.33 |     87042    |   101174
        7  | 22:29.00 |  4:02.53 |    101175    |   119377
        8  | 26:31.53 |  3:51.28 |    119378    |   136730
        9  | 30:23.06 |  2:37.52 |    136731    |   148557
       10  | 33:00.58 |  6:50.47 |    148558    |   179354
       11  | 39:51.30 |  3:42.39 |    179355    |   196043
Range status and errors
Selected range
     Filename C:\Users\Alex\Desktop\Lossless Galaxy ALLexxess\Queen\1977 News Of The World (5-Disc Box Set UMC 2017)\CD2\Queen - News Of The World CD2 Raw Sessions.wav
     Peak level 100.0 %
     Extraction speed 6.9 X
     Range quality 100.0 %
     Test CRC D33A65FC
     Copy CRC D33A65FC
     Copy OK
No errors occurred
AccurateRip summary
Track  1  not present in database
Track  2  not present in database
Track  3  not present in database
Track  4  not present in database
Track  5  not present in database
Track  6  not present in database
Track  7  not present in database
Track  8  not present in database
Track  9  not present in database
Track 10  not present in database
Track 11  not present in database
None of the tracks are present in the AccurateRip database
End of status report
---- CUETools DB Plugin V2.1.6
[CTDB TOCID: IP5vUtpLBGbB2vOZf2VjAqYyRmE-] found
Submit result: IP5vUtpLBGbB2vOZf2VjAqYyRmE- has been confirmed
Track | CTDB Status
  1   | (20/20) Accurately ripped
  2   | (20/20) Accurately ripped
  3   | (20/20) Accurately ripped
  4   | (20/20) Accurately ripped
  5   | (20/20) Accurately ripped
  6   | (20/20) Accurately ripped
  7   | (20/20) Accurately ripped
  8   | (20/20) Accurately ripped
  9   | (20/20) Accurately ripped
10   | (20/20) Accurately ripped
11   | (20/20) Accurately ripped

CD 3

Код:
Exact Audio Copy V1.3 from 2. September 2016
EAC extraction logfile from 30. November 2017, 17:57
Queen / News Of The World CD3 Bonus Tracks
Used drive  : PLEXTOR BD-R  PX-B950SA   Adapter: 1  ID: 1
Read mode               : Secure
Utilize accurate stream : Yes
Defeat audio cache      : Yes
Make use of C2 pointers : No
Read offset correction                      : 6
Overread into Lead-In and Lead-Out          : No
Fill up missing offset samples with silence : Yes
Delete leading and trailing silent blocks   : No
Null samples used in CRC calculations       : Yes
Used interface                              : Native Win32 interface for Win NT & 2000
Used output format : Internal WAV Routines
Sample format      : 44.100 Hz; 16 Bit; Stereo
TOC of the extracted CD
     Track |   Start  |  Length  | Start sector | End sector
    ---------------------------------------------------------
        1  |  0:00.00 |  1:54.72 |         0    |     8621
        2  |  1:54.72 |  1:35.35 |      8622    |    15781
        3  |  3:30.32 |  2:51.57 |     15782    |    28663
        4  |  6:22.14 |  5:32.46 |     28664    |    53609
        5  | 11:54.60 |  6:38.36 |     53610    |    83495
        6  | 18:33.21 |  3:12.27 |     83496    |    97922
        7  | 21:45.48 |  2:02.71 |     97923    |   107143
        8  | 23:48.44 |  2:58.20 |    107144    |   120513
        9  | 26:46.64 |  4:21.50 |    120514    |   140138
       10  | 31:08.39 |  3:02.00 |    140139    |   153788
       11  | 34:10.39 |  3:48.40 |    153789    |   170928
       12  | 37:59.04 |  3:51.62 |    170929    |   188315
       13  | 41:50.66 |  3:35.11 |    188316    |   204451
       14  | 45:26.02 |  2:54.08 |    204452    |   217509
       15  | 48:20.10 |  4:11.60 |    217510    |   236394
       16  | 52:31.70 |  4:37.05 |    236395    |   257174
       17  | 57:09.00 |  5:21.53 |    257175    |   281302
       18  | 62:30.53 |  2:10.65 |    281303    |   291117
       19  | 64:41.43 |  3:40.60 |    291118    |   307677
Range status and errors
Selected range
     Filename C:\Users\Alex\Desktop\Lossless Galaxy ALLexxess\Queen\1977 News Of The World (5-Disc Box Set UMC 2017)\CD3\Queen - News Of The World CD3 Bonus Tracks.wav
     Peak level 100.0 %
     Extraction speed 7.6 X
     Range quality 100.0 %
     Test CRC 739624F8
     Copy CRC 739624F8
     Copy OK
No errors occurred
AccurateRip summary
Track  1  not present in database
Track  2  not present in database
Track  3  not present in database
Track  4  not present in database
Track  5  not present in database
Track  6  not present in database
Track  7  not present in database
Track  8  not present in database
Track  9  not present in database
Track 10  not present in database
Track 11  not present in database
Track 12  not present in database
Track 13  not present in database
Track 14  not present in database
Track 15  not present in database
Track 16  not present in database
Track 17  not present in database
Track 18  not present in database
Track 19  not present in database
None of the tracks are present in the AccurateRip database
End of status report
---- CUETools DB Plugin V2.1.6
[CTDB TOCID: zpkyOJszjxR09tQ1A_Pg3LtxrkQ-] found
Submit result: zpkyOJszjxR09tQ1A_Pg3LtxrkQ- has been confirmed
Track | CTDB Status
  1   | (20/20) Accurately ripped
  2   | (20/20) Accurately ripped
  3   | (20/20) Accurately ripped
  4   | (20/20) Accurately ripped
  5   | (20/20) Accurately ripped
  6   | (20/20) Accurately ripped
  7   | (20/20) Accurately ripped
  8   | (20/20) Accurately ripped
  9   | (20/20) Accurately ripped
10   | (20/20) Accurately ripped
11   | (20/20) Accurately ripped
12   | (20/20) Accurately ripped
13   | (20/20) Accurately ripped
14   | (20/20) Accurately ripped
15   | (20/20) Accurately ripped
16   | (20/20) Accurately ripped
17   | (20/20) Accurately ripped
18   | (20/20) Accurately ripped
19   | (19/20) Accurately ripped

Индексная карта (non-compilant .cue)

CD 1

Код:
REM GENRE Rock
REM DATE 1977
REM DISCID 7D093C0B
REM COMMENT "ExactAudioCopy v1.3"
PERFORMER "Queen"
TITLE "News Of The World CD1 Original Album"
REM COMPOSER "Queen"
FILE "Queen - News Of The World CD1 Original Album.flac" WAVE
  TRACK 01 AUDIO
    TITLE "We Will Rock You"
    PERFORMER "Queen"
    REM COMPOSER "Queen"
    INDEX 01 00:00:00
  TRACK 02 AUDIO
    TITLE "We Are The Champions"
    PERFORMER "Queen"
    REM COMPOSER "Queen"
    INDEX 01 02:02:05
  TRACK 03 AUDIO
    TITLE "Sheer Heart Attack"
    PERFORMER "Queen"
    REM COMPOSER "Queen"
    INDEX 01 05:01:20
  TRACK 04 AUDIO
    TITLE "All Dead, All Dead"
    PERFORMER "Queen"
    REM COMPOSER "Queen"
    INDEX 01 08:28:65
  TRACK 05 AUDIO
    TITLE "Spread Your Wings"
    PERFORMER "Queen"
    REM COMPOSER "Queen"
    INDEX 01 11:38:34
  TRACK 06 AUDIO
    TITLE "Fight From The Inside"
    PERFORMER "Queen"
    REM COMPOSER "Queen"
    INDEX 01 16:12:51
  TRACK 07 AUDIO
    TITLE "Get Down, Make Love"
    PERFORMER "Queen"
    REM COMPOSER "Queen"
    INDEX 00 19:14:23
    INDEX 01 19:19:10
  TRACK 08 AUDIO
    TITLE "Sleeping On The Sidewalk"
    PERFORMER "Queen"
    REM COMPOSER "Queen"
    INDEX 01 23:09:19
  TRACK 09 AUDIO
    TITLE "Who Needs You"
    PERFORMER "Queen"
    REM COMPOSER "Queen"
    INDEX 00 26:15:25
    INDEX 01 26:16:58
  TRACK 10 AUDIO
    TITLE "It's Late"
    PERFORMER "Queen"
    REM COMPOSER "Queen"
    INDEX 00 29:23:47
    INDEX 01 29:25:18
  TRACK 11 AUDIO
    TITLE "My Melancholy Blues"
    PERFORMER "Queen"
    REM COMPOSER "Queen"
    INDEX 00 35:51:45
    INDEX 01 35:52:60

CD 2

Код:
REM GENRE Rock
REM DATE 2017
REM DISCID 930A350B
REM COMMENT "ExactAudioCopy v1.3"
PERFORMER "Queen"
TITLE "News Of The World CD2 Raw Sessions"
REM COMPOSER "Queen"
FILE "Queen - News Of The World CD2 Raw Sessions.flac" WAVE
  TRACK 01 AUDIO
    TITLE "We Will Rock You (Alternative Version)"
    PERFORMER "Queen"
    REM COMPOSER "Queen"
    INDEX 01 00:00:00
  TRACK 02 AUDIO
    TITLE "We Are The Champions (Alternative Version)"
    PERFORMER "Queen"
    REM COMPOSER "Queen"
    INDEX 01 02:28:32
  TRACK 03 AUDIO
    TITLE "Sheer Heart Attack (Original Rough Mix)"
    PERFORMER "Queen"
    REM COMPOSER "Queen"
    INDEX 01 07:03:08
  TRACK 04 AUDIO
    TITLE "All Dead, All Dead (Original Rough Mix)"
    PERFORMER "Queen"
    REM COMPOSER "Queen"
    INDEX 01 11:13:28
  TRACK 05 AUDIO
    TITLE "Spread Your Wings (Alternative Take)"
    PERFORMER "Queen"
    REM COMPOSER "Queen"
    INDEX 00 14:22:19
    INDEX 01 14:23:56
  TRACK 06 AUDIO
    TITLE "Fight From The Inside (Demo Vocal Version)"
    PERFORMER "Queen"
    REM COMPOSER "Queen"
    INDEX 00 19:18:74
    INDEX 01 19:20:42
  TRACK 07 AUDIO
    TITLE "Get Down, Make Love (Early Take)"
    PERFORMER "Queen"
    REM COMPOSER "Queen"
    INDEX 01 22:29:00
  TRACK 08 AUDIO
    TITLE "Sleeping On The Sidewalk (Live In The USA 1977)"
    PERFORMER "Queen"
    REM COMPOSER "Queen"
    INDEX 00 26:31:25
    INDEX 01 26:31:53
  TRACK 09 AUDIO
    TITLE "Who Needs You (Acoustic Take)"
    PERFORMER "Queen"
    REM COMPOSER "Queen"
    INDEX 00 30:21:23
    INDEX 01 30:23:06
  TRACK 10 AUDIO
    TITLE "It's Late (Alternative Version)"
    PERFORMER "Queen"
    REM COMPOSER "Queen"
    INDEX 00 33:00:53
    INDEX 01 33:00:58
  TRACK 11 AUDIO
    TITLE "My Melancholy Blues (Original Rough Mix)"
    PERFORMER " "
    REM COMPOSER "Queen"
    INDEX 00 39:50:05
    INDEX 01 39:51:30

CD 3

Код:
REM GENRE Rock
REM DATE 1977
REM DISCID E4100613
REM COMMENT "ExactAudioCopy v1.3"
PERFORMER "Queen"
TITLE "News Of The World CD3 Bonus Tracks"
REM COMPOSER "Queen"
FILE "Queen - News Of The World CD3 Bonus Tracks.flac" WAVE
  TRACK 01 AUDIO
    TITLE "Feelings Feelings (Take 10, July 1977)"
    PERFORMER "Queen"
    REM COMPOSER "Queen"
    INDEX 01 00:00:00
  TRACK 02 AUDIO
    TITLE "We Will Rock You (BBC Session)"
    PERFORMER "Queen"
    REM COMPOSER "Queen"
    INDEX 01 01:54:72
  TRACK 03 AUDIO
    TITLE "We Will Rock You (Fast) (BBC Session)"
    PERFORMER "Queen"
    REM COMPOSER "Queen"
    INDEX 01 03:30:32
  TRACK 04 AUDIO
    TITLE "Spread Your Wings (BBC Session)"
    PERFORMER "Queen"
    REM COMPOSER "Queen"
    INDEX 01 06:22:14
  TRACK 05 AUDIO
    TITLE "It's Late (BBC Session)"
    PERFORMER "Queen"
    REM COMPOSER "Queen"
    INDEX 01 11:54:60
  TRACK 06 AUDIO
    TITLE "My Melancholy Blues (BBC Session)"
    PERFORMER "Queen"
    REM COMPOSER "Queen"
    INDEX 01 18:33:21
  TRACK 07 AUDIO
    TITLE "We Will Rock You (Backing Track)"
    PERFORMER "Queen"
    REM COMPOSER "Queen"
    INDEX 00 21:43:64
    INDEX 01 21:45:48
  TRACK 08 AUDIO
    TITLE "We Are The Champions (Backing Track)"
    PERFORMER "Queen"
    REM COMPOSER "Queen"
    INDEX 00 23:46:39
    INDEX 01 23:48:44
  TRACK 09 AUDIO
    TITLE "Spread Your Wings (Instrumental)"
    PERFORMER "Queen"
    REM COMPOSER "Queen"
    INDEX 00 26:45:05
    INDEX 01 26:46:64
  TRACK 10 AUDIO
    TITLE "Fight From The Inside (Instrumental)"
    PERFORMER "Queen"
    REM COMPOSER "Queen"
    INDEX 00 31:06:69
    INDEX 01 31:08:39
  TRACK 11 AUDIO
    TITLE "Get Down, Make Love (Instrumental)"
    PERFORMER "Queen"
    REM COMPOSER "Queen"
    INDEX 00 34:09:22
    INDEX 01 34:10:39
  TRACK 12 AUDIO
    TITLE "It's Late (USA Radio Edit 1978)"
    PERFORMER "Queen"
    REM COMPOSER "Queen"
    INDEX 00 37:57:31
    INDEX 01 37:59:04
  TRACK 13 AUDIO
    TITLE "Sheer Heart Attack (Live In Paris 1979)"
    PERFORMER "Queen"
    REM COMPOSER "Queen"
    INDEX 00 41:49:26
    INDEX 01 41:50:66
  TRACK 14 AUDIO
    TITLE "We Will Rock You (Live In Tokyo 1982)"
    PERFORMER "Queen"
    REM COMPOSER "Queen"
    INDEX 00 45:25:25
    INDEX 01 45:26:02
  TRACK 15 AUDIO
    TITLE "My Melancholy Blues (Live In Houston 1977)"
    PERFORMER "Queen"
    REM COMPOSER "Queen"
    INDEX 00 48:18:66
    INDEX 01 48:20:10
  TRACK 16 AUDIO
    TITLE "Get Down, Make Love (Live In Montreal 1981)"
    PERFORMER "Queen"
    REM COMPOSER "Queen"
    INDEX 00 52:30:55
    INDEX 01 52:31:70
  TRACK 17 AUDIO
    TITLE "Spread Your Wings (Live In Europe 1979)"
    PERFORMER "Queen"
    REM COMPOSER "Queen"
    INDEX 00 57:07:47
    INDEX 01 57:09:00
  TRACK 18 AUDIO
    TITLE "We Will Rock You (Live At The MK Bowl 1982)"
    PERFORMER "Queen"
    REM COMPOSER "Queen"
    INDEX 00 62:29:03
    INDEX 01 62:30:53
  TRACK 19 AUDIO
    TITLE "We Are The Champions (Live At The MK Bowl 1982)"
    PERFORMER "Queen"
    REM COMPOSER "Queen"
    INDEX 01 64:41:43
--

_________________
Разница между теорией и практикой в том, что теоретически разницы между теорией и практикой нет, а на практике она есть.
[Профиль] [ЛС]
Показать сообщения:    

Текущее время: Сегодня 18:56

Часовой пояс: GMT + 3



Вы не можете начинать темы
Вы не можете отвечать на сообщения
Вы не можете редактировать свои сообщения
Вы не можете удалять свои сообщения
Вы не можете голосовать в опросах
Вы не можете прикреплять файлы к сообщениям
Вы не можете скачивать файлы