Золотые дни идет свободное скачивание без начисления Download
 

Онлайн

volodya133

Стаж:
3 года 4 месяца
Сообщений:
770

Александр Тиханович - Последний концертЖанр: POP
Год выпуска: 2016
Продолжительность: 01:32:17
Описание: Последний концерт Алексанндра Тихановича и Ядвиги Поплавской в г.Комсомольск Украина.
Формат: MKV
Качество: WEBRip 720p
Видео кодек: H.264
Аудио кодек: AAC
Видео: H.264 1280x720 (16:9) 30fps 3 600 Kbps
Аудио: AAC 48000Hz, 2ch, 192 kbps

MedaInfo

Complete name : D:Tehanovich_2016.mkv
Format : Matroska
Format version : Version 4 / Version 2
File size : 2.45 GiB
Duration : 1 h 32 min
Overall bit rate : 3 796 kb/s
Encoded date : UTC 2017-10-11 00:42:28
Writing application : mkvmerge v8.3.0 ('Over the Horizon') 64bit
Writing library : libebml v1.3.1 + libmatroska v1.4.2
Video
ID : 1
Format : AVC
Format/Info : Advanced Video Codec
Format profile : Main@L4.1
Format settings, CABAC : Yes
Format settings, ReFrames : 4 frames
Format settings, GOP : M=4, N=29
Codec ID : V_MPEG4/ISO/AVC
Duration : 1 h 32 min
Bit rate : 3 604 kb/s
Width : 1 280 pixels
Height : 720 pixels
Display aspect ratio : 16:9
Frame rate mode : Constant
Frame rate : 29.970 (30000/1001) FPS
Standard : NTSC
Color space : YUV
Chroma subsampling : 4:2:0
Bit depth : 8 bits
Scan type : Progressive
Bits/(Pixel*Frame) : 0.130
Stream size : 2.32 GiB (95%)
Language : English
Default : Yes
Forced : No
Color range : Limited
Color primaries : BT.709
Transfer characteristics : BT.709
Matrix coefficients : BT.709
Audio
ID : 2
Format : AAC
Format/Info : Advanced Audio Codec
Format profile : LC
Codec ID : A_AAC
Duration : 1 h 32 min
Bit rate : 192 kb/s
Channel(s) : 2 channels
Channel positions : Front: L R
Sampling rate : 48.0 kHz
Frame rate : 46.875 FPS (1024 spf)
Compression mode : Lossy
Stream size : 125 MiB (5%)
Language : English
Default : Yes
Forced : No

Скриншоты

[Профиль] [ЛС]
Показать сообщения:    

Текущее время: Сегодня 12:47

Часовой пояс: GMT + 3



Вы не можете начинать темы
Вы не можете отвечать на сообщения
Вы не можете редактировать свои сообщения
Вы не можете удалять свои сообщения
Вы не можете голосовать в опросах
Вы не можете прикреплять файлы к сообщениям
Вы не можете скачивать файлы