Золотые дни идет свободное скачивание без начисления Download
 

Офлайн

sergej644

Стаж:
5 лет 5 месяцев
Сообщений:
853

-Def Leppard - 1987 - Hysteria (5CD + 2DVD Box Set Universal Music 2017)--
Год издания: 2017
Страна: UK
Жанр: Hard Rock
Продолжительность: 04:29:09-Лейбл издания: Phonogram Records / Universal Music
Страна-выпуска диска: EU
Номер по каталогу (Box): 5756093
Номер по каталогу (Discs): 5756094~5756100-Формат: FLAC
Битрейт аудио: Lossless
Тип рипа: image +.cue
Наличие сканов в содержимом раздачи: да
-

Трэклист

CD 1 Original Album | Def Leppard - Hysteria / 01:02:37


01. Women (5:43)
02. Rocket (6:37)
03. Animal (4:05)
04. Love Bites (5:47)
05. Pour Some Sugar On Me (4:27)
06. Armageddon It (5:23)
07. Gods Of War (6:38)
08. Don't Shoot Shot Gun (4:27)
09. Run Riot (4:39)
10. Hysteria (5:55)
11. Excitable (4:19)
12. Love And Affection (4:38)

CD 2 B-Sides And Remixes | Def Leppard - Hysteria / 01:04:49


01. Tear It Down (B-Side) (3:38)
02. I Wanna Be Your Hero (B-Side) (4:36)
03. Ride Into The Sun (B-Side) (3:07)
04. Ring Of Fire (B-Side) (4:37)
05. Women (Radio Edit) (4:55)
06. Rocket (Radio Edit) (4:38)
07. Love Bites (Radio Edit) (4:49)
08. Hysteria (Radio Edit) (3:48)
09. Pour Some Sugar On Me (Radio Edit) (4:23)
10. Armageddon It (Radio Edit) (4:12)
11. Stumpus Maximus And The Good Ol' Boys - Release Me (3:31)
12. Classic Album Hysteria (BBC Radio Documentary) (18:35)

CD 3 B-Sides And Remixes | Def Leppard - Hysteria / 00:59:15


01. Rocket (The Lunar Mix / Extended Version / 12’’ Single) (8:40)
02. Armageddon It (The Nuclear Mix / 12’’ Single) (7:42)
03. Animal (Extended Version) (4:52)
04. Pour Some Sugar On Me (Extended Version) (5:36)
05. Exciteable (The Orgasmic Mix / B-Side) (6:25)
06. Rocket (Lunar Mix / 12’’ Single) (7:06)
07. Rock Of Ages: Medley (Live / B-Side) (8:39)
08. Love And Affection (Live / B-Side) (4:51)
09. Billy's Got A Gun (Live / B-Side) (5:22)

CD 4 In The Round, In Your Face (Live) | Def Leppard - Hysteria / 00:39:38


01. Stagefright (4:16)
02. Rock! Rock! (Till You Drop) (3:33)
03. Women (6:14)
04. Too Late For Love (5:51)
05. Hysteria (7:00)
06. Gods Of War (6:33)
07. Die Hard The Hunter (6:10)

CD 5 In The Round, In Your Face (Live) | Def Leppard - Hysteria / 00:42:50


01. Bringin' On The Heartbreak (6:19)
02. Foolin' (5:06)
03. Armageddon It (5:31)
04. Animal (4:51)
05. Pour Some Sugar On Me (4:52)
06. Phil's Solo (3:06)
07. Rock Of Ages (7:43)
08. Photograph (5:20)
-

Лог создания рипа

CD 1 Original Album | Def Leppard - Hysteria

Лог создания рипа

Код:
Exact Audio Copy V1.3 from 2. September 2016
EAC extraction logfile from 13. September 2017, 18:58
Def Leppard / Hysteria CD1
Used drive  : PLEXTOR BD-R  PX-B950SA   Adapter: 1  ID: 1
Read mode               : Secure
Utilize accurate stream : Yes
Defeat audio cache      : Yes
Make use of C2 pointers : No
Read offset correction                      : 6
Overread into Lead-In and Lead-Out          : No
Fill up missing offset samples with silence : Yes
Delete leading and trailing silent blocks   : No
Null samples used in CRC calculations       : Yes
Used interface                              : Native Win32 interface for Win NT & 2000
Used output format : Internal WAV Routines
Sample format      : 44.100 Hz; 16 Bit; Stereo
TOC of the extracted CD
     Track |   Start  |  Length  | Start sector | End sector
    ---------------------------------------------------------
        1  |  0:00.00 |  5:42.71 |         0    |    25720
        2  |  5:42.71 |  6:36.65 |     25721    |    55485
        3  | 12:19.61 |  4:04.38 |     55486    |    73823
        4  | 16:24.24 |  5:46.72 |     73824    |    99845
        5  | 22:11.21 |  4:27.23 |     99846    |   119893
        6  | 26:38.44 |  5:22.65 |    119894    |   144108
        7  | 32:01.34 |  6:37.54 |    144109    |   173937
        8  | 38:39.13 |  4:26.67 |    173938    |   193954
        9  | 43:06.05 |  4:39.11 |    193955    |   214890
       10  | 47:45.16 |  5:54.59 |    214891    |   241499
       11  | 53:40.00 |  4:19.22 |    241500    |   260946
       12  | 57:59.22 |  4:37.59 |    260947    |   281780
Range status and errors
Selected range
     Filename C:\Users\Alex\Desktop\Lossless Galaxy ALLexxess\Def Leppard\1987 Hysteria (7-Disc Box Set Universal Music 2017)\CD1 Original Album\Def Leppard - Hysteria CD1.wav
     Peak level 97.3 %
     Extraction speed 7.5 X
     Range quality 100.0 %
     Test CRC 0534EEFB
     Copy CRC 0534EEFB
     Copy OK
No errors occurred
AccurateRip summary
Track  1  not present in database
Track  2  not present in database
Track  3  not present in database
Track  4  not present in database
Track  5  not present in database
Track  6  not present in database
Track  7  not present in database
Track  8  not present in database
Track  9  not present in database
Track 10  not present in database
Track 11  not present in database
Track 12  not present in database
None of the tracks are present in the AccurateRip database
End of status report
---- CUETools DB Plugin V2.1.6
[CTDB TOCID: k6slqgVcHL5L8Mmo5OgXCi.tdew-] found
Submit result: k6slqgVcHL5L8Mmo5OgXCi.tdew- has been confirmed
Track | CTDB Status
  1   | (66/66) Accurately ripped
  2   | (65/66) Accurately ripped
  3   | (66/66) Accurately ripped
  4   | (66/66) Accurately ripped
  5   | (66/66) Accurately ripped
  6   | (65/66) Accurately ripped
  7   | (66/66) Accurately ripped
  8   | (66/66) Accurately ripped
  9   | (66/66) Accurately ripped
10   | (66/66) Accurately ripped
11   | (66/66) Accurately ripped
12   | (66/66) Accurately ripped

Индексная карта (non-compilant .cue)

Код:
REM GENRE "Hard Rock"
REM DATE 1987
REM DISCID 9F0EAD0C
REM COMMENT "ExactAudioCopy v1.3"
PERFORMER "Def Leppard"
TITLE "Hysteria CD1"
REM COMPOSER "Def Leppard"
FILE "Def Leppard - Hysteria CD1.flac" WAVE
  TRACK 01 AUDIO
    TITLE "Women"
    PERFORMER "Def Leppard"
    REM COMPOSER "Def Leppard"
    INDEX 01 00:00:00
  TRACK 02 AUDIO
    TITLE "Rocket"
    PERFORMER "Def Leppard"
    REM COMPOSER "Def Leppard"
    INDEX 01 05:42:71
  TRACK 03 AUDIO
    TITLE "Animal"
    PERFORMER "Def Leppard"
    REM COMPOSER "Def Leppard"
    INDEX 01 12:19:61
  TRACK 04 AUDIO
    TITLE "Love Bites"
    PERFORMER "Def Leppard"
    REM COMPOSER "Def Leppard"
    INDEX 01 16:24:24
  TRACK 05 AUDIO
    TITLE "Pour Some Sugar On Me"
    PERFORMER "Def Leppard"
    REM COMPOSER "Def Leppard"
    INDEX 01 22:11:21
  TRACK 06 AUDIO
    TITLE "Armageddon It"
    PERFORMER "Def Leppard"
    REM COMPOSER "Def Leppard"
    INDEX 01 26:38:44
  TRACK 07 AUDIO
    TITLE "Gods Of War"
    PERFORMER "Def Leppard"
    REM COMPOSER "Def Leppard"
    INDEX 01 32:01:34
  TRACK 08 AUDIO
    TITLE "Don't Shoot Shot Gun"
    PERFORMER "Def Leppard"
    REM COMPOSER "Def Leppard"
    INDEX 01 38:39:13
  TRACK 09 AUDIO
    TITLE "Run Riot"
    PERFORMER "Def Leppard"
    REM COMPOSER "Def Leppard"
    INDEX 01 43:06:05
  TRACK 10 AUDIO
    TITLE "Hysteria"
    PERFORMER "Def Leppard"
    REM COMPOSER "Def Leppard"
    INDEX 01 47:45:16
  TRACK 11 AUDIO
    TITLE "Excitable"
    PERFORMER "Def Leppard"
    REM COMPOSER "Def Leppard"
    INDEX 01 53:40:00
  TRACK 12 AUDIO
    TITLE "Love And Affection"
    PERFORMER "Def Leppard"
    REM COMPOSER "Def Leppard"
    INDEX 01 57:59:22

CD 2 B-Sides And Remixes | Def Leppard - Hysteria

Лог создания рипа

Код:
Exact Audio Copy V1.3 from 2. September 2016
EAC extraction logfile from 13. September 2017, 18:28
Def Leppard / Hysteria CD2
Used drive  : PLEXTOR BD-R  PX-B950SA   Adapter: 1  ID: 1
Read mode               : Secure
Utilize accurate stream : Yes
Defeat audio cache      : Yes
Make use of C2 pointers : No
Read offset correction                      : 6
Overread into Lead-In and Lead-Out          : No
Fill up missing offset samples with silence : Yes
Delete leading and trailing silent blocks   : No
Null samples used in CRC calculations       : Yes
Used interface                              : Native Win32 interface for Win NT & 2000
Used output format : Internal WAV Routines
Sample format      : 44.100 Hz; 16 Bit; Stereo
TOC of the extracted CD
     Track |   Start  |  Length  | Start sector | End sector
    ---------------------------------------------------------
        1  |  0:00.00 |  3:38.01 |         0    |    16350
        2  |  3:38.01 |  4:35.48 |     16351    |    37023
        3  |  8:13.49 |  3:07.05 |     37024    |    51053
        4  | 11:20.54 |  4:36.42 |     51054    |    71795
        5  | 15:57.21 |  4:55.35 |     71796    |    93955
        6  | 20:52.56 |  4:37.42 |     93956    |   114772
        7  | 25:30.23 |  4:48.73 |    114773    |   136445
        8  | 30:19.21 |  3:48.30 |    136446    |   153575
        9  | 34:07.51 |  4:23.10 |    153576    |   173310
       10  | 38:30.61 |  4:12.15 |    173311    |   192225
       11  | 42:43.01 |  3:31.09 |    192226    |   208059
       12  | 46:14.10 | 18:35.26 |    208060    |   291710
Range status and errors
Selected range
     Filename C:\Users\Alex\Desktop\Lossless Galaxy ALLexxess\Def Leppard\1987 Hysteria (7-Disc Box Set Universal Music 2017)\CD2 B-Sides And Remixes\Def Leppard - Hysteria CD2.wav
     Peak level 97.3 %
     Extraction speed 7.5 X
     Range quality 100.0 %
     Test CRC 42F0A083
     Copy CRC 42F0A083
     Copy OK
No errors occurred
AccurateRip summary
Track  1  not present in database
Track  2  not present in database
Track  3  not present in database
Track  4  not present in database
Track  5  not present in database
Track  6  not present in database
Track  7  not present in database
Track  8  not present in database
Track  9  not present in database
Track 10  not present in database
Track 11  not present in database
Track 12  not present in database
None of the tracks are present in the AccurateRip database
End of status report
---- CUETools DB Plugin V2.1.6
[CTDB TOCID: nvsdnMe6STC8KYeVal.2VhZLvZI-] found
Submit result: nvsdnMe6STC8KYeVal.2VhZLvZI- has been confirmed
Track | CTDB Status
  1   | (14/14) Accurately ripped
  2   | (14/14) Accurately ripped
  3   | (14/14) Accurately ripped
  4   | (14/14) Accurately ripped
  5   | (14/14) Accurately ripped
  6   | (14/14) Accurately ripped
  7   | (14/14) Accurately ripped
  8   | (14/14) Accurately ripped
  9   | (14/14) Accurately ripped
10   | (13/14) Accurately ripped
11   | (14/14) Accurately ripped
12   | (14/14) Accurately ripped

Индексная карта (non-compilant .cue)

Код:
REM GENRE "Hard Rock"
REM DATE 2017
REM DISCID A10F310C
REM COMMENT "ExactAudioCopy v1.3"
PERFORMER "Def Leppard"
TITLE "Hysteria CD2"
REM COMPOSER "Def Leppard"
FILE "Def Leppard - Hysteria CD2.flac" WAVE
  TRACK 01 AUDIO
    TITLE "Tear It Down (B-Side)"
    PERFORMER "Def Leppard"
    REM COMPOSER "Def Leppard"
    INDEX 01 00:00:00
  TRACK 02 AUDIO
    TITLE "I Wanna Be Your Hero (B-Side)"
    PERFORMER "Def Leppard"
    REM COMPOSER "Def Leppard"
    INDEX 01 03:38:01
  TRACK 03 AUDIO
    TITLE "Ride Into The Sun (B-Side)"
    PERFORMER "Def Leppard"
    REM COMPOSER "Def Leppard"
    INDEX 01 08:13:49
  TRACK 04 AUDIO
    TITLE "Ring Of Fire (B-Side)"
    PERFORMER "Def Leppard"
    REM COMPOSER "Def Leppard"
    INDEX 01 11:20:54
  TRACK 05 AUDIO
    TITLE "Women (Radio Edit)"
    PERFORMER "Def Leppard"
    REM COMPOSER "Def Leppard"
    INDEX 01 15:57:21
  TRACK 06 AUDIO
    TITLE "Rocket (Radio Edit)"
    PERFORMER "Def Leppard"
    REM COMPOSER "Def Leppard"
    INDEX 01 20:52:56
  TRACK 07 AUDIO
    TITLE "Love Bites (Radio Edit)"
    PERFORMER "Def Leppard"
    REM COMPOSER "Def Leppard"
    INDEX 01 25:30:23
  TRACK 08 AUDIO
    TITLE "Hysteria (Radio Edit)"
    PERFORMER "Def Leppard"
    REM COMPOSER "Def Leppard"
    INDEX 01 30:19:21
  TRACK 09 AUDIO
    TITLE "Pour Some Sugar On Me (Radio Edit)"
    PERFORMER "Def Leppard"
    REM COMPOSER "Def Leppard"
    INDEX 01 34:07:51
  TRACK 10 AUDIO
    TITLE "Armageddon It (Radio Edit)"
    PERFORMER "Def Leppard"
    REM COMPOSER "Def Leppard"
    INDEX 01 38:30:61
  TRACK 11 AUDIO
    TITLE "Release Me"
    PERFORMER "Stumpus Maximus And The Good Ol' Boys"
    REM COMPOSER "Def Leppard"
    INDEX 01 42:43:01
  TRACK 12 AUDIO
    TITLE "Classic Album Hysteria (BBC Radio Documentary)"
    PERFORMER "Def Leppard"
    REM COMPOSER "Def Leppard"
    INDEX 01 46:14:10

CD 3 B-Sides And Remixes | Def Leppard - Hysteria

Лог создания рипа

Код:
Exact Audio Copy V1.3 from 2. September 2016
EAC extraction logfile from 13. September 2017, 14:20
Def Leppard / Hysteria CD3
Used drive  : PLEXTOR BD-R  PX-B950SA   Adapter: 1  ID: 1
Read mode               : Secure
Utilize accurate stream : Yes
Defeat audio cache      : Yes
Make use of C2 pointers : No
Read offset correction                      : 6
Overread into Lead-In and Lead-Out          : No
Fill up missing offset samples with silence : Yes
Delete leading and trailing silent blocks   : No
Null samples used in CRC calculations       : Yes
Used interface                              : Native Win32 interface for Win NT & 2000
Used output format : Internal WAV Routines
Sample format      : 44.100 Hz; 16 Bit; Stereo
TOC of the extracted CD
     Track |   Start  |  Length  | Start sector | End sector
    ---------------------------------------------------------
        1  |  0:00.00 |  8:40.19 |         0    |    39018
        2  |  8:40.19 |  7:42.18 |     39019    |    73686
        3  | 16:22.37 |  4:52.34 |     73687    |    95620
        4  | 21:14.71 |  5:36.26 |     95621    |   120846
        5  | 26:51.22 |  6:25.04 |    120847    |   149725
        6  | 33:16.26 |  7:06.25 |    149726    |   181700
        7  | 40:22.51 |  8:39.32 |    181701    |   220657
        8  | 49:02.08 |  4:50.43 |    220658    |   242450
        9  | 53:52.51 |  5:22.20 |    242451    |   266620
Range status and errors
Selected range
     Filename C:\Users\Alex\Desktop\Lossless Galaxy ALLexxess\Def Leppard\1987 Hysteria (7-Disc Box Set Universal Music 2017)\CD3 B-Sides And Remixes\Def Leppard - Hysteria CD3.wav
     Peak level 97.3 %
     Extraction speed 3.4 X
     Range quality 100.0 %
     Test CRC 660CCC5D
     Copy CRC 660CCC5D
     Copy OK
No errors occurred
AccurateRip summary
Track  1  not present in database
Track  2  not present in database
Track  3  not present in database
Track  4  not present in database
Track  5  not present in database
Track  6  not present in database
Track  7  not present in database
Track  8  not present in database
Track  9  not present in database
None of the tracks are present in the AccurateRip database
End of status report
---- CUETools DB Plugin V2.1.6
[CTDB TOCID: URqrNk8HzxhxRO2uNIpPHosrrVg-] found
Submit result: URqrNk8HzxhxRO2uNIpPHosrrVg- has been confirmed
Track | CTDB Status
  1   | (14/14) Accurately ripped
  2   | (14/14) Accurately ripped
  3   | (14/14) Accurately ripped
  4   | (14/14) Accurately ripped
  5   | (14/14) Accurately ripped
  6   | (14/14) Accurately ripped
  7   | (14/14) Accurately ripped
  8   | (14/14) Accurately ripped
  9   | (14/14) Accurately ripped

Индексная карта (non-compilant .cue)

Код:
REM GENRE "Hard Rock"
REM DATE 2017
REM DISCID 810DE209
REM COMMENT "ExactAudioCopy v1.3"
PERFORMER "Def Leppard"
TITLE "Hysteria CD3"
REM COMPOSER "Def Leppard"
FILE "Def Leppard - Hysteria CD3.flac" WAVE
  TRACK 01 AUDIO
    TITLE "Rocket (The Lunar Mix / Extended Version / 12’’ Single)"
    PERFORMER "Def Leppard"
    REM COMPOSER "Def Leppard"
    INDEX 01 00:00:00
  TRACK 02 AUDIO
    TITLE "Armageddon It (The Nuclear Mix / 12’’ Single)"
    PERFORMER "Def Leppard"
    REM COMPOSER "Def Leppard"
    INDEX 01 08:40:19
  TRACK 03 AUDIO
    TITLE "Animal (Extended Version)"
    PERFORMER "Def Leppard"
    REM COMPOSER "Def Leppard"
    INDEX 01 16:22:37
  TRACK 04 AUDIO
    TITLE "Pour Some Sugar On Me (Extended Version)"
    PERFORMER "Def Leppard"
    REM COMPOSER "Def Leppard"
    INDEX 01 21:14:71
  TRACK 05 AUDIO
    TITLE "Exciteable (The Orgasmic Mix / B-Side)"
    PERFORMER "Def Leppard"
    REM COMPOSER "Def Leppard"
    INDEX 01 26:51:22
  TRACK 06 AUDIO
    TITLE "Rocket (Lunar Mix / 12’’ Single)"
    PERFORMER "Def Leppard"
    REM COMPOSER "Def Leppard"
    INDEX 01 33:16:26
  TRACK 07 AUDIO
    TITLE "Rock Of Ages: Medley (Live / B-Side)"
    PERFORMER "Def Leppard"
    REM COMPOSER "Def Leppard"
    INDEX 01 40:22:51
  TRACK 08 AUDIO
    TITLE "Love And Affection (Live / B-Side)"
    PERFORMER "Def Leppard"
    REM COMPOSER "Def Leppard"
    INDEX 01 49:02:08
  TRACK 09 AUDIO
    TITLE "Billy's Got A Gun (Live / B-Side)"
    PERFORMER "Def Leppard"
    REM COMPOSER "Def Leppard"
    INDEX 01 53:52:51

CD 4 In The Round, In Your Face (Live) | Def Leppard - Hysteria

Лог создания рипа

Код:
Exact Audio Copy V1.3 from 2. September 2016
EAC extraction logfile from 13. September 2017, 10:39
Def Leppard / Hysteria CD4
Used drive  : PLEXTOR BD-R  PX-B950SA   Adapter: 1  ID: 1
Read mode               : Secure
Utilize accurate stream : Yes
Defeat audio cache      : Yes
Make use of C2 pointers : No
Read offset correction                      : 6
Overread into Lead-In and Lead-Out          : No
Fill up missing offset samples with silence : Yes
Delete leading and trailing silent blocks   : No
Null samples used in CRC calculations       : Yes
Used interface                              : Native Win32 interface for Win NT & 2000
Used output format : Internal WAV Routines
Sample format      : 44.100 Hz; 16 Bit; Stereo
TOC of the extracted CD
     Track |   Start  |  Length  | Start sector | End sector
    ---------------------------------------------------------
        1  |  0:00.00 |  4:16.25 |         0    |    19224
        2  |  4:16.25 |  3:32.58 |     19225    |    35182
        3  |  7:49.08 |  6:14.31 |     35183    |    63263
        4  | 14:03.39 |  5:51.10 |     63264    |    89598
        5  | 19:54.49 |  7:00.03 |     89599    |   121101
        6  | 26:54.52 |  6:33.01 |    121102    |   150577
        7  | 33:27.53 |  6:10.22 |    150578    |   178349
Range status and errors
Selected range
     Filename C:\Users\Alex\Desktop\Lossless Galaxy ALLexxess\Def Leppard\1987 Hysteria (7-Disc Box Set Universal Music 2017)\CD4 In The Round, In Your Face (Live)\Def Leppard - Hysteria CD4.wav
     Peak level 96.2 %
     Extraction speed 6.8 X
     Range quality 100.0 %
     Test CRC 6B38A06E
     Copy CRC 6B38A06E
     Copy OK
No errors occurred
AccurateRip summary
Track  1  not present in database
Track  2  not present in database
Track  3  not present in database
Track  4  not present in database
Track  5  not present in database
Track  6  not present in database
Track  7  not present in database
None of the tracks are present in the AccurateRip database
End of status report
---- CUETools DB Plugin V2.1.6
[CTDB TOCID: 9raFEW8Mi2FbFjeqFwPmpvpMzhc-] found
Submit result: 9raFEW8Mi2FbFjeqFwPmpvpMzhc- has been confirmed
Track | CTDB Status
  1   | (34/34) Accurately ripped
  2   | (34/34) Accurately ripped
  3   | (34/34) Accurately ripped
  4   | (31/34) Accurately ripped
  5   | (34/34) Accurately ripped
  6   | (34/34) Accurately ripped
  7   | (34/34) Accurately ripped

Индексная карта (non-compilant .cue)

Код:
REM GENRE "Hard Rock"
REM DATE 2017
REM DISCID 58094A07
REM COMMENT "ExactAudioCopy v1.3"
PERFORMER "Def Leppard"
TITLE "Hysteria CD4"
REM COMPOSER "Def Leppard"
FILE "Def Leppard - Hysteria CD4.flac" WAVE
  TRACK 01 AUDIO
    TITLE "Stagefright"
    PERFORMER "Def Leppard"
    REM COMPOSER "Def Leppard"
    INDEX 01 00:00:00
  TRACK 02 AUDIO
    TITLE "Rock! Rock! (Till You Drop)"
    PERFORMER "Def Leppard"
    REM COMPOSER "Def Leppard"
    INDEX 01 04:16:25
  TRACK 03 AUDIO
    TITLE "Women"
    PERFORMER "Def Leppard"
    REM COMPOSER "Def Leppard"
    INDEX 01 07:49:08
  TRACK 04 AUDIO
    TITLE "Too Late For Love"
    PERFORMER "Def Leppard"
    REM COMPOSER "Def Leppard"
    INDEX 01 14:03:39
  TRACK 05 AUDIO
    TITLE "Hysteria"
    PERFORMER "Def Leppard"
    REM COMPOSER "Def Leppard"
    INDEX 01 19:54:49
  TRACK 06 AUDIO
    TITLE "Gods Of War"
    PERFORMER "Def Leppard"
    REM COMPOSER "Def Leppard"
    INDEX 01 26:54:52
  TRACK 07 AUDIO
    TITLE "Die Hard The Hunter"
    PERFORMER "Def Leppard"
    REM COMPOSER "Def Leppard"
    INDEX 01 33:27:53

CD 5 In The Round, In Your Face (Live) | Def Leppard - Hysteria

Лог создания рипа

Код:
Exact Audio Copy V1.3 from 2. September 2016
EAC extraction logfile from 13. September 2017, 10:17
Def Leppard / Hysteria CD5
Used drive  : PLEXTOR BD-R  PX-B950SA   Adapter: 1  ID: 1
Read mode               : Secure
Utilize accurate stream : Yes
Defeat audio cache      : Yes
Make use of C2 pointers : No
Read offset correction                      : 6
Overread into Lead-In and Lead-Out          : No
Fill up missing offset samples with silence : Yes
Delete leading and trailing silent blocks   : No
Null samples used in CRC calculations       : Yes
Used interface                              : Native Win32 interface for Win NT & 2000
Used output format : Internal WAV Routines
Sample format      : 44.100 Hz; 16 Bit; Stereo
TOC of the extracted CD
     Track |   Start  |  Length  | Start sector | End sector
    ---------------------------------------------------------
        1  |  0:00.00 |  6:19.35 |         0    |    28459
        2  |  6:19.35 |  5:05.68 |     28460    |    51402
        3  | 11:25.28 |  5:31.28 |     51403    |    76255
        4  | 16:56.56 |  4:51.19 |     76256    |    98099
        5  | 21:48.00 |  4:52.22 |     98100    |   120021
        6  | 26:40.22 |  3:06.13 |    120022    |   133984
        7  | 29:46.35 |  7:42.47 |    133985    |   168681
        8  | 37:29.07 |  5:20.31 |    168682    |   192712
Range status and errors
Selected range
     Filename C:\Users\Alex\Desktop\Lossless Galaxy ALLexxess\Def Leppard\1987 Hysteria (7-Disc Box Set Universal Music 2017)\CD5 In The Round, In Your Face (Live)\Def Leppard - Hysteria CD5.wav
     Peak level 96.2 %
     Extraction speed 6.9 X
     Range quality 100.0 %
     Test CRC A40CB003
     Copy CRC A40CB003
     Copy OK
No errors occurred
AccurateRip summary
Track  1  not present in database
Track  2  not present in database
Track  3  not present in database
Track  4  not present in database
Track  5  not present in database
Track  6  not present in database
Track  7  not present in database
Track  8  not present in database
None of the tracks are present in the AccurateRip database
End of status report
---- CUETools DB Plugin V2.1.6
[CTDB TOCID: fqKXqJp3brA2nqw9sFp1wYNDOgY-] found
Submit result: fqKXqJp3brA2nqw9sFp1wYNDOgY- has been confirmed
Track | CTDB Status
  1   | (32/32) Accurately ripped
  2   | (32/32) Accurately ripped
  3   | (32/32) Accurately ripped
  4   | (32/32) Accurately ripped
  5   | (32/32) Accurately ripped
  6   | (32/32) Accurately ripped
  7   | (32/32) Accurately ripped
  8   | (32/32) Accurately ripped

Индексная карта (non-compilant .cue)

Код:
REM GENRE "Hard Rock"
REM DATE 2017
REM DISCID 5D0A0908
REM COMMENT "ExactAudioCopy v1.3"
PERFORMER "Def Leppard"
TITLE "Hysteria CD5"
REM COMPOSER "Def Leppard"
FILE "Def Leppard - Hysteria CD5.flac" WAVE
  TRACK 01 AUDIO
    TITLE "Bringin' On The Heartbreak"
    PERFORMER "Def Leppard"
    REM COMPOSER "Def Leppard"
    INDEX 01 00:00:00
  TRACK 02 AUDIO
    TITLE "Foolin'"
    PERFORMER "Def Leppard"
    REM COMPOSER "Def Leppard"
    INDEX 01 06:19:35
  TRACK 03 AUDIO
    TITLE "Armageddon It"
    PERFORMER "Def Leppard"
    REM COMPOSER "Def Leppard"
    INDEX 01 11:25:28
  TRACK 04 AUDIO
    TITLE "Animal"
    PERFORMER "Def Leppard"
    REM COMPOSER "Def Leppard"
    INDEX 01 16:56:56
  TRACK 05 AUDIO
    TITLE "Pour Some Sugar On Me"
    PERFORMER "Def Leppard"
    REM COMPOSER "Def Leppard"
    INDEX 01 21:48:00
  TRACK 06 AUDIO
    TITLE "Phil's Solo"
    PERFORMER "Def Leppard"
    REM COMPOSER "Def Leppard"
    INDEX 01 26:40:22
  TRACK 07 AUDIO
    TITLE "Rock Of Ages"
    PERFORMER "Def Leppard"
    REM COMPOSER "Def Leppard"
    INDEX 01 29:46:35
  TRACK 08 AUDIO
    TITLE "Photograph"
    PERFORMER "Def Leppard"
    REM COMPOSER "Def Leppard"
    INDEX 01 37:29:07

Дополнительная информация

Легендарная британская рок-группа Def Leppard отпраздновала 30-летие своего исторического альбома истерия ( Hysteria), одним из самых продаваемых и самых влиятельных релизов в истории музыки. Выход (Ремастеринг 2017) с лейблом Phonogram Records / Universal Music состоялся 4 августа 2017 года, в годовщину переиздание выйдет в различных форматах – супер Люкс-5-КР/2-а DVD, Делюкс 3-компакт Стандарт 1-CD и 2-ЛП черный. Среди новых версиях супер Делюкс издание может похвастаться 5-КР/2-DVD, включая четырех книг—История, фото книга Росс Халфин, Дискография, истерия программа тура, и Тур плакат. Версия Deluxe с 3 компакт-дисков, Ваниль Версия 1-CD и виниловая Версия-это 2 черных пластинок.
Performer:
Def Leppard
Box / Albums:
1987 Hysteria
(7-Disc Box Set Universal Music 2017)
Info:
Phonogram Records / Universal Music
Reissue / Remastered / CD / DVD-Video
30th Anniversary Super Deluxe Box
Catalog Box: 5756093
Catalog Discs: 5756094~5756100
Made in EU
Dynamic Range: 7 / 7 / 7 / 6 / 6
Released Year: 2017
https://www.youtube.com/watch?v=0i7Xh6Grs3U--

_________________
Разница между теорией и практикой в том, что теоретически разницы между теорией и практикой нет, а на практике она есть.
[Профиль] [ЛС]
Показать сообщения:    

Текущее время: Сегодня 19:24

Часовой пояс: GMT + 3



Вы не можете начинать темы
Вы не можете отвечать на сообщения
Вы не можете редактировать свои сообщения
Вы не можете удалять свои сообщения
Вы не можете голосовать в опросах
Вы не можете прикреплять файлы к сообщениям
Вы не можете скачивать файлы