Золотые дни идет свободное скачивание без начисления Download
 

Офлайн

sergej644

Стаж:
4 года 9 месяцев
Сообщений:
705

-Bay City Rollers - Absolute Rollers--
Год издания: 1995
Страна: Scotland
Жанр: Rock, Rock & Roll
Продолжительность: 01:08:20-Лейбл издания: BMG
Страна-выпуска диска: EU
Номер по каталогу: 74321265752-Формат: FLAC
Битрейт аудио: Lossless
Тип рипа: image +.cue
Наличие сканов в содержимом раздачи: да
- --

Трэклист


01. (Dancing On A)Saturday Night (2:59)
02. Shang-A-Lang (3:06)
03. Remember (Sha La La La) (2:36)
04. Bye Bye Baby (2:50)
05. I Only Want To Be With You (3:38)
06. All Of Me Loves All Of You (3:06)
07. Give A Little Love (3:13)
08. Summerlove Sensation (3:15)
09. Rebel Rebel (3:40)
10. Money Honey (3:20)
11. Keep On Dancing (2:45)
12. Love Me Like I Love You (3:23)
13. Once Upon A Star (3:01)
14. Be My Baby (3:25)
15. You Made Me Believe In Magic (2:44)
16. Way I Feel Tonight (3:56)
17. Another Rainy Day In New York City (4:26)
18. It's A Game (3:01)
19. There Goes My Baby (3:18)
20. Rock 'N Roll Love Letter (2:59)
21. Bay City Rollers Megamix (3:40)
-

Лог создания рипа

Код:
Exact Audio Copy V1.1 from 23. June 2015
Отчёт EAC об извлечении, выполненном 10. июля 2017, 9:51
Bay City Rollers / Absolute Rollers
Дисковод: ASUS    DRW-20B1ST   Adapter: 1  ID: 0
Режим чтения                 : Достоверность
Использование точного потока : Да
Отключение кэша аудио        : Да
Использование указателей C2  : Нет
Коррекция смещения при чтении                     : 6
Способность читать области Lead-in и Lead-out     : Нет
Заполнение пропущенных сэмплов тишиной            : Да
Удаление блоков с тишиной в начале и конце        : Нет
При вычислениях CRC использовались нулевые сэмплы : Да
Интерфейс                                         : Встроенный Win32-интерфейс для Win NT/2000
Выходной формат          : Пользовательский кодировщик
Выбранный битрейт        : 1024 kBit/s
Качество                 : Высокий
Добавление ID3-тега      : Нет
Утилита сжатия           : D:\Exact Audio Copy 1.1 Portable by PortableWares\App\EAC\FLAC\FLAC.EXE
Дополнительные параметры : -6 -V -T "ARTIST=%artist%" -T "TITLE=%title%" -T "ALBUM=%albumtitle%" -T "DATE=%year%" -T "TRACKNUMBER=%tracknr%" -T "GENRE=%genre%" -T "COMMENT=%comment%" -T "BAND=%albuminterpret%" -T "ALBUMARTIST=%albuminterpret%" -T "COMPOSER=%composer%" %haslyrics%--tag-from-file=LYRICS="%lyricsfile%"%haslyrics% -T "DISCNUMBER=%cdnumber%" -T "TOTALDISCS=%totalcds%" -T "TOTALTRACKS=%numtracks%" %hascover%--picture="%coverfile%"%hascover% %source% -o %dest%
TOC извлечённого CD
     Трек |   Старт  | Длительность | Начальный сектор | Конечный сектор
    ---------------------------------------------------------------------
       1  |  0:00.32 |    2:58.68   |          32      |      13449
       2  |  2:59.25 |    3:05.65   |       13450      |      27389
       3  |  6:05.15 |    2:36.25   |       27390      |      39114
       4  |  8:41.40 |    2:50.30   |       39115      |      51894
       5  | 11:31.70 |    3:38.20   |       51895      |      68264
       6  | 15:10.15 |    3:05.45   |       68265      |      82184
       7  | 18:15.60 |    3:12.62   |       82185      |      96646
       8  | 21:28.47 |    3:14.73   |       96647      |     111269
       9  | 24:43.45 |    3:39.67   |      111270      |     127761
      10  | 28:23.37 |    3:19.68   |      127762      |     142754
      11  | 31:43.30 |    2:44.50   |      142755      |     155104
      12  | 34:28.05 |    3:22.57   |      155105      |     170311
      13  | 37:50.62 |    3:00.63   |      170312      |     183874
      14  | 40:51.50 |    3:24.42   |      183875      |     199216
      15  | 44:16.17 |    2:44.20   |      199217      |     211536
      16  | 47:00.37 |    3:56.35   |      211537      |     229271
      17  | 50:56.72 |    4:26.23   |      229272      |     249244
      18  | 55:23.20 |    3:01.20   |      249245      |     262839
      19  | 58:24.40 |    3:17.47   |      262840      |     277661
      20  | 61:42.12 |    2:58.45   |      277662      |     291056
      21  | 64:40.57 |    3:40.13   |      291057      |     307569
Характеристики диапазона извлечения и сообщения об ошибках
Выбранный диапазон
     Имя файла E:\Bay City Rollers - Absolute Rollers.wav
     Пиковый уровень 100.0 %
     Скорость извлечения 9.3 X
     Качество диапазона 100.0 %
     CRC копии 66886C3C
     Копирование... OK
Ошибок не произошло
Конец отчёта

Индексная карта (non-compilant .cue)

Код:
REM GENRE " Soft-Rock, Glam Rock, Pop"
REM DATE 1995
REM DISCID 25100415
REM COMMENT "ExactAudioCopy v1.1"
PERFORMER "Bay City Rollers"
TITLE "Absolute Rollers"
FILE "Bay City Rollers - Absolute Rollers.flac" WAVE
  TRACK 01 AUDIO
    TITLE "(Dancing On A)Saturday Night"
    PERFORMER "Bay City Rollers"
    INDEX 00 00:00:00
    INDEX 01 00:00:32
  TRACK 02 AUDIO
    TITLE Shang-A-Lang
    PERFORMER "Bay City Rollers"
    INDEX 00 02:57:10
    INDEX 01 02:59:25
  TRACK 03 AUDIO
    TITLE "Remember (Sha La La La)"
    PERFORMER "Bay City Rollers"
    INDEX 00 06:03:30
    INDEX 01 06:05:15
  TRACK 04 AUDIO
    TITLE "Bye Bye Baby"
    PERFORMER "Bay City Rollers"
    INDEX 00 08:38:05
    INDEX 01 08:41:40
  TRACK 05 AUDIO
    TITLE "I Only Want To Be With You"
    PERFORMER "Bay City Rollers"
    INDEX 00 11:28:65
    INDEX 01 11:31:70
  TRACK 06 AUDIO
    TITLE "All Of Me Loves All Of You"
    PERFORMER "Bay City Rollers"
    INDEX 00 15:09:05
    INDEX 01 15:10:15
  TRACK 07 AUDIO
    TITLE "Give A Little Love"
    PERFORMER "Bay City Rollers"
    INDEX 00 18:14:02
    INDEX 01 18:15:60
  TRACK 08 AUDIO
    TITLE "Summerlove Sensation"
    PERFORMER "Bay City Rollers"
    INDEX 00 21:27:62
    INDEX 01 21:28:47
  TRACK 09 AUDIO
    TITLE "Rebel Rebel"
    PERFORMER "Bay City Rollers"
    INDEX 00 24:40:27
    INDEX 01 24:43:45
  TRACK 10 AUDIO
    TITLE "Money Honey"
    PERFORMER "Bay City Rollers"
    INDEX 00 28:22:00
    INDEX 01 28:23:37
  TRACK 11 AUDIO
    TITLE "Keep On Dancing"
    PERFORMER "Bay City Rollers"
    INDEX 00 31:40:07
    INDEX 01 31:43:30
  TRACK 12 AUDIO
    TITLE "Love Me Like I Love You"
    PERFORMER "Bay City Rollers"
    INDEX 00 34:24:60
    INDEX 01 34:28:05
  TRACK 13 AUDIO
    TITLE "Once Upon A Star"
    PERFORMER "Bay City Rollers"
    INDEX 00 37:48:42
    INDEX 01 37:50:62
  TRACK 14 AUDIO
    TITLE "Be My Baby"
    PERFORMER "Bay City Rollers"
    INDEX 00 40:49:45
    INDEX 01 40:51:50
  TRACK 15 AUDIO
    TITLE "You Made Me Believe In Magic"
    PERFORMER "Bay City Rollers"
    INDEX 00 44:15:15
    INDEX 01 44:16:17
  TRACK 16 AUDIO
    TITLE "Way I Feel Tonight"
    PERFORMER "Bay City Rollers"
    INDEX 00 46:57:62
    INDEX 01 47:00:37
  TRACK 17 AUDIO
    TITLE "Another Rainy Day In New York City"
    PERFORMER "Bay City Rollers"
    INDEX 00 50:55:70
    INDEX 01 50:56:72
  TRACK 18 AUDIO
    TITLE "It's A Game"
    PERFORMER "Bay City Rollers"
    INDEX 00 55:22:57
    INDEX 01 55:23:20
  TRACK 19 AUDIO
    TITLE "There Goes My Baby"
    PERFORMER "Bay City Rollers"
    INDEX 00 58:21:57
    INDEX 01 58:24:40
  TRACK 20 AUDIO
    TITLE "Rock 'N Roll Love Letter"
    PERFORMER "Bay City Rollers"
    INDEX 00 61:40:02
    INDEX 01 61:42:12
  TRACK 21 AUDIO
    TITLE "Bay City Rollers Megamix"
    PERFORMER "Bay City Rollers"
    INDEX 00 64:38:22
    INDEX 01 64:40:57
--
The Bay City Rollers — шотландская поп/рок-группа, одна из самых коммерчески успешных в первой половине 1970-х годов в Великобритании, продавшая в общей сложности более 70 миллионов пластинок.

_________________
Разница между теорией и практикой в том, что теоретически разницы между теорией и практикой нет, а на практике она есть.
[Профиль] [ЛС]
Показать сообщения:    

Текущее время: Сегодня 20:00

Часовой пояс: GMT + 3



Вы не можете начинать темы
Вы не можете отвечать на сообщения
Вы не можете редактировать свои сообщения
Вы не можете удалять свои сообщения
Вы не можете голосовать в опросах
Вы не можете прикреплять файлы к сообщениям
Вы не можете скачивать файлы