Золотые дни идет свободное скачивание без начисления Download
 

Офлайн

sergej644

Стаж:
5 лет 5 месяцев
Сообщений:
853

-Grand Funk - Collection (Hybrid SACD Audio Fidelity USA) (2CD)--
Год издания: 1974
Год переиздания (Remastering): 2017
Страна: USA
Жанр: Classic Rock, Hard Rock
Продолжительность: 01:13:27-Формат: FLAC
Битрейт аудио: Lossless
Тип рипа: image +.cue
Наличие сканов в содержимом раздачи: да
-

Трэклист

CD 1 - Grand Funk - All The Girls ... | 00:39:31


Лейбл издания: Capitol/ Universal/ Audio Fidelity
Страна-выпуска диска: Austria
Номер по каталогу: AFZ 252



01. Responsibility (3:51)
02. Runnin' (4:21)
03. Life (5:00)
04. Look At Granny Run Run (2:31)
05. Memories (3:35)
06. All The Girls In The World Beware (3:29)
07. Wild (2:54)
08. Good & Evil (7:33)
09. Bad Time (2:55)
10. Some Kind Of Wonderful (3:24)

CD 2 - Shinin' On AF | 00:33:56


Лейбл издания: Capitol/ Universal/ Audio Fidelity
Страна-выпуска диска: Austria
Номер по каталогу: AFZ 251



01. Shinin' On (5:58)
02. To Get Back In (3:56)
03. The Loco-Motion (2:46)
04. Carry Me Through (5:31)
05. Please Me (3:38)
06. Mr Pretty Boy (3:08)
07. Gettin' Over You (3:58)
08. Little Johnny Hooker (5:00)
-

Лог создания рипа

All The Girls ... (Hybrid SACD Audio Fidelity 2017)

Код:
Exact Audio Copy V1.1 from 23. June 2015
EAC extraction logfile from 26. March 2017, 8:19
Grand Funk / All The Girls In The World Beware!!!
Used drive  : PLEXTOR BD-R  PX-B950SA   Adapter: 1  ID: 1
Read mode               : Secure
Utilize accurate stream : Yes
Defeat audio cache      : Yes
Make use of C2 pointers : No
Read offset correction                      : 6
Overread into Lead-In and Lead-Out          : No
Fill up missing offset samples with silence : Yes
Delete leading and trailing silent blocks   : No
Null samples used in CRC calculations       : Yes
Used interface                              : Native Win32 interface for Win NT & 2000
Used output format : Internal WAV Routines
Sample format      : 44.100 Hz; 16 Bit; Stereo
TOC of the extracted CD
     Track |   Start  |  Length  | Start sector | End sector
    ---------------------------------------------------------
        1  |  0:00.00 |  3:50.74 |         0    |    17323
        2  |  3:50.74 |  4:20.52 |     17324    |    36875
        3  |  8:11.51 |  4:59.47 |     36876    |    59347
        4  | 13:11.23 |  2:30.54 |     59348    |    70651
        5  | 15:42.02 |  3:34.62 |     70652    |    86763
        6  | 19:16.64 |  3:29.09 |     86764    |   102447
        7  | 22:45.73 |  2:53.70 |    102448    |   115492
        8  | 25:39.68 |  7:32.42 |    115493    |   149434
        9  | 33:12.35 |  2:54.67 |    149435    |   162551
       10  | 36:07.27 |  3:24.07 |    162552    |   177858
Range status and errors
Selected range
     Filename C:\Users\Meijin\Desktop\Lossless Galaxy ALLexxess\Grand Funk\1974 All The Girls ... (Hybrid SACD Audio Fidelity 2017)\Grand Funk - All The Girls ....wav
     Peak level 100.0 %
     Extraction speed 3.2 X
     Range quality 99.9 %
     Test CRC 9E433516
     Copy CRC 9E433516
     Copy OK
No errors occurred
AccurateRip summary
Track  1  not present in database
Track  2  not present in database
Track  3  not present in database
Track  4  not present in database
Track  5  not present in database
Track  6  not present in database
Track  7  not present in database
Track  8  not present in database
Track  9  not present in database
Track 10  not present in database
None of the tracks are present in the AccurateRip database
End of status report
---- CUETools DB Plugin V2.1.6
[CTDB TOCID: D7s8IR20PVslJ2qnvqPhR07k2W0-] found
Submit result: D7s8IR20PVslJ2qnvqPhR07k2W0- has been confirmed
Track | CTDB Status
  1   | (2/2) Accurately ripped
  2   | (2/2) Accurately ripped
  3   | (2/2) Accurately ripped
  4   | (2/2) Accurately ripped
  5   | (2/2) Accurately ripped
  6   | (2/2) Accurately ripped
  7   | (2/2) Accurately ripped
  8   | (2/2) Accurately ripped
  9   | (2/2) Accurately ripped
10   | (2/2) Accurately ripped

Shinin' On (Hybrid SACD Audio Fidelity 2017)

Код:
Exact Audio Copy V1.1 from 23. June 2015
EAC extraction logfile from 26. March 2017, 8:55
Grand Funk / Shinin' On AF
Used drive  : PLEXTOR BD-R  PX-B950SA   Adapter: 1  ID: 1
Read mode               : Secure
Utilize accurate stream : Yes
Defeat audio cache      : Yes
Make use of C2 pointers : No
Read offset correction                      : 6
Overread into Lead-In and Lead-Out          : No
Fill up missing offset samples with silence : Yes
Delete leading and trailing silent blocks   : No
Null samples used in CRC calculations       : Yes
Used interface                              : Native Win32 interface for Win NT & 2000
Used output format : Internal WAV Routines
Sample format      : 44.100 Hz; 16 Bit; Stereo
TOC of the extracted CD
     Track |   Start  |  Length  | Start sector | End sector
    ---------------------------------------------------------
        1  |  0:00.00 |  5:58.05 |         0    |    26854
        2  |  5:58.05 |  3:55.55 |     26855    |    44534
        3  |  9:53.60 |  2:45.60 |     44535    |    56969
        4  | 12:39.45 |  5:31.37 |     56970    |    81831
        5  | 18:11.07 |  3:37.50 |     81832    |    98156
        6  | 21:48.57 |  3:08.00 |     98157    |   112256
        7  | 24:56.57 |  3:58.33 |    112257    |   130139
        8  | 28:55.15 |  5:00.26 |    130140    |   152665
Range status and errors
Selected range
     Filename C:\Users\Meijin\Desktop\Lossless Galaxy ALLexxess\Grand Funk\1974 Shinin' On (Hybrid SACD Audio Fidelity 2017)\Grand Funk - Shinin' On AF.wav
     Peak level 100.0 %
     Extraction speed 3.2 X
     Range quality 100.0 %
     Test CRC 7450AB34
     Copy CRC 7450AB34
     Copy OK
No errors occurred
AccurateRip summary
Track  1  accurately ripped (confidence 1)  [125B185D]  (AR v2)
Track  2  accurately ripped (confidence 1)  [2669D1EE]  (AR v2)
Track  3  accurately ripped (confidence 1)  [A5E8DEF7]  (AR v2)
Track  4  accurately ripped (confidence 1)  [652DF450]  (AR v2)
Track  5  accurately ripped (confidence 1)  [79AD159E]  (AR v2)
Track  6  accurately ripped (confidence 1)  [4EB1452D]  (AR v2)
Track  7  accurately ripped (confidence 1)  [6CAA64CF]  (AR v2)
Track  8  accurately ripped (confidence 1)  [16B183C7]  (AR v2)
All tracks accurately ripped
End of status report
---- CUETools DB Plugin V2.1.6
[CTDB TOCID: io63HZPnZo42WrLnd1yyk8ETncY-] found
Submit result: io63HZPnZo42WrLnd1yyk8ETncY- has been confirmed
Track | CTDB Status
  1   | (5/5) Accurately ripped
  2   | (5/5) Accurately ripped
  3   | (5/5) Accurately ripped
  4   | (5/5) Accurately ripped
  5   | (5/5) Accurately ripped
  6   | (5/5) Accurately ripped
  7   | (5/5) Accurately ripped
  8   | (5/5) Accurately ripped

Индексная карта (non-compilant .cue)

All The Girls ... (Hybrid SACD Audio Fidelity 2017)

Код:
REM GENRE "Rock / Classic Rock"
REM DATE 1974
REM DISCID 9109430A
REM COMMENT "ExactAudioCopy v1.1"
PERFORMER "Grand Funk"
TITLE "All The Girls In The World Beware!!! AF"
FILE "Grand Funk - All The Girls ... AF.flac" WAVE
  TRACK 01 AUDIO
    TITLE "Responsibility"
    PERFORMER "Grand Funk"
    INDEX 01 00:00:00
  TRACK 02 AUDIO
    TITLE "Runnin'"
    PERFORMER "Grand Funk"
    INDEX 01 03:50:74
  TRACK 03 AUDIO
    TITLE "Life"
    PERFORMER "Grand Funk"
    INDEX 01 08:11:51
  TRACK 04 AUDIO
    TITLE "Look At Granny Run Run"
    PERFORMER "Grand Funk"
    INDEX 01 13:11:23
  TRACK 05 AUDIO
    TITLE "Memories"
    PERFORMER "Grand Funk"
    INDEX 01 15:42:02
  TRACK 06 AUDIO
    TITLE "All The Girls In The World Beware"
    PERFORMER "Grand Funk"
    INDEX 01 19:16:64
  TRACK 07 AUDIO
    TITLE "Wild"
    PERFORMER "Grand Funk"
    INDEX 01 22:45:73
  TRACK 08 AUDIO
    TITLE "Good & Evil"
    PERFORMER "Grand Funk"
    INDEX 01 25:39:68
  TRACK 09 AUDIO
    TITLE "Bad Time"
    PERFORMER "Grand Funk"
    INDEX 01 33:12:35
  TRACK 10 AUDIO
    TITLE "Some Kind Of Wonderful"
    PERFORMER "Grand Funk"
    INDEX 01 36:07:27

Shinin' On (Hybrid SACD Audio Fidelity 2017)

Код:
REM GENRE "Rock / Classic Rock"
REM DATE 1974
REM DISCID 6607F308
REM COMMENT "ExactAudioCopy v1.1"
PERFORMER "Grand Funk"
TITLE "Shinin' On AF"
FILE "Grand Funk - Shinin' On AF.flac" WAVE
  TRACK 01 AUDIO
    TITLE "Shinin' On"
    PERFORMER "Grand Funk"
    INDEX 01 00:00:00
  TRACK 02 AUDIO
    TITLE "To Get Back In"
    PERFORMER "Grand Funk"
    INDEX 01 05:58:05
  TRACK 03 AUDIO
    TITLE "The Loco-Motion"
    PERFORMER "Grand Funk"
    INDEX 01 09:53:60
  TRACK 04 AUDIO
    TITLE "Carry Me Through"
    PERFORMER "Grand Funk"
    INDEX 01 12:39:45
  TRACK 05 AUDIO
    TITLE "Please Me"
    PERFORMER "Grand Funk"
    INDEX 01 18:11:07
  TRACK 06 AUDIO
    TITLE "Mr Pretty Boy"
    PERFORMER "Grand Funk"
    INDEX 01 21:48:57
  TRACK 07 AUDIO
    TITLE "Gettin' Over You"
    PERFORMER "Grand Funk"
    INDEX 01 24:56:57
  TRACK 08 AUDIO
    TITLE "Little Johnny Hooker"
    PERFORMER "Grand Funk"
    INDEX 01 28:55:15
--

_________________
Разница между теорией и практикой в том, что теоретически разницы между теорией и практикой нет, а на практике она есть.
[Профиль] [ЛС]
Показать сообщения:    

Текущее время: Сегодня 19:25

Часовой пояс: GMT + 3



Вы не можете начинать темы
Вы не можете отвечать на сообщения
Вы не можете редактировать свои сообщения
Вы не можете удалять свои сообщения
Вы не можете голосовать в опросах
Вы не можете прикреплять файлы к сообщениям
Вы не можете скачивать файлы