Золотые дни идет свободное скачивание без начисления Download
 

Офлайн

sergej644

Стаж:
5 лет 10 месяцев
Сообщений:
892

-Rainbow - Since You Been Gone (The Essential Rainbow)(3CD)--
Год издания: 2017
Страна: UK | USA
Жанр: Classic Rock. Hard Rock
Продолжительность: 03:40:01-Лейбл издания: Spectrum Music
Страна-выпуска диска: EU
Номер по каталогу: CPECESSO13-Формат: FLAC
Битрейт аудио: Lossless
Тип рипа: image +.cue
Наличие сканов в содержимом раздачи: да
-

Трэклист

CD 1 | 01:08:11


01. Stargazer (8:24)
02. Man On The Silver Mountain (4:34)
03. All Night Long (3:48)
04. Lost In Hollywood (4:51)
05. I Surrender (4:00)
06. Death Alley Driver (4:40)
07. Street Of Dreams (4:23)
08. Can't Let You Go (4:17)
09. Run With The Wolf (3:42)
10. Bad Girl (4:48)
11. Jealous Lover (3:10)
12. Power (4:27)
13. Mistreated (Live) (13:07)

CD 2 | 01:12:12


01. Gates Of Babylon (6:48)
02. Long Live Rock N Roll (4:23)
03. The Temple Of The king (4:42)
04. The Shed (4:45)
05. Since You Been Gone (3:18)
06. Stone Cold (5:17)
07. LA Connection (3:42)
08. Difficult To Cure (5:58)
09. Black Sheep Of The Family (3:19)
10. Spotlight Kid (4:54)
11. A Light In The Black (8:13)
12. Freedom Fighter (4:22)
13. Ain't A Lot Of Love (5:22)
14. Lady Of The Lake (3:38)
15. Sixteenth Century Greensleeves (3:31)

CD 3 | 01:19:38


01. Eyes Of The World (6:40)
02. Rainbow Eyes (7:26)
03. Danger Zone (4:28)
04. Make Your Move (5:25)
05. Vielleicht Das Nachster Mal (3:17)
06. Rock Fever (3:51)
07. No Time To Lose (3:42)
08. Drinking With The Devil (3:43)
09. Sensitive To Light (3:01)
10. Snowman (4:32)
11. Snakecharmer (4:30)
12. Midtown Tunnel Vision (4:33)
13. Still I'm Sad (3:53)
14. Desperate Heart (4:35)
15. Magic (4:07)
16. Weiss Heim (5:14)
17. Catch The Rainbow (6:39)
-

Лог создания рипа

CD 1

Код:
Exact Audio Copy V1.3 from 2. September 2016
EAC extraction logfile from 23. June 2017, 18:36
Rainbow / The Essential Rainbow [CD1]
Used drive  : ATAPI   iHAS122   C   Adapter: 1  ID: 0
Read mode               : Secure
Utilize accurate stream : Yes
Defeat audio cache      : Yes
Make use of C2 pointers : No
Read offset correction                      : 6
Overread into Lead-In and Lead-Out          : No
Fill up missing offset samples with silence : Yes
Delete leading and trailing silent blocks   : No
Null samples used in CRC calculations       : Yes
Used interface                              : Native Win32 interface for Win NT & 2000
Used output format : Internal WAV Routines
Sample format      : 44.100 Hz; 16 Bit; Stereo
TOC of the extracted CD
     Track |   Start  |  Length  | Start sector | End sector
    ---------------------------------------------------------
        1  |  0:00.00 |  8:23.53 |         0    |    37777
        2  |  8:23.53 |  4:33.47 |     37778    |    58299
        3  | 12:57.25 |  3:47.40 |     58300    |    75364
        4  | 16:44.65 |  4:50.63 |     75365    |    97177
        5  | 21:35.53 |  4:00.01 |     97178    |   115178
        6  | 25:35.54 |  4:40.24 |    115179    |   136202
        7  | 30:16.03 |  4:23.00 |    136203    |   155927
        8  | 34:39.03 |  4:17.24 |    155928    |   175226
        9  | 38:56.27 |  3:42.37 |    175227    |   191913
       10  | 42:38.64 |  4:48.00 |    191914    |   213513
       11  | 47:26.64 |  3:10.01 |    213514    |   227764
       12  | 50:36.65 |  4:26.42 |    227765    |   247756
       13  | 55:03.32 | 13:07.10 |    247757    |   306791
Range status and errors
Selected range
     Filename C:\Users\London\Desktop\Rainbow - The Essential Rainbow [CD1].wav
     Peak level 100.0 %
     Extraction speed 9.5 X
     Range quality 99.9 %
     Test CRC C3AD948A
     Copy CRC C3AD948A
     Copy OK
No errors occurred
AccurateRip summary
Track  1  not present in database
Track  2  not present in database
Track  3  not present in database
Track  4  not present in database
Track  5  not present in database
Track  6  not present in database
Track  7  not present in database
Track  8  not present in database
Track  9  not present in database
Track 10  not present in database
Track 11  not present in database
Track 12  not present in database
Track 13  not present in database
None of the tracks are present in the AccurateRip database
End of status report
---- CUETools DB Plugin V2.1.6

CD 2

Код:
Exact Audio Copy V1.3 from 2. September 2016
EAC extraction logfile from 23. June 2017, 19:23
Rainbow / The Essential Rainbow [CD2]
Used drive  : ATAPI   iHAS122   C   Adapter: 1  ID: 0
Read mode               : Secure
Utilize accurate stream : Yes
Defeat audio cache      : Yes
Make use of C2 pointers : No
Read offset correction                      : 6
Overread into Lead-In and Lead-Out          : No
Fill up missing offset samples with silence : Yes
Delete leading and trailing silent blocks   : No
Null samples used in CRC calculations       : Yes
Used interface                              : Native Win32 interface for Win NT & 2000
Used output format : Internal WAV Routines
Sample format      : 44.100 Hz; 16 Bit; Stereo
TOC of the extracted CD
     Track |   Start  |  Length  | Start sector | End sector
    ---------------------------------------------------------
        1  |  0:00.00 |  6:47.60 |         0    |    30584
        2  |  6:47.60 |  4:23.15 |     30585    |    50324
        3  | 11:11.00 |  4:42.01 |     50325    |    71475
        4  | 15:53.01 |  4:45.33 |     71476    |    92883
        5  | 20:38.34 |  3:17.45 |     92884    |   107703
        6  | 23:56.04 |  5:17.23 |    107704    |   131501
        7  | 29:13.27 |  3:42.14 |    131502    |   148165
        8  | 32:55.41 |  5:57.72 |    148166    |   175012
        9  | 38:53.38 |  3:18.70 |    175013    |   189932
       10  | 42:12.33 |  4:53.62 |    189933    |   211969
       11  | 47:06.20 |  8:13.33 |    211970    |   248977
       12  | 55:19.53 |  4:21.63 |    248978    |   268615
       13  | 59:41.41 |  5:22.12 |    268616    |   292777
       14  | 65:03.53 |  3:37.45 |    292778    |   309097
       15  | 68:41.23 |  3:30.68 |    309098    |   324915
Range status and errors
Selected range
     Filename C:\Users\London\Desktop\Rainbow - The Essential Rainbow [CD2].wav
     Peak level 100.0 %
     Extraction speed 9.7 X
     Range quality 100.0 %
     Test CRC 6B664BE4
     Copy CRC 6B664BE4
     Copy OK
No errors occurred
AccurateRip summary
Track  1  not present in database
Track  2  not present in database
Track  3  not present in database
Track  4  not present in database
Track  5  not present in database
Track  6  not present in database
Track  7  not present in database
Track  8  not present in database
Track  9  not present in database
Track 10  not present in database
Track 11  not present in database
Track 12  not present in database
Track 13  not present in database
Track 14  not present in database
Track 15  not present in database
None of the tracks are present in the AccurateRip database
End of status report
---- CUETools DB Plugin V2.1.6

CD 3

Код:
Exact Audio Copy V1.3 from 2. September 2016
EAC extraction logfile from 23. June 2017, 21:33
Rainbow / The Essential Rainbow [CD3]
Used drive  : ATAPI   iHAS122   C   Adapter: 1  ID: 0
Read mode               : Secure
Utilize accurate stream : Yes
Defeat audio cache      : Yes
Make use of C2 pointers : No
Read offset correction                      : 6
Overread into Lead-In and Lead-Out          : No
Fill up missing offset samples with silence : Yes
Delete leading and trailing silent blocks   : No
Null samples used in CRC calculations       : Yes
Used interface                              : Native Win32 interface for Win NT & 2000
Used output format : Internal WAV Routines
Sample format      : 44.100 Hz; 16 Bit; Stereo
TOC of the extracted CD
     Track |   Start  |  Length  | Start sector | End sector
    ---------------------------------------------------------
        1  |  0:00.00 |  6:39.45 |         0    |    29969
        2  |  6:39.45 |  7:26.16 |     29970    |    63435
        3  | 14:05.61 |  4:28.03 |     63436    |    83538
        4  | 18:33.64 |  5:25.22 |     83539    |   107935
        5  | 23:59.11 |  3:17.28 |    107936    |   122738
        6  | 27:16.39 |  3:50.43 |    122739    |   140031
        7  | 31:07.07 |  3:41.54 |    140032    |   156660
        8  | 34:48.61 |  3:43.19 |    156661    |   173404
        9  | 38:32.05 |  3:01.11 |    173405    |   186990
       10  | 41:33.16 |  4:32.16 |    186991    |   207406
       11  | 46:05.32 |  4:30.32 |    207407    |   227688
       12  | 50:35.64 |  4:33.33 |    227689    |   248196
       13  | 55:09.22 |  3:53.12 |    248197    |   265683
       14  | 59:02.34 |  4:35.06 |    265684    |   286314
       15  | 63:37.40 |  4:07.16 |    286315    |   304855
       16  | 67:44.56 |  5:13.59 |    304856    |   328389
       17  | 72:58.40 |  6:39.37 |    328390    |   358351
Range status and errors
Selected range
     Filename C:\Users\London\Desktop\Rainbow - The Essential Rainbow [CD3].wav
     Peak level 100.0 %
     Extraction speed 9.7 X
     Range quality 100.0 %
     Test CRC AFEDEF87
     Copy CRC AFEDEF87
     Copy OK
No errors occurred
AccurateRip summary
Track  1  not present in database
Track  2  not present in database
Track  3  not present in database
Track  4  not present in database
Track  5  not present in database
Track  6  not present in database
Track  7  not present in database
Track  8  not present in database
Track  9  not present in database
Track 10  not present in database
Track 11  not present in database
Track 12  not present in database
Track 13  not present in database
Track 14  not present in database
Track 15  not present in database
Track 16  not present in database
Track 17  not present in database
None of the tracks are present in the AccurateRip database
End of status report
---- CUETools DB Plugin V2.1.6

Индексная карта (non-compilant .cue)

CD 1

Код:
REM DISCID B60FFA0D
REM COMMENT "ExactAudioCopy v1.3"
PERFORMER "Rainbow"
TITLE "The Essential Rainbow [CD1]"
REM COMPOSER ""
FILE "Rainbow - The Essential Rainbow [CD1].flac" WAVE
  TRACK 01 AUDIO
    TITLE "Stargazer"
    PERFORMER "Rainbow"
    REM COMPOSER ""
    INDEX 01 00:00:00
  TRACK 02 AUDIO
    TITLE "Man On The Silver Mountain"
    PERFORMER "Rainbow"
    REM COMPOSER ""
    INDEX 01 08:23:53
  TRACK 03 AUDIO
    TITLE "All Night Long"
    PERFORMER "Rainbow"
    REM COMPOSER ""
    INDEX 01 12:57:25
  TRACK 04 AUDIO
    TITLE "Lost In Hollywood"
    PERFORMER "Rainbow"
    REM COMPOSER ""
    INDEX 01 16:44:65
  TRACK 05 AUDIO
    TITLE "I Surrender"
    PERFORMER "Rainbow"
    REM COMPOSER ""
    INDEX 01 21:35:53
  TRACK 06 AUDIO
    TITLE "Death Alley Driver"
    PERFORMER "Rainbow"
    REM COMPOSER ""
    INDEX 01 25:35:54
  TRACK 07 AUDIO
    TITLE "Street Of Dreams"
    PERFORMER "Rainbow"
    REM COMPOSER ""
    INDEX 01 30:16:03
  TRACK 08 AUDIO
    TITLE "Can't Let You Go"
    PERFORMER "Rainbow"
    REM COMPOSER ""
    INDEX 01 34:39:03
  TRACK 09 AUDIO
    TITLE "Run With The Wolf"
    PERFORMER "Rainbow"
    REM COMPOSER ""
    INDEX 01 38:56:27
  TRACK 10 AUDIO
    TITLE "Bad Girl"
    PERFORMER "Rainbow"
    REM COMPOSER ""
    INDEX 01 42:38:64
  TRACK 11 AUDIO
    TITLE "Jealous Lover"
    PERFORMER "Rainbow"
    REM COMPOSER ""
    INDEX 01 47:26:64
  TRACK 12 AUDIO
    TITLE "Power"
    PERFORMER "Rainbow"
    REM COMPOSER ""
    INDEX 01 50:36:65
  TRACK 13 AUDIO
    TITLE "Mistreated (Live)"
    PERFORMER "Rainbow"
    REM COMPOSER ""
    INDEX 01 55:03:32

CD 2

Код:
REM DISCID D910EC0F
REM COMMENT "ExactAudioCopy v1.3"
PERFORMER "Rainbow"
TITLE "The Essential Rainbow [CD2]"
REM COMPOSER ""
FILE "Rainbow - The Essential Rainbow [CD2].flac" WAVE
  TRACK 01 AUDIO
    TITLE "Gates Of Babylon"
    PERFORMER "Rainbow"
    REM COMPOSER ""
    INDEX 01 00:00:00
  TRACK 02 AUDIO
    TITLE "Long Live Rock N Roll"
    PERFORMER "Rainbow"
    REM COMPOSER ""
    INDEX 01 06:47:60
  TRACK 03 AUDIO
    TITLE "The Temple Of The king"
    PERFORMER "Rainbow"
    REM COMPOSER ""
    INDEX 01 11:11:00
  TRACK 04 AUDIO
    TITLE "The Shed"
    PERFORMER "Rainbow"
    REM COMPOSER ""
    INDEX 01 15:53:01
  TRACK 05 AUDIO
    TITLE "Since You Been Gone"
    PERFORMER "Rainbow"
    REM COMPOSER ""
    INDEX 01 20:38:34
  TRACK 06 AUDIO
    TITLE "Stone Cold"
    PERFORMER "Rainbow"
    REM COMPOSER ""
    INDEX 01 23:56:04
  TRACK 07 AUDIO
    TITLE "LA Connection"
    PERFORMER "Rainbow"
    REM COMPOSER ""
    INDEX 01 29:13:27
  TRACK 08 AUDIO
    TITLE "Difficult To Cure"
    PERFORMER "Rainbow"
    REM COMPOSER ""
    INDEX 01 32:55:41
  TRACK 09 AUDIO
    TITLE "Black Sheep Of The Family"
    PERFORMER "Rainbow"
    REM COMPOSER ""
    INDEX 01 38:53:38
  TRACK 10 AUDIO
    TITLE "Spotlight Kid"
    PERFORMER "Rainbow"
    REM COMPOSER ""
    INDEX 01 42:12:33
  TRACK 11 AUDIO
    TITLE "A Light In The Black"
    PERFORMER "Rainbow"
    REM COMPOSER ""
    INDEX 01 47:06:20
  TRACK 12 AUDIO
    TITLE "Freedom Fighter"
    PERFORMER "Rainbow"
    REM COMPOSER ""
    INDEX 01 55:19:53
  TRACK 13 AUDIO
    TITLE "Ain't A Lot Of Love"
    PERFORMER "Rainbow"
    REM COMPOSER ""
    INDEX 01 59:41:41
  TRACK 14 AUDIO
    TITLE "Lady Of The Lake"
    PERFORMER "Rainbow"
    REM COMPOSER ""
    INDEX 01 65:03:53
  TRACK 15 AUDIO
    TITLE "Sixteenth Century Greensleeves"
    PERFORMER "Rainbow"
    REM COMPOSER ""
    INDEX 01 68:41:23

CD 3

Код:
REM DISCID EE12AA11
REM COMMENT "ExactAudioCopy v1.3"
PERFORMER "Rainbow"
TITLE "The Essential Rainbow [CD3]"
REM COMPOSER ""
FILE "Rainbow - The Essential Rainbow [CD3].flac" WAVE
  TRACK 01 AUDIO
    TITLE "Eyes Of The World"
    PERFORMER "Rainbow"
    REM COMPOSER ""
    INDEX 01 00:00:00
  TRACK 02 AUDIO
    TITLE "Rainbow Eyes"
    PERFORMER "Rainbow"
    REM COMPOSER ""
    INDEX 01 06:39:45
  TRACK 03 AUDIO
    TITLE "Danger Zone"
    PERFORMER "Rainbow"
    REM COMPOSER ""
    INDEX 01 14:05:61
  TRACK 04 AUDIO
    TITLE "Make Your Move"
    PERFORMER "Rainbow"
    REM COMPOSER ""
    INDEX 01 18:33:64
  TRACK 05 AUDIO
    TITLE "Vielleicht Das Nachster Mal"
    PERFORMER "Rainbow"
    REM COMPOSER ""
    INDEX 01 23:59:11
  TRACK 06 AUDIO
    TITLE "Rock Fever"
    PERFORMER "Rainbow"
    REM COMPOSER ""
    INDEX 01 27:16:39
  TRACK 07 AUDIO
    TITLE "No Time To Lose"
    PERFORMER "Rainbow"
    REM COMPOSER ""
    INDEX 01 31:07:07
  TRACK 08 AUDIO
    TITLE "Drinking With The Devil"
    PERFORMER "Rainbow"
    REM COMPOSER ""
    INDEX 01 34:48:61
  TRACK 09 AUDIO
    TITLE "Sensitive To Light"
    PERFORMER "Rainbow"
    REM COMPOSER ""
    INDEX 01 38:32:05
  TRACK 10 AUDIO
    TITLE "Snowman"
    PERFORMER "Rainbow"
    REM COMPOSER ""
    INDEX 01 41:33:16
  TRACK 11 AUDIO
    TITLE "Snakecharmer"
    PERFORMER "Rainbow"
    REM COMPOSER ""
    INDEX 01 46:05:32
  TRACK 12 AUDIO
    TITLE "Midtown Tunnel Vision"
    PERFORMER "Rainbow"
    REM COMPOSER ""
    INDEX 01 50:35:64
  TRACK 13 AUDIO
    TITLE "Still I'm Sad"
    PERFORMER "Rainbow"
    REM COMPOSER ""
    INDEX 01 55:09:22
  TRACK 14 AUDIO
    TITLE "Desperate Heart"
    PERFORMER "Rainbow"
    REM COMPOSER ""
    INDEX 01 59:02:34
  TRACK 15 AUDIO
    TITLE "Magic"
    PERFORMER "Rainbow"
    REM COMPOSER ""
    INDEX 01 63:37:40
  TRACK 16 AUDIO
    TITLE "Weiss Heim"
    PERFORMER "Rainbow"
    REM COMPOSER ""
    INDEX 01 67:44:56
  TRACK 17 AUDIO
    TITLE "Catch The Rainbow"
    PERFORMER "Rainbow"
    REM COMPOSER ""
    INDEX 01 72:58:40
--

_________________
Разница между теорией и практикой в том, что теоретически разницы между теорией и практикой нет, а на практике она есть.
[Профиль] [ЛС]
Показать сообщения:    

Текущее время: Сегодня 06:00

Часовой пояс: GMT + 3



Вы не можете начинать темы
Вы не можете отвечать на сообщения
Вы не можете редактировать свои сообщения
Вы не можете удалять свои сообщения
Вы не можете голосовать в опросах
Вы не можете прикреплять файлы к сообщениям
Вы не можете скачивать файлы