Золотые дни идет свободное скачивание без начисления Download
 

Офлайн

sergej644

Стаж:
5 лет 4 месяца
Сообщений:
853

-Stratovarius - Destiny (2016 Remastered, 2 CD Digipak)--
Год издания: 1998 / 2016
Страна: Finland
Жанр: Power Metal
Продолжительность: 02:06:26-Лейбл издания: e.a.r. music
Страна-выпуска диска: Germany
Номер по каталогу: 0211514EMU-Формат: FLAC
Битрейт аудио: Lossless
Тип рипа: image +.cue
Наличие сканов в содержимом раздачи: да
-

Трэклист

CD 1 | 01:07:59


01. Destiny (10:15)
02. S.O.S. (4:16)
03. No Turning Back (4:23)
04. 4000 Rainy Nights (6:00)
05. Rebel (4:17)
06. Years Go By (5:14)
07. Playing With Fire (4:15)
08. Venus In The Morning (5:36)
09. Anthem Of The World (9:06)
10. Cold Winter Nights (European Edition Bonus Track) (5:17)
11. Dream With Me (Japanese Edition Bonus Track) (5:14)
12. Blackout (US Edition Bonus Track) (4:07)

CD 2 - Visions Of Destiny (Live in Finland, 1999) | 00:58:27


01. Destiny (8:20)
02. Paradise (5:37)
03. Speed of Light (3:23)
04. S.O.S. (4:32)
05. Anthem of the World (8:53)
06. Forever Free (6:20)
07. Black Diamond (6:48)
08. The Kiss of Judas (6:03)
09. Distant Skies (4:16)
10. Forever (4:15)
-

Лог создания рипа

CD 1

Код:
Exact Audio Copy V1.3 from 2. September 2016
EAC extraction logfile from 20. June 2017, 10:57
Stratovarius / Destiny
Used drive  : Optiarc DVD RW AD-5200A   Adapter: 1  ID: 0
Read mode               : Secure
Utilize accurate stream : Yes
Defeat audio cache      : Yes
Make use of C2 pointers : No
Read offset correction                      : 48
Overread into Lead-In and Lead-Out          : No
Fill up missing offset samples with silence : Yes
Delete leading and trailing silent blocks   : No
Null samples used in CRC calculations       : Yes
Used interface                              : Native Win32 interface for Win NT & 2000
Used output format : Internal WAV Routines
Sample format      : 44.100 Hz; 16 Bit; Stereo
TOC of the extracted CD
     Track |   Start  |  Length  | Start sector | End sector
    ---------------------------------------------------------
        1  |  0:00.00 | 10:15.03 |         0    |    46127
        2  | 10:15.03 |  4:15.50 |     46128    |    65302
        3  | 14:30.53 |  4:22.42 |     65303    |    84994
        4  | 18:53.20 |  6:00.00 |     84995    |   111994
        5  | 24:53.20 |  4:16.41 |    111995    |   131235
        6  | 29:09.61 |  5:14.19 |    131236    |   154804
        7  | 34:24.05 |  4:15.20 |    154805    |   173949
        8  | 38:39.25 |  5:35.42 |    173950    |   199116
        9  | 44:14.67 |  9:06.31 |    199117    |   240097
       10  | 53:21.23 |  5:17.00 |    240098    |   263872
       11  | 58:38.23 |  5:14.00 |    263873    |   287422
       12  | 63:52.23 |  4:06.52 |    287423    |   305924
Range status and errors
Selected range
     Filename D:\TponukaHka\Stratovarius-1998 - Destiny (2016 Remastered, 2 CD Digipak)\CD1\Stratovarius-1998 - Destiny (2016 Remastered) CD1.wav
     Peak level 99.4 %
     Extraction speed 3.7 X
     Range quality 100.0 %
     Test CRC C621C140
     Copy CRC C621C140
     Copy OK
No errors occurred
AccurateRip summary
Track  1  accurately ripped (confidence 1)  [5F1C2016]  (AR v2)
Track  2  accurately ripped (confidence 1)  [964E39BE]  (AR v2)
Track  3  accurately ripped (confidence 1)  [A68ACF30]  (AR v2)
Track  4  accurately ripped (confidence 1)  [16EB8B63]  (AR v2)
Track  5  accurately ripped (confidence 1)  [0CB41BFF]  (AR v2)
Track  6  accurately ripped (confidence 1)  [1D791D00]  (AR v2)
Track  7  accurately ripped (confidence 1)  [D1798AA1]  (AR v2)
Track  8  accurately ripped (confidence 1)  [68722FA7]  (AR v2)
Track  9  accurately ripped (confidence 1)  [373E9E3C]  (AR v2)
Track 10  accurately ripped (confidence 1)  [EC903D1D]  (AR v2)
Track 11  accurately ripped (confidence 1)  [67371EBF]  (AR v2)
Track 12  accurately ripped (confidence 1)  [F342D216]  (AR v2)
All tracks accurately ripped
End of status report
---- CUETools DB Plugin V2.1.6
[CTDB TOCID: 7WkKFCJnCPy_.UQKP0G.M4ODIw8-] found
Submit result: already submitted
Track | CTDB Status
  1   | (14/14) Accurately ripped
  2   | (14/14) Accurately ripped
  3   | (14/14) Accurately ripped
  4   | (14/14) Accurately ripped
  5   | (14/14) Accurately ripped
  6   | (14/14) Accurately ripped
  7   | (14/14) Accurately ripped
  8   | (14/14) Accurately ripped
  9   | (14/14) Accurately ripped
10   | (14/14) Accurately ripped
11   | (14/14) Accurately ripped
12   | (14/14) Accurately ripped

CD 2

Код:
Exact Audio Copy V1.3 from 2. September 2016
EAC extraction logfile from 20. June 2017, 11:38
Stratovarius / Visions Of Destiny
Used drive  : Optiarc DVD RW AD-5200A   Adapter: 1  ID: 0
Read mode               : Secure
Utilize accurate stream : Yes
Defeat audio cache      : Yes
Make use of C2 pointers : No
Read offset correction                      : 48
Overread into Lead-In and Lead-Out          : No
Fill up missing offset samples with silence : Yes
Delete leading and trailing silent blocks   : No
Null samples used in CRC calculations       : Yes
Used interface                              : Native Win32 interface for Win NT & 2000
Used output format : Internal WAV Routines
Sample format      : 44.100 Hz; 16 Bit; Stereo
TOC of the extracted CD
     Track |   Start  |  Length  | Start sector | End sector
    ---------------------------------------------------------
        1  |  0:00.00 |  8:20.02 |         0    |    37501
        2  |  8:20.02 |  5:36.64 |     37502    |    62765
        3  | 13:56.66 |  3:23.13 |     62766    |    78003
        4  | 17:20.04 |  4:31.64 |     78004    |    98392
        5  | 21:51.68 |  8:53.33 |     98393    |   138400
        6  | 30:45.26 |  6:19.38 |    138401    |   166863
        7  | 37:04.64 |  6:47.69 |    166864    |   197457
        8  | 43:52.58 |  6:03.07 |    197458    |   224689
        9  | 49:55.65 |  4:16.24 |    224690    |   243913
       10  | 54:12.14 |  4:14.65 |    243914    |   263028
Range status and errors
Selected range
     Filename D:\TponukaHka\Stratovarius-1998 - Destiny (2016 Remastered, 2 CD Digipak)\CD2 Visions Of Destiny (Live in Finland, 1999)\Stratovarius-1998 - Destiny (2016 Remastered) CD2 Visions Of Destiny (Live in Finland, 1999).wav
     Peak level 99.4 %
     Extraction speed 3.7 X
     Range quality 100.0 %
     Test CRC A9D97AA0
     Copy CRC A9D97AA0
     Copy OK
No errors occurred
AccurateRip summary
Track  1  accurately ripped (confidence 1)  [2D062CC6]  (AR v2)
Track  2  accurately ripped (confidence 1)  [A56C4EE6]  (AR v2)
Track  3  accurately ripped (confidence 1)  [7E664C95]  (AR v2)
Track  4  accurately ripped (confidence 1)  [DDE16F45]  (AR v2)
Track  5  accurately ripped (confidence 1)  [B3C7BD05]  (AR v2)
Track  6  accurately ripped (confidence 1)  [3900866B]  (AR v2)
Track  7  accurately ripped (confidence 1)  [9ED2BD7A]  (AR v2)
Track  8  accurately ripped (confidence 1)  [550E6B41]  (AR v2)
Track  9  accurately ripped (confidence 1)  [C2FC07F5]  (AR v2)
Track 10  accurately ripped (confidence 1)  [0BBC8566]  (AR v2)
All tracks accurately ripped
End of status report
---- CUETools DB Plugin V2.1.6
[CTDB TOCID: bHf4OFSOn0Ppccmc5EMuG.UoJbY-] found
Submit result: bHf4OFSOn0Ppccmc5EMuG.UoJbY- has been confirmed
Track | CTDB Status
  1   | (12/12) Accurately ripped
  2   | (12/12) Accurately ripped
  3   | (12/12) Accurately ripped
  4   | (12/12) Accurately ripped
  5   | (12/12) Accurately ripped
  6   | (12/12) Accurately ripped
  7   | (12/12) Accurately ripped
  8   | (12/12) Accurately ripped
  9   | (12/12) Accurately ripped
10   | (12/12) Accurately ripped

Индексная карта (non-compilant .cue)

CD 1

Код:
REM ACCURATERIPID 001f81d0-01217f5d-990fef0c
REM GENRE "Melodic Power Metal"
REM DATE 1998
REM DISCID 990FEF0C
REM COMMENT "ExactAudioCopy v1.3"
PERFORMER "Stratovarius"
TITLE "Destiny "
REM COMPOSER ""
REM DISCNUMBER 1
REM TOTALDISCS 2
FILE "Stratovarius-1998 - Destiny (2016 Remastered) CD1.flac" WAVE
  TRACK 01 AUDIO
    TITLE "Destiny"
    PERFORMER "Stratovarius"
    REM COMPOSER ""
    ISRC DEH841600956
    INDEX 01 00:00:00
  TRACK 02 AUDIO
    TITLE "S.O.S."
    PERFORMER "Stratovarius"
    REM COMPOSER ""
    ISRC DEH841600957
    INDEX 01 10:15:03
  TRACK 03 AUDIO
    TITLE "No Turning Back"
    PERFORMER "Stratovarius"
    REM COMPOSER ""
    ISRC DEH841600958
    INDEX 01 14:30:53
  TRACK 04 AUDIO
    TITLE "4000 Rainy Nights"
    PERFORMER "Stratovarius"
    REM COMPOSER ""
    ISRC DEH841600972
    INDEX 00 18:52:10
    INDEX 01 18:53:20
  TRACK 05 AUDIO
    TITLE "Rebel"
    PERFORMER "Stratovarius"
    REM COMPOSER ""
    ISRC DEH841600973
    INDEX 01 24:53:20
  TRACK 06 AUDIO
    TITLE "Years Go By"
    PERFORMER "Stratovarius"
    REM COMPOSER ""
    ISRC DEH841600974
    INDEX 00 29:07:24
    INDEX 01 29:09:61
  TRACK 07 AUDIO
    TITLE "Playing With Fire"
    PERFORMER "Stratovarius"
    REM COMPOSER ""
    ISRC DEH841600975
    INDEX 01 34:24:05
  TRACK 08 AUDIO
    TITLE "Venus In The Morning"
    PERFORMER "Stratovarius"
    REM COMPOSER ""
    ISRC DEH841600976
    INDEX 00 38:37:43
    INDEX 01 38:39:25
  TRACK 09 AUDIO
    TITLE "Anthem Of The World"
    PERFORMER "Stratovarius"
    REM COMPOSER ""
    ISRC DEH841600977
    INDEX 01 44:14:67
  TRACK 10 AUDIO
    TITLE "Cold Winter Nights (European Edition Bonus Track)"
    PERFORMER "Stratovarius"
    REM COMPOSER ""
    ISRC DEH841600978
    INDEX 00 53:16:25
    INDEX 01 53:21:23
  TRACK 11 AUDIO
    TITLE "Dream With Me (Japanese Edition Bonus Track)"
    PERFORMER "Stratovarius"
    REM COMPOSER ""
    ISRC DEH841600979
    INDEX 00 58:33:74
    INDEX 01 58:38:23
  TRACK 12 AUDIO
    TITLE "Blackout (US Edition Bonus Track)"
    PERFORMER "Stratovarius"
    REM COMPOSER ""
    ISRC DEH841600980
    INDEX 00 63:49:24
    INDEX 01 63:52:23

CD 2

Код:
REM ACCURATERIPID 00170e6d-00b71b47-830db30a
REM GENRE "Melodic Power Metal"
REM DATE 1998
REM DISCID 830DB30A
REM COMMENT "ExactAudioCopy v1.3"
PERFORMER "Stratovarius"
TITLE "Destiny"
REM COMPOSER ""
REM DISCNUMBER 2
REM TOTALDISCS 2
FILE "Stratovarius-1998 - Destiny (2016 Remastered) CD2 Visions Of Destiny (Live in Finland, 1999).flac" WAVE
  TRACK 01 AUDIO
    TITLE "Destiny"
    PERFORMER "Stratovarius"
    REM COMPOSER ""
    INDEX 01 00:00:00
  TRACK 02 AUDIO
    TITLE "Paradise"
    PERFORMER "Stratovarius"
    REM COMPOSER ""
    INDEX 01 08:20:02
  TRACK 03 AUDIO
    TITLE "Speed of Light"
    PERFORMER "Stratovarius"
    REM COMPOSER ""
    INDEX 01 13:56:66
  TRACK 04 AUDIO
    TITLE "S.O.S."
    PERFORMER "Stratovarius"
    REM COMPOSER ""
    INDEX 01 17:20:04
  TRACK 05 AUDIO
    TITLE "Anthem of the World"
    PERFORMER "Stratovarius"
    REM COMPOSER ""
    INDEX 01 21:51:68
  TRACK 06 AUDIO
    TITLE "Forever Free"
    PERFORMER "Stratovarius"
    REM COMPOSER ""
    INDEX 01 30:45:26
  TRACK 07 AUDIO
    TITLE "Black Diamond"
    PERFORMER "Stratovarius"
    REM COMPOSER ""
    INDEX 01 37:04:64
  TRACK 08 AUDIO
    TITLE "The Kiss of Judas"
    PERFORMER "Stratovarius"
    REM COMPOSER ""
    INDEX 01 43:52:58
  TRACK 09 AUDIO
    TITLE "Distant Skies"
    PERFORMER "Stratovarius"
    REM COMPOSER ""
    INDEX 01 49:55:65
  TRACK 10 AUDIO
    TITLE "Forever"
    PERFORMER "Stratovarius"
    REM COMPOSER ""
    INDEX 01 54:12:14
--

_________________
Разница между теорией и практикой в том, что теоретически разницы между теорией и практикой нет, а на практике она есть.
[Профиль] [ЛС]
Показать сообщения:    

Текущее время: Сегодня 17:39

Часовой пояс: GMT + 3



Вы не можете начинать темы
Вы не можете отвечать на сообщения
Вы не можете редактировать свои сообщения
Вы не можете удалять свои сообщения
Вы не можете голосовать в опросах
Вы не можете прикреплять файлы к сообщениям
Вы не можете скачивать файлы