Золотые дни идет свободное скачивание без начисления Download
 

Офлайн

sergej644

Стаж:
5 лет 4 месяца
Сообщений:
853

-JORN - Life On Death Road--
Год издания: 2017
Страна: Norway
Жанр: Heavy Metal
Продолжительность: 01:05:58-Лейбл издания: Frontiers Records
Страна-выпуска диска: Italy
Номер по каталогу: FRCD 795-Формат: FLAC
Битрейт аудио: Lossless
Тип рипа: image +.cue
Наличие сканов в содержимом раздачи: да
-

Трэклист


01. Life On Death Road (7:20)
02. Hammered To The Cross (The Business) (5:29)
03. Love Is The Remedy (4:53)
04. Dreamwalker (4:59)
05. Fire To The Sun (5:05)
06. Insoluble Maze (Dreams In The Blindness) (5:40)
07. I Walked Away (5:05)
08. The Slippery Slope (Hangman's Rope) (5:29)
09. Devil You Can Drive (6:06)
10. The Optimist (4:52)
11. Man Of The 80's (4:50)
12. Blackbirds (6:12)
-

Лог создания рипа

Код:
Exact Audio Copy V1.0 beta 4 from 7. December 2014
EAC extraction logfile from 3. June 2017, 0:43
Jorn / Life On Death Road
Used drive  : HL-DT-STDVDRAM GU40N   Adapter: 0  ID: 1
Read mode               : Secure
Utilize accurate stream : Yes
Defeat audio cache      : Yes
Make use of C2 pointers : No
Read offset correction                      : 103
Overread into Lead-In and Lead-Out          : No
Fill up missing offset samples with silence : Yes
Delete leading and trailing silent blocks   : No
Null samples used in CRC calculations       : Yes
Used interface                              : Installed external ASPI interface
Used output format              : User Defined Encoder
Selected bitrate                : 1024 kBit/s
Quality                         : High
Add ID3 tag                     : No
Command line compressor         : C:\Program Files (x86)\AudioConverter\AudioConverter.exe
Additional command line options : FLAC
TOC of the extracted CD
     Track |   Start  |  Length  | Start sector | End sector
    ---------------------------------------------------------
        1  |  0:00.00 |  7:19.66 |         0    |    32990
        2  |  7:19.66 |  5:29.12 |     32991    |    57677
        3  | 12:49.03 |  4:52.57 |     57678    |    79634
        4  | 17:41.60 |  4:58.53 |     79635    |   102037
        5  | 22:40.38 |  5:04.48 |    102038    |   124885
        6  | 27:45.11 |  5:39.43 |    124886    |   150353
        7  | 33:24.54 |  5:04.48 |    150354    |   173201
        8  | 38:29.27 |  5:29.12 |    173202    |   197888
        9  | 43:58.39 |  6:06.24 |    197889    |   225362
       10  | 50:04.63 |  4:52.01 |    225363    |   247263
       11  | 54:56.64 |  4:49.59 |    247264    |   268997
       12  | 59:46.48 |  6:11.39 |    268998    |   296861
Range status and errors
Selected range
     Filename C:\Users\workutagin\Desktop\JORN - LIFE ON DEATH ROAD 2017\Jorn - Life On Death Road.wav
     Peak level 99.8 %
     Extraction speed 2.1 X
     Range quality 100.0 %
     Test CRC CEEE5884
     Copy CRC CEEE5884
     Copy OK
No errors occurred
AccurateRip summary
Track  1  not present in database
Track  2  not present in database
Track  3  not present in database
Track  4  not present in database
Track  5  not present in database
Track  6  not present in database
Track  7  not present in database
Track  8  not present in database
Track  9  not present in database
Track 10  not present in database
Track 11  not present in database
Track 12  not present in database
None of the tracks are present in the AccurateRip database
End of status report

Индексная карта (non-compilant .cue)

Код:
REM GENRE "Heavy Metal"
REM DATE 2017
REM DISCID 960F760C
REM COMMENT "ExactAudioCopy v1.0b4"
PERFORMER "Jorn"
TITLE "Life On Death Road"
FILE "Jorn - Life On Death Road.flac" WAVE
  TRACK 01 AUDIO
    TITLE "Life On Death Road"
    PERFORMER "Jorn"
    INDEX 01 00:00:00
  TRACK 02 AUDIO
    TITLE "Hammered To The Cross (The Business)"
    PERFORMER "Jorn"
    INDEX 01 07:19:66
  TRACK 03 AUDIO
    TITLE "Love Is The Remedy"
    PERFORMER "Jorn"
    INDEX 01 12:49:03
  TRACK 04 AUDIO
    TITLE "Dreamwalker"
    PERFORMER "Jorn"
    INDEX 01 17:41:60
  TRACK 05 AUDIO
    TITLE "Fire To The Sun"
    PERFORMER "Jorn"
    INDEX 01 22:40:38
  TRACK 06 AUDIO
    TITLE "Insoluble Maze (Dreams In The Blindness)"
    PERFORMER "Jorn"
    INDEX 01 27:45:11
  TRACK 07 AUDIO
    TITLE "I Walked Away"
    PERFORMER "Jorn"
    INDEX 01 33:24:54
  TRACK 08 AUDIO
    TITLE "The Slippery Slope (Hangman's Rope)"
    PERFORMER "Jorn"
    INDEX 01 38:29:27
  TRACK 09 AUDIO
    TITLE "Devil You Can Drive"
    PERFORMER "Jorn"
    INDEX 01 43:58:39
  TRACK 10 AUDIO
    TITLE "The Optimist"
    PERFORMER "Jorn"
    INDEX 01 50:04:63
  TRACK 11 AUDIO
    TITLE "Man Of The 80's"
    PERFORMER "Jorn"
    INDEX 01 54:56:64
  TRACK 12 AUDIO
    TITLE "Blackbirds"
    PERFORMER "Jorn"
    INDEX 01 59:46:48

Информация о релизе:

Йорн (JORN) – однозначно один из величайших рок-певцов XXI века, и его голос вновь звучит во всю мощь на его девятом сольном диске с оригинальным материалом. Ему аккомпанирует новый состав музыкантов, который обеспечил релизу более плотный саунд. На сочинение материала для "Life On Death Road" ушло несколько месяцев упорной работы. Йорн хотел вывести музыку на новый уровень и сделать работу более коллективной, чем когда-либо ранее, и в результате получилась глубокая, сильная работа, полная грува и насыщенная гимноподобными песнями. Такие номера как "Man Of The '80s", "Love Is The Remedy", "Life On Death Road", "Insoluble Maze (Dreams In The Blindness)" и "The Slippery Slope (Hangman's Rope)" передают всю суть Йорна как вокалиста, композитора и автора текстов.
Йорн говорит: "Это определенно один из лучших альбомов, которые я когда-либо записывал. Все дело в том, чтобы собрать вместе правильных людей ради правильного результата и найти время, необходимое для глубокой и тщательной работы над материалом, который мы отобрали для альбома. Чем старше я становлюсь, чем сильнее ощущаю потребность слушать свое сердце и искать то подлинное и искреннее чувство, которое изначально вызвало у меня интерес к музыке. Во времена моей юности, в 70-х и начале 80-х, люди и музыка были свободнее, поэтому чувства и душа проявлялись более естественно, и их присутствия ждали от любого артиста или группы. Именно ту энергетику и ту технику мы искали в процессе работы над этим диском, но при этом старались сохранить руку на пульсе современности.
'Life On Death Road' – это авторский альбом, который во многом подводит итог последних 40-50 лет рока и металла. Это гибридный современный тяжелый альбом, в котором не утрачены вкусовые элементы хорошо выдержанного вина. Несмотря на это, мы все продукты своего времени, и чувства, душа и симбиоз, которых мы добились на этом альбоме, редко встречаются в музыкальном мире дня сегодняшнего, так что в этом смысле этот альбом – настоящий поход на старинном паруснике. От начала до конца работа заняла почти три года, и я могу с гордостью сказать, что этот альбом доказывает, что и в наши дни можно делать классические альбомы".
-Jorn Lande - Vocals
Alex Beyrodt - Guitars
Mat Sinner - Bass
Alessandro Del Vecchio - Keyboards
Francesco Jovino - Drums
--

_________________
Разница между теорией и практикой в том, что теоретически разницы между теорией и практикой нет, а на практике она есть.
[Профиль] [ЛС]
Показать сообщения:    

Текущее время: Сегодня 06:30

Часовой пояс: GMT + 3



Вы не можете начинать темы
Вы не можете отвечать на сообщения
Вы не можете редактировать свои сообщения
Вы не можете удалять свои сообщения
Вы не можете голосовать в опросах
Вы не можете прикреплять файлы к сообщениям
Вы не можете скачивать файлы