Золотые дни идет свободное скачивание без начисления Download
 

Офлайн

sergej644

Стаж:
4 года 2 месяца
Сообщений:
657

-Владимир Высоцкий - Записи К.Мустафиди (14CD)--
Год издания: 2003
Страна: USSR,Russia
Жанр: Author's Song / авторская песня
Продолжительность: 12:17:05-Лейбл издания: AVT (Архив Высоцкого)
Страна-выпуска диска: Russia
Номер по каталогу: AVT-31/44-Формат: Ape
Битрейт аудио: Lossless
Тип рипа: image +.cue
Наличие сканов в содержимом раздачи: да
-

Трэклист

Диск 1 Oригинал первый. Часть 1. | 01:12:29


01. Горизонт (3:36)
02. Случай (3:06)
03. Песня микрофона (3:14)
04. Так дымно, что в зеркале нет отраженья...` (3:42)
05. Милицейский протокол (3:16)
06. Поэтам (2:28)
07. Мои похорона, или Страшный сон очень смелого человека (2:55)
08. Песня конченого человека (7:00)
09. Ой, где был я вчера (2:33)
10. Детская песня про мангустов (3:09)
11. Баллада о брошенном корабле (4:07)
12. Песня автозавистника (2:46)
13. Бег иноходца (3:24)
14. Честь шахматной короны. 1. Как это все случилось, или Подготовка (4:33)
15. Честь шахматной короны. 2. Как это все случилось. Игра (4:32)
16. Охота на волков (3:03)
17. Прошла пора вступлений и прелюдий...` (2:21)
18. Охота на кабанов (3:02)
19. Банька по-белому (7:51)
20. Нет меня - я покинул Расею...` (1:52)

Диск 2 Оригинал первый. Часть 2. | 00:57:25


01. Белое безмолвие (2:17)
02. Кони привередливые (4:56)
03. А люди все роптали и роптали...` (фрагмент) (1:20)
04. Невидимка (3:04)
05. Песня плотника Иосифа, Девы Марии и Святого Духа (2:03)
06. На стол колоду, господа! (3:38)
07. О моем старшине (2:59)
08. Случай в ресторане (1:18)
09. Моя цыганская (4:29)
10. Песня про снайпера, который через 15 лет после войны спился и сидит в ресторане (0:44)
11. Я уехал в Магадан (1:51)
12. Дайте собакам мяса (1:38)
13. Перед выездом в загранку...` (1:47)
14. Случай на шахте (1:38)
15. Вес взят! (3:00)
16. Профессионалы (2:37)
17. Странная сказка (2:08)
18. Семейные дела в Древнем Риме (2:30)
19. Про любовь в средние века (2:48)
20. Про любовь в эпоху Возрождения (4:02)
21. Про нашу любовь. Наверно, я погиб (1:43)
22. У нее все свое - и белье, и жилье...` (3:15)
23. А люди все роптали и роптали` (полный трек) (1:39)

Диск 3 Оригинал первый. Часть 3. | 00:57:05


01. Певец у микрофона (4:14)
02. На маскараде (2:44)
03. Марш аквалангистов (1:41)
04. Оловянные солдатики. Детская песня (2:08)
05. К вершине (1:58)
06. Ах да, среда (2:07)
07. Дела (1:45)
08. Дом хрустальный (2:11)
09. Ноль семь (2:27)
10. Было так - я любил и страдал...` (3:06)
11. Песня о нотах (3:32)
12. Песня о двух красивых автомобилях (2:08)
13. Пародия на плохой детектив (2:37)
14. Так случилось - мужчины ушли...` (3:06)
15. Тот, кто раньше с нею был (2:53)
16. Красное, зелёное (0:42)
17. Мой друг уехал в Магадан (2:09)
18. Мне каждый вечер зажигают свечи...` (1:55)
19. Проложите, проложите...` (1:10)
20. Мао Цзедун - большой шалун...` (0:52)
21. Письмо рабочих тамбовского завода китайским руководителям (2:17)
22. Возле города Пекина...` (1:38)
23. Про чёрта (2:02)
24. Песня о сумасшедшем доме (1:54)
25. Цыганская песня (1:34)
26. О вкусах не спорят (2:15)

Диск 4 Оригинал второй. Часть 1. | 00:55:59


01. Кругом пятьсот. (МАЗы) (4:06)
02. Песня канатоходца (3:37)
03. Увижу восход! (Чёрные бушлаты) (4:05)
04. Песня про телевизор (3:58)
05. Тюменская нефть (4:08)
06. Товарищи ученые (3:58)
07. Баллада о гипсе (4:04)
08. Военная песня. (Мы вращаем Землю) (3:30)
09. Я не люблю (2:13)
10. Человек за бортом (2:52)
11. Пиратская песня (2:04)
12. Еще не вечер (3:12)
13. Лошадей двадцать тысяч в машины зажаты...` (3:27)
14. Корабли (1:49)
15. Всем делам моим на суше вопреки...` (1:43)
16. Парус (1:18)
17. Заповедник (5:56)

Диск 5 Оригинал второй. Часть 2. | 00:51:15


01. Разведка боем (2:31)
02. Золотая середина (2:57)
03. Песня про белого слона (2:49)
04. Песня летчика (2:05)
05. Песня самолета (3:30)
06. Песня о госпитале (1:03)
07. Солдаты группы `Центр` (1:27)
08. Песня о звездах (2:06)
09. Песня о нейтральной полосе (2:08)
10. Все ушли на фронт (2:17)
11. Штрафные батальоны (2:48)
12. Сыт я по горло, до подбородка...` (0:54)
13. Спасите наши души (4:31)
14. Банька по-черному (3:02)
15. Посещение Музы, или Песенка плагиатора (1:49)
16. Гололед (1:24)
17. Песенка о слухах (2:51)
18. Песенка автомобилиста (3:41)
19. Тот, который не стрелял (2:04)
20. Песенка ни про что, или Что случилось в Африке (1:30)
21. Про любовь в каменном веке (1:22)
22. Москва - Одесса (2:26)

Диск 6 Оригинал второй. Часть 3. | 00:59:04


01. Тот, который не стрелял (2:42)
02. Чужая колея (3:20)
03. Мишка Шифман (2:57)
04. Затяжной прыжок (4:42)
05. Песня о вещей Кассандре (2:28)
06. Про дикого вепря (2:35)
07. В созвездии Тау Кита (3:38)
08. Песня космических негодяев (2:12)
09. Про несчастных лесных жителей (3:31)
10. Песня-сказка о нечисти (2:47)
11. Лукоморья больше нет (4:29)
12. О вещем Олеге (2:27)
13. Про джинна (3:07)
14. От скушных шабашей...` (2:35)
15. Про йогов (2:03)
16. Песенка о переселении душ (2:08)
17. Про прыгуна в длину (1:47)
18. Про прыгуна в высоту (3:13)
19. Марафон (1:32)
20. Вратарь (3:49)
21. О сентиментальном боксере (1:04)

Диск 7 Оригинал третий.. | 00:48:36


01. Баллада о маленьком человеке (6:37)
02. Марш футбольной команды `Медведей` (3:17)
03. Песня Билла Сиггера (2:24)
04. Мистерия хиппи (3:57)
05. Прерванный полёт (4:08)
06. Баллада об оружии (6:10)
07. Баллада о манекенах (6:07)
08. Баллада о Кокильоне (3:23)
09. Мы все живём как будто, но...` (2:36)
10. В день, когда мы, поддержкой земли заручась...` (3:59)
11. Всему на свете выходят сроки...` (3:26)
12. Был развесёлый розовый восход...` (2:32)

Диск 8 Оригинал четвертый. Часть 1. | 00:40:49


01. Письмо на выставку (2:23)
02. Письмо в деревню (2:22)
03. Бал- маскарад (1:31)
04. Песня завистника (1:40)
05. Поездка в город (2:29)
06. Песня студентов- археологов. Марш физиков (4:06)
07. Весёлая покойницкая (2:53)
08. День рождения лейтенанта милиции в ресторане `Берлин` (1:54)
09. Большой Каретный (1:15)
10. Серебряные струны (2:21)
11. Я любил и женщин и проказы...` (1:43)
12. Городской романс (2:27)
13. Наводчица (1:40)
14. У тебя глаза - как нож (1:23)
15. О нашей встрече (2:52)
16. За меня невеста отрыдает честно...` (2:33)
17. Затяжной прыжок (5:17)

Диск 9 Оригинал четвертый. Часть 2. | 00:43:12


01. Я был слесарь шестого разряда (1:27)
02. Передо мной любой факир - ну просто карлик...` (1:13)
03. Говорят, арестован...` (1:01)
04. Вот раньше жизнь!..` (1:44)
05. Что же ты, зараза, бровь себе подбрила...` (0:58)
06. Про Сережку Фомина (2:31)
07. Антисемиты (2:11)
08. Правда ведь, обидно (0:46)
09. Помню, я однажды и в `очко`, и в `стос` играл...` (2:02)
10. Нам вчера прислали...` (1:14)
11. Катерина, Катя, Катерина...` (1:06)
12. Я в деле (1:15)
13. Весна еще в начале (1:45)
14. Все позади: и КПЗ, и суд...` (фрагмент) (1:57)
15. Памятник (4:19)
16. Диалог у телевизора (4:13)
17. Штормит весь вечер, и пока...` (3:05)
18. Смотрины (4:23)
19. Песенка про Козла отпущения (4:02)
20. Все позади: и КПЗ, и суд...` (монтаж) (2:00)

Диск 10 Оригинал четвертый. Часть 3. 00:43:43


01. Один музыкант объяснил мне пространно...` (1:51)
02. Письмо (2:38)
03. Давно смолкли залпы орудий...` (2:09)
04. После чемпионата мира по футболу. Разговор с женой (1:24)
05. В куски разлетелася корона...` (1:15)
06. Песня Бродского (2:21)
07. Сколько лет, сколько лет...` (0:40)
08. Я теперь в дураках - не уйти мне с земли...` (3:16)
09. Свой остров (2:01)
10. Вот и разошлись пути-дороги вдруг...` (1:46)
11. Долго же шел ты в конверте, листок...` (3:34)
12. Сколько чудес за туманами кроется...` (2:13)
13. Если б водка была на одного...` (2:05)
14. Так оно и есть...` (2:32)
15. У домашних и хищных зверей...` (1:13)
16. Баллада о бане (2:48)
17. Баллада о короткой шее (3:32)
18. Здесь лапы у елей дрожат на весу...` (3:33)
19. Она была чиста, как снег зимой...` (2:50)

Диск 11 Оригинал пятый. Часть 1. | 00:50:57


01. То ли в избу и запеть...` (3:31)
02. Песенка про метателя молота (1:31)
03. Песня командировочного (3:13)
04. Песня про стукача (1:50)
05. Я несла свою Беду...` (2:46)
06. Пока вы здесь в ванночке с кафелем...` (1:20)
07. Есть на Земле предостаточно рас...` (1:37)
08. И вкусы, и запросы мои - странны...` (2:38)
09. Наши предки - люди темные и грубые...` (1:41)
10. Песня про врачей (0:53)
11. Рядовой Борисов! (3:01)
12. Ребята, напишите мне письмо (1:51)
13. В этом доме большом раньше пьянка была...` (1:04)
14. Сколько я ни старался...` (2:20)
15. Мне ребята сказали про такую наколку!..` (2:16)
16. Татуировка (1:59)
17. Вот - главный вход, но только вот...` (2:53)
18. Я был душой дурного общества (2:10)
19. Ленинградская блокада (1:08)
20. Зэка Васильев и Петров зэка (2:32)
21. Позабыв про дела и тревоги (1:31)
22. Не каждый. (Песня про стукача) (2:19)
23. Мы вместе грабили одну и ту же хату...` (фрагмент) (2:26)
24. Мы вместе грабили одну и ту же хату...` (монтаж) (2:26)

Диск 12 Оригинал пятый. Часть 2. | 00:51:30


01. Ну о чем с тобою говорить!..` (1:14)
02. Эй, шофер, вези - Бутырский хутор...` (1:17)
03. До нашей эры соблюдалось чувство меры...` (1:30)
04. То была не интрижка...` (1:23)
05. Зарисовка о Ленинграде (0:46)
06. Город уши заткнул (2:11)
07. Бодайбо (1:30)
08. Сивка-Бурка (2:00)
09. У нас вчера с позавчера...` (1:38)
10. Нат Пинкертон - вот с детства мой кумир...` (2:59)
11. Песня про первые ряды (3:13)
12. Бросьте скуку, как корку арбузную...` (1:08)
13. Я теперь в дураках - не уйти мне с земли...` (4:12)
14. Лежит камень в степи (1:05)
15. Жил-был добрый дурачина-простофиля...` (3:17)
16. Не покупают никакой еды...` (1:51)
17. Песня о Волге (3:47)
18. Рецидивист (1:42)
19. Песня про Уголовный кодекс (1:48)
20. Попутчик (2:31)
21. Песня Рябого (1:39)
22. Подумаешь - с женой не очень ладно...` (1:13)
23. Не писать мне повестей, романов...` (1:27)
24. Счетчик щелкает (1:39)
25. Песня о конькобежце на короткие дистанции, которого заставили бежать на длинную (2:35)
26. Она на двор - он со двора...` (1:56)

Диск 13 Оригинал шестой. | 01:00:11


01. Горизонт (3:24)
02. МАЗы (3:11)
03. Чужая колея (3:34)
04. Ой, где был я вчера (2:51)
05. Милицейский протокол (3:36)
06. Мои похорона, или Страшный сон очень смелого человека (2:44)
07. Тот, который не стрелял (2:52)
08. Жираф большой, или Семейная хроника (1:40)
09. Поездка в город (2:34)
10. Я не люблю (2:14)
11. Случай в ресторане (1:58)
12. Товарищи учёные (2:46)
13. Честь шахматной короны. Подготовка (2:58)
14. Честь шахматной короны. Игра (2:56)
15. Диалог у телевизора (3:34)
16. Проложите, проложите...` (1:01)
17. Песня Солодова (2:19)
18. Частушки (`Гули-гули-гуленьки...`) (1:57)
19. Песня Вани у Марии (2:31)
20. Кто за чем бежит (4:24)
21. Баллада об уходе в рай (3:10)
22. Оплавляются свечи...` (1:57)

Диск 14 Оригинал седьмой. | 00:44:51


01. Очи чёрные. Погоня (2:46)
02. Очи чёрные. Старый дом (2:58)
03. Инструкция перед поездкой за рубеж, или Полчаса в месткоме (5:08)
04. Куплеты Бенгальского (фрагмент) (2:11)
05. Шансонетка про Розу- гимназистку (фрагмент) (1:17)
06. Банька по- чёрному (4:26)
07. От скушных шабашей...` (фрагмент) (3:48)
08. Я все вопросы освещу сполна...` (фрагмент) (3:10)
09. Нет меня - я покинул Расею...` (2:18)
10. День рождения лейтенанта милиции в ресторане `Берлин` (1:21)
11. Переворот в мозгах из края в край...`(фрагмент) (3:41)
12. Про чёрта (2:50)
13. ...Стою словно голенький...`(фрагмент) (0:09)
14. Песня о сумасшедшем доме (1:55)
15. Тот, кто раньше с нею был (3:12)
16. У тебя глаза - как нож (фрагмент) (1:12)
17. Красное, зеленое (0:38)
18. Татуировка (1:52)

Информация о релизе

Первая коллекция, открывающая серию "Архив Высоцкого", включает в себя записи Константина Мустафиди.
Начав записывать песни Владимира Высоцкого в январе 1972 года, К.Мустафиди пополнял звуковой архив в течение нескольких лет.
Лучшая по тем временам магнитофонная техника позволила сохранить голос известного поэта и исполнителя во всей звуковой палитре. Эти записи сегодня уникальны и тем, что только на них зафиксированы несколько песен, более нигде Владимиром Высоцким не исполнявшихся. Кроме того, эти оригиналы содержат и начальные, порой существенно отличающиеся от канонических исполнений варианты песен. Оцифрованные и деликатно отреставрированные фонограммы, в которых сохранены даже звуки включения магнитофона, скрип стульев и тому подобное, доносят до слушателя подлинную атмосферу тех лет.
Записи Константина Мустафиди:
Оригинал первый. 7 января 1972 - апрель 1972 года.
Оригинал второй. Май - декабрь 1972 года.
Оригиналы третий и пятый. Октябрь - декабрь 1973 года.
Оригинал четвертый. 1973 год.
Оригиналы шестой и седьмой. 2 апреля, осень 1974 года (доп. 1971 год).
К коллекции прилагается 32-страничный буклет с фотоальбомом и историей К.Мустафиди о записи музыкального архива.
--

_________________
Разница между теорией и практикой в том, что теоретически разницы между теорией и практикой нет, а на практике она есть.
[Профиль] [ЛС]

Офлайн

sergej644

Стаж:
4 года 2 месяца
Сообщений:
657

Диск 1 Oригинал первый. Часть 1.

Лог создания рипа

Код:
Отчёт EAC об извлечении, выполненном 5. октября 2007, 13:26 для диска:
В. Высоцкий / Архив Высоцкого. Записи Константина Мустафиди. Оригинал первый. Часть 1
Дисковод: ASUS    DRW-1814BL   Adapter: 1  ID: 0
Режим чтения: Достоверный (C2: нет, Точный поток: да, Отключение кэша: да)
Коррекция смещения при чтении: 6
Способность читать области Lead-in и Lead-out : Нет
Выходной формат: Внутренние WAV-операции
                     44.100 Гц; 16 бит; стерео
Другие параметры:
    Заполнение пропущенных сэмплов тишиной : Да
    Удаление блоков с тишиной в начале и конце : Нет
    Установленный внешний ASPI-интерфейс
Характеристики диапазона извлечения и сообщения об ошибках
Выбранный диапазон
     Имя файла E:\3_2\В. Высоцкий - Архив Высоцкого. Записи Константина Мустафиди. Оригинал первый. Часть 1.wav
     Пиковый уровень 94.4 %
     Качество диапазона 100.0 %
     CRC 71404D7B
     Копирование... OK
Ошибок не произошло
Конец отчёта

Индексная карта (non-compilant .cue)

Код:
REM DATE 1972
REM DISCID 1C10FD14
REM COMMENT "ExactAudioCopy v0.95b4"
PERFORMER "В. Высоцкий"
TITLE "Архив Высоцкого. Записи Константина Мустафиди. Оригинал первый. Часть 1"
FILE "В. Высоцкий - Архив Высоцкого. Записи Константина Мустафиди. Оригинал первый. Часть 1.wav" WAVE
  TRACK 01 AUDIO
    TITLE "Горизонт"
    PERFORMER "В. Высоцкий"
    FLAGS DCP
    INDEX 01 00:00:00
  TRACK 02 AUDIO
    TITLE "Случай"
    PERFORMER "В. Высоцкий"
    FLAGS DCP
    INDEX 01 03:35:67
  TRACK 03 AUDIO
    TITLE "Песня микрофона"
    PERFORMER "В. Высоцкий"
    FLAGS DCP
    INDEX 01 06:41:62
  TRACK 04 AUDIO
    TITLE "`Так дымно, что в зеркале нет отраженья...`"
    PERFORMER "В. Высоцкий"
    FLAGS DCP
    INDEX 01 09:56:09
  TRACK 05 AUDIO
    TITLE "Милицейский протокол"
    PERFORMER "В. Высоцкий"
    FLAGS DCP
    INDEX 01 13:38:11
  TRACK 06 AUDIO
    TITLE "Поэтам"
    PERFORMER "В. Высоцкий"
    FLAGS DCP
    INDEX 01 16:54:20
  TRACK 07 AUDIO
    TITLE "Мои похорона, или Страшный сон очень смелого человека"
    PERFORMER "В. Высоцкий"
    FLAGS DCP
    INDEX 01 19:22:54
  TRACK 08 AUDIO
    TITLE "Песня конченого человека"
    PERFORMER "В. Высоцкий"
    FLAGS DCP
    INDEX 01 22:17:23
  TRACK 09 AUDIO
    TITLE "Ой, где был я вчера"
    PERFORMER "В. Высоцкий"
    FLAGS DCP
    INDEX 01 29:17:17
  TRACK 10 AUDIO
    TITLE "Детская песня про мангустов"
    PERFORMER "В. Высоцкий"
    FLAGS DCP
    INDEX 01 31:49:74
  TRACK 11 AUDIO
    TITLE "Баллада о брошенном корабле"
    PERFORMER "В. Высоцкий"
    FLAGS DCP
    INDEX 01 34:59:03
  TRACK 12 AUDIO
    TITLE "Песня автозавистника"
    PERFORMER "В. Высоцкий"
    FLAGS DCP
    INDEX 01 39:06:27
  TRACK 13 AUDIO
    TITLE "Бег иноходца"
    PERFORMER "В. Высоцкий"
    FLAGS DCP
    INDEX 01 41:51:69
  TRACK 14 AUDIO
    TITLE "Честь шахматной короны. 1. Как это все случилось, или Подготовка"
    PERFORMER "В. Высоцкий"
    FLAGS DCP
    INDEX 01 45:15:53
  TRACK 15 AUDIO
    TITLE "Честь шахматной короны. 2. Как это все случилось. Игра"
    PERFORMER "В. Высоцкий"
    FLAGS DCP
    INDEX 01 49:48:61
  TRACK 16 AUDIO
    TITLE "Охота на волков"
    PERFORMER "В. Высоцкий"
    FLAGS DCP
    INDEX 01 54:20:60
  TRACK 17 AUDIO
    TITLE "`Прошла пора вступлений и прелюдий...`"
    PERFORMER "В. Высоцкий"
    FLAGS DCP
    INDEX 01 57:23:39
  TRACK 18 AUDIO
    TITLE "Охота на кабанов"
    PERFORMER "В. Высоцкий"
    FLAGS DCP
    INDEX 01 59:44:46
  TRACK 19 AUDIO
    TITLE "Банька по-белому"
    PERFORMER "В. Высоцкий"
    FLAGS DCP
    INDEX 01 62:46:21
  TRACK 20 AUDIO
    TITLE "`Нет меня - я покинул Расею...`"
    PERFORMER "В. Высоцкий"
    FLAGS DCP
    INDEX 01 70:37:29

Диск 2 Оригинал первый. Часть 2.

Лог создания рипа

Код:
Отчёт EAC об извлечении, выполненном 5. октября 2007, 13:04 для диска:
В. Высоцкий / Архив Высоцкого. Записи Константина Мустафиди. Оригинал первый. Часть 2
Дисковод: ASUS    DRW-1814BL   Adapter: 1  ID: 0
Режим чтения: Достоверный (C2: нет, Точный поток: да, Отключение кэша: да)
Коррекция смещения при чтении: 6
Способность читать области Lead-in и Lead-out : Нет
Выходной формат: Внутренние WAV-операции
                     44.100 Гц; 16 бит; стерео
Другие параметры:
    Заполнение пропущенных сэмплов тишиной : Да
    Удаление блоков с тишиной в начале и конце : Нет
    Установленный внешний ASPI-интерфейс
Характеристики диапазона извлечения и сообщения об ошибках
Выбранный диапазон
     Имя файла E:\3_2\В. Высоцкий - Архив Высоцкого. Записи Константина Мустафиди. Оригинал первый. Часть 2.wav
     Пиковый уровень 89.0 %
     Качество диапазона 100.0 %
     CRC AF23EF1D
     Копирование... OK
Ошибок не произошло
Конец отчёта

Индексная карта (non-compilant .cue)

Код:
REM DATE 1972
REM DISCID 2C0D7517
REM COMMENT "ExactAudioCopy v0.95b4"
PERFORMER "В. Высоцкий"
TITLE "Архив Высоцкого. Записи Константина Мустафиди. Оригинал первый. Часть 2"
FILE "В. Высоцкий - Архив Высоцкого. Записи Константина Мустафиди. Оригинал первый. Часть 2.wav" WAVE
  TRACK 01 AUDIO
    TITLE "Белое безмолвие"
    PERFORMER "В. Высоцкий"
    FLAGS DCP
    INDEX 01 00:00:00
  TRACK 02 AUDIO
    TITLE "Кони привередливые"
    PERFORMER "В. Высоцкий"
    FLAGS DCP
    INDEX 01 02:17:32
  TRACK 03 AUDIO
    TITLE "`А люди все роптали и роптали...` (фрагмент)"
    PERFORMER "В. Высоцкий"
    FLAGS DCP
    INDEX 01 07:13:12
  TRACK 04 AUDIO
    TITLE "Невидимка"
    PERFORMER "В. Высоцкий"
    FLAGS DCP
    INDEX 01 08:33:33
  TRACK 05 AUDIO
    TITLE "Песня плотника Иосифа, Девы Марии и Святого Духа"
    PERFORMER "В. Высоцкий"
    FLAGS DCP
    INDEX 01 11:37:14
  TRACK 06 AUDIO
    TITLE "На стол колоду, господа!"
    PERFORMER "В. Высоцкий"
    FLAGS DCP
    INDEX 01 13:40:44
  TRACK 07 AUDIO
    TITLE "О моем старшине"
    PERFORMER "В. Высоцкий"
    FLAGS DCP
    INDEX 01 17:19:02
  TRACK 08 AUDIO
    TITLE "Случай в ресторане"
    PERFORMER "В. Высоцкий"
    FLAGS DCP
    INDEX 01 20:18:23
  TRACK 09 AUDIO
    TITLE "Моя цыганская"
    PERFORMER "В. Высоцкий"
    FLAGS DCP
    INDEX 01 21:36:23
  TRACK 10 AUDIO
    TITLE "Песня про снайпера, который через 15 лет после войны спился и сидит в ресторане"
    PERFORMER "В. Высоцкий"
    FLAGS DCP
    INDEX 01 26:05:52
  TRACK 11 AUDIO
    TITLE "Я уехал в Магадан"
    PERFORMER "В. Высоцкий"
    FLAGS DCP
    INDEX 01 26:49:40
  TRACK 12 AUDIO
    TITLE "Дайте собакам мяса"
    PERFORMER "В. Высоцкий"
    FLAGS DCP
    INDEX 01 28:40:65
  TRACK 13 AUDIO
    TITLE "`Перед выездом в загранку...`"
    PERFORMER "В. Высоцкий"
    FLAGS DCP
    INDEX 01 30:19:27
  TRACK 14 AUDIO
    TITLE "Случай на шахте"
    PERFORMER "В. Высоцкий"
    FLAGS DCP
    INDEX 01 32:06:09
  TRACK 15 AUDIO
    TITLE "Вес взят!"
    PERFORMER "В. Высоцкий"
    FLAGS DCP
    INDEX 01 33:43:68
  TRACK 16 AUDIO
    TITLE "Профессионалы"
    PERFORMER "В. Высоцкий"
    FLAGS DCP
    INDEX 01 36:43:34
  TRACK 17 AUDIO
    TITLE "Странная сказка"
    PERFORMER "В. Высоцкий"
    FLAGS DCP
    INDEX 01 39:20:07
  TRACK 18 AUDIO
    TITLE "Семейные дела в Древнем Риме"
    PERFORMER "В. Высоцкий"
    FLAGS DCP
    INDEX 01 41:27:58
  TRACK 19 AUDIO
    TITLE "Про любовь в средние века"
    PERFORMER "В. Высоцкий"
    FLAGS DCP
    INDEX 01 43:58:10
  TRACK 20 AUDIO
    TITLE "Про любовь в эпоху Возрождения"
    PERFORMER "В. Высоцкий"
    FLAGS DCP
    INDEX 01 46:46:02
  TRACK 21 AUDIO
    TITLE "Про нашу любовь. Наверно, я погиб"
    PERFORMER "В. Высоцкий"
    FLAGS DCP
    INDEX 01 50:48:04
  TRACK 22 AUDIO
    TITLE "`У нее все свое - и белье, и жилье...`"
    PERFORMER "В. Высоцкий"
    FLAGS DCP
    INDEX 01 52:31:22
  TRACK 23 AUDIO
    TITLE "`А люди все роптали и роптали` (полный трек)"
    PERFORMER "В. Высоцкий"
    FLAGS DCP
    INDEX 00 55:32:12
    INDEX 01 55:46:03

Диск 3 Оригинал первый. Часть 3.

Лог создания рипа

Код:
Отчёт EAC об извлечении, выполненном 5. октября 2007, 12:53 для диска:
В. Высоцкий / Архив Высоцкого. Записи Константина Мустафиди. Оригинал первый. Часть 3
Дисковод: ASUS    DRW-1814BL   Adapter: 1  ID: 0
Режим чтения: Достоверный (C2: нет, Точный поток: да, Отключение кэша: да)
Коррекция смещения при чтении: 6
Способность читать области Lead-in и Lead-out : Нет
Выходной формат: Внутренние WAV-операции
                     44.100 Гц; 16 бит; стерео
Другие параметры:
    Заполнение пропущенных сэмплов тишиной : Да
    Удаление блоков с тишиной в начале и конце : Нет
    Установленный внешний ASPI-интерфейс
Характеристики диапазона извлечения и сообщения об ошибках
Выбранный диапазон
     Имя файла E:\3_2\В. Высоцкий - Архив Высоцкого. Записи Константина Мустафиди. Оригинал первый. Часть 3.wav
     Пиковый уровень 82.8 %
     Качество диапазона 100.0 %
     CRC 1F00EDE3
     Копирование... OK
Ошибок не произошло
Конец отчёта

Индексная карта (non-compilant .cue)

Код:
REM DATE 1972
REM DISCID 750D611A
REM COMMENT "ExactAudioCopy v0.95b4"
PERFORMER "В. Высоцкий"
TITLE "Архив Высоцкого. Записи Константина Мустафиди. Оригинал первый. Часть 3"
FILE "В. Высоцкий - Архив Высоцкого. Записи Константина Мустафиди. Оригинал первый. Часть 3.wav" WAVE
  TRACK 01 AUDIO
    TITLE "Певец у микрофона"
    PERFORMER "В. Высоцкий"
    FLAGS DCP
    INDEX 01 00:00:00
  TRACK 02 AUDIO
    TITLE "На маскараде"
    PERFORMER "В. Высоцкий"
    FLAGS DCP
    INDEX 01 04:14:17
  TRACK 03 AUDIO
    TITLE "Марш аквалангистов"
    PERFORMER "В. Высоцкий"
    FLAGS DCP
    INDEX 01 06:58:31
  TRACK 04 AUDIO
    TITLE "Оловянные солдатики. Детская песня"
    PERFORMER "В. Высоцкий"
    FLAGS DCP
    INDEX 01 08:39:56
  TRACK 05 AUDIO
    TITLE "К вершине"
    PERFORMER "В. Высоцкий"
    FLAGS DCP
    INDEX 01 10:47:44
  TRACK 06 AUDIO
    TITLE "Ах да, среда"
    PERFORMER "В. Высоцкий"
    FLAGS DCP
    INDEX 01 12:45:73
  TRACK 07 AUDIO
    TITLE "Дела"
    PERFORMER "В. Высоцкий"
    FLAGS DCP
    INDEX 01 14:53:16
  TRACK 08 AUDIO
    TITLE "Дом хрустальный"
    PERFORMER "В. Высоцкий"
    FLAGS DCP
    INDEX 01 16:38:17
  TRACK 09 AUDIO
    TITLE "Ноль семь"
    PERFORMER "В. Высоцкий"
    FLAGS DCP
    INDEX 01 18:48:55
  TRACK 10 AUDIO
    TITLE "`Было так - я любил и страдал...`"
    PERFORMER "В. Высоцкий"
    FLAGS DCP
    INDEX 01 21:15:56
  TRACK 11 AUDIO
    TITLE "Песня о нотах"
    PERFORMER "В. Высоцкий"
    FLAGS DCP
    INDEX 01 24:21:66
  TRACK 12 AUDIO
    TITLE "Песня о двух красивых автомобилях"
    PERFORMER "В. Высоцкий"
    FLAGS DCP
    INDEX 01 27:54:10
  TRACK 13 AUDIO
    TITLE "Пародия на плохой детектив"
    PERFORMER "В. Высоцкий"
    FLAGS DCP
    INDEX 01 30:02:18
  TRACK 14 AUDIO
    TITLE "`Так случилось - мужчины ушли...`"
    PERFORMER "В. Высоцкий"
    FLAGS DCP
    INDEX 01 32:38:74
  TRACK 15 AUDIO
    TITLE "Тот, кто раньше с нею был"
    PERFORMER "В. Высоцкий"
    FLAGS DCP
    INDEX 01 35:44:54
  TRACK 16 AUDIO
    TITLE "Красное, зелёное"
    PERFORMER "В. Высоцкий"
    FLAGS DCP
    INDEX 01 38:37:41
  TRACK 17 AUDIO
    TITLE "Мой друг уехал в Магадан"
    PERFORMER "В. Высоцкий"
    FLAGS DCP
    INDEX 01 39:19:22
  TRACK 18 AUDIO
    TITLE "`Мне каждый вечер зажигают свечи...`"
    PERFORMER "В. Высоцкий"
    FLAGS DCP
    INDEX 01 41:28:37
  TRACK 19 AUDIO
    TITLE "`Проложите, проложите...`"
    PERFORMER "В. Высоцкий"
    FLAGS DCP
    INDEX 01 43:23:06
  TRACK 20 AUDIO
    TITLE "`Мао Цзедун - большой шалун...`"
    PERFORMER "В. Высоцкий"
    FLAGS DCP
    INDEX 01 44:33:11
  TRACK 21 AUDIO
    TITLE "Письмо рабочих тамбовского завода китайским руководителям"
    PERFORMER "В. Высоцкий"
    FLAGS DCP
    INDEX 01 45:24:74
  TRACK 22 AUDIO
    TITLE "`Возле города Пекина...`"
    PERFORMER "В. Высоцкий"
    FLAGS DCP
    INDEX 01 47:42:30
  TRACK 23 AUDIO
    TITLE "Про чёрта"
    PERFORMER "В. Высоцкий"
    FLAGS DCP
    INDEX 01 49:20:54
  TRACK 24 AUDIO
    TITLE "Песня о сумасшедшем доме"
    PERFORMER "В. Высоцкий"
    FLAGS DCP
    INDEX 01 51:22:53
  TRACK 25 AUDIO
    TITLE "Цыганская песня"
    PERFORMER "В. Высоцкий"
    FLAGS DCP
    INDEX 01 53:16:63
  TRACK 26 AUDIO
    TITLE "О вкусах не спорят"
    PERFORMER "В. Высоцкий"
    FLAGS DCP
    INDEX 01 54:50:44

Диск 4 Оригинал второй. Часть 1.

Лог создания рипа

Код:
Отчёт EAC об извлечении, выполненном 5. октября 2007, 12:28 для диска:
В. Высоцкий / Архив Высоцкого. Записи Константина Мустафиди. Оригинал второй. Часть 1
Дисковод: ASUS    DRW-1814BL   Adapter: 1  ID: 0
Режим чтения: Достоверный (C2: нет, Точный поток: да, Отключение кэша: да)
Коррекция смещения при чтении: 6
Способность читать области Lead-in и Lead-out : Нет
Выходной формат: Внутренние WAV-операции
                     44.100 Гц; 16 бит; стерео
Другие параметры:
    Заполнение пропущенных сэмплов тишиной : Да
    Удаление блоков с тишиной в начале и конце : Нет
    Установленный внешний ASPI-интерфейс
Характеристики диапазона извлечения и сообщения об ошибках
Выбранный диапазон
     Имя файла E:\3_2\7\В. Высоцкий - Архив Высоцкого. Записи Константина Мустафиди. Оригинал второй. Часть 1.wav
     Пиковый уровень 88.0 %
     Качество диапазона 100.0 %
     CRC BE14153C
     Копирование... OK
Ошибок не произошло
Конец отчёта

Индексная карта (non-compilant .cue)

Код:
REM DATE 1972
REM DISCID F00D1E11
REM COMMENT "ExactAudioCopy v0.95b4"
PERFORMER "В. Высоцкий"
TITLE "Архив Высоцкого. Записи Константина Мустафиди. Оригинал второй. Часть 1"
FILE "В. Высоцкий - Архив Высоцкого. Записи Константина Мустафиди. Оригинал второй. Часть 1.wav" WAVE
  TRACK 01 AUDIO
    TITLE "Кругом пятьсот. (МАЗы)"
    PERFORMER "В. Высоцкий"
    FLAGS DCP
    INDEX 01 00:00:00
  TRACK 02 AUDIO
    TITLE "Песня канатоходца"
    PERFORMER "В. Высоцкий"
    FLAGS DCP
    INDEX 01 04:05:68
  TRACK 03 AUDIO
    TITLE "Увижу восход! (Чёрные бушлаты)"
    PERFORMER "В. Высоцкий"
    FLAGS DCP
    INDEX 01 07:43:09
  TRACK 04 AUDIO
    TITLE "Песня про телевизор"
    PERFORMER "В. Высоцкий"
    FLAGS DCP
    INDEX 01 11:47:68
  TRACK 05 AUDIO
    TITLE "Тюменская нефть"
    PERFORMER "В. Высоцкий"
    FLAGS DCP
    INDEX 01 15:45:34
  TRACK 06 AUDIO
    TITLE "Товарищи ученые"
    PERFORMER "В. Высоцкий"
    FLAGS DCP
    INDEX 01 19:53:00
  TRACK 07 AUDIO
    TITLE "Баллада о гипсе"
    PERFORMER "В. Высоцкий"
    FLAGS DCP
    INDEX 01 23:50:58
  TRACK 08 AUDIO
    TITLE "Военная песня. (Мы вращаем Землю)"
    PERFORMER "В. Высоцкий"
    FLAGS DCP
    INDEX 01 27:54:28
  TRACK 09 AUDIO
    TITLE "Я не люблю"
    PERFORMER "В. Высоцкий"
    FLAGS DCP
    INDEX 01 31:24:30
  TRACK 10 AUDIO
    TITLE "Человек за бортом"
    PERFORMER "В. Высоцкий"
    FLAGS DCP
    INDEX 01 33:37:31
  TRACK 11 AUDIO
    TITLE "Пиратская песня"
    PERFORMER "В. Высоцкий"
    FLAGS DCP
    INDEX 01 36:29:68
  TRACK 12 AUDIO
    TITLE "Еще не вечер"
    PERFORMER "В. Высоцкий"
    FLAGS DCP
    INDEX 01 38:33:38
  TRACK 13 AUDIO
    TITLE "`Лошадей двадцать тысяч в машины зажаты...`"
    PERFORMER "В. Высоцкий"
    FLAGS DCP
    INDEX 01 41:45:26
  TRACK 14 AUDIO
    TITLE "Корабли"
    PERFORMER "В. Высоцкий"
    FLAGS DCP
    INDEX 01 45:12:05
  TRACK 15 AUDIO
    TITLE "`Всем делам моим на суше вопреки...`"
    PERFORMER "В. Высоцкий"
    FLAGS DCP
    INDEX 01 47:01:31
  TRACK 16 AUDIO
    TITLE "Парус"
    PERFORMER "В. Высоцкий"
    FLAGS DCP
    INDEX 01 48:44:36
  TRACK 17 AUDIO
    TITLE "Заповедник"
    PERFORMER "В. Высоцкий"
    FLAGS DCP
    INDEX 01 50:02:70

Диск 5 Оригинал второй. Часть 2.

Лог создания рипа

Код:
Отчёт EAC об извлечении, выполненном 5. октября 2007, 12:15 для диска:
В. Высоцкий / Архив Высоцкого. Записи Константина Мустафиди. Оригинал второй. Часть 2
Дисковод: ASUS    DRW-1814BL   Adapter: 1  ID: 0
Режим чтения: Достоверный (C2: нет, Точный поток: да, Отключение кэша: да)
Коррекция смещения при чтении: 6
Способность читать области Lead-in и Lead-out : Нет
Выходной формат: Внутренние WAV-операции
                     44.100 Гц; 16 бит; стерео
Другие параметры:
    Заполнение пропущенных сэмплов тишиной : Да
    Удаление блоков с тишиной в начале и конце : Нет
    Установленный внешний ASPI-интерфейс
Характеристики диапазона извлечения и сообщения об ошибках
Выбранный диапазон
     Имя файла E:\3_2\7\В. Высоцкий - Архив Высоцкого. Записи Константина Мустафиди. Оригинал второй. Часть 2.wav
     Пиковый уровень 100.0 %
     Качество диапазона 100.0 %
     CRC 1D0F34CC
     Копирование... OK
Ошибок не произошло
Конец отчёта

Индексная карта (non-compilant .cue)

Код:
REM DATE 1972
REM DISCID 490C0316
REM COMMENT "ExactAudioCopy v0.95b4"
PERFORMER "В. Высоцкий"
TITLE "Архив Высоцкого. Записи Константина Мустафиди. Оригинал второй. Часть 2"
FILE "В. Высоцкий - Архив Высоцкого. Записи Константина Мустафиди. Оригинал второй. Часть 2.wav" WAVE
  TRACK 01 AUDIO
    TITLE "Разведка боем"
    PERFORMER "В. Высоцкий"
    FLAGS DCP
    INDEX 01 00:00:00
  TRACK 02 AUDIO
    TITLE "Золотая середина"
    PERFORMER "В. Высоцкий"
    FLAGS DCP
    INDEX 01 02:31:20
  TRACK 03 AUDIO
    TITLE "Песня про белого слона"
    PERFORMER "В. Высоцкий"
    FLAGS DCP
    INDEX 01 05:28:29
  TRACK 04 AUDIO
    TITLE "Песня летчика"
    PERFORMER "В. Высоцкий"
    FLAGS DCP
    INDEX 01 08:17:37
  TRACK 05 AUDIO
    TITLE "Песня самолета"
    PERFORMER "В. Высоцкий"
    FLAGS DCP
    INDEX 01 10:22:05
  TRACK 06 AUDIO
    TITLE "Песня о госпитале"
    PERFORMER "В. Высоцкий"
    FLAGS DCP
    INDEX 01 13:52:37
  TRACK 07 AUDIO
    TITLE "Солдаты группы `Центр`"
    PERFORMER "В. Высоцкий"
    FLAGS DCP
    INDEX 01 14:55:38
  TRACK 08 AUDIO
    TITLE "Песня о звездах"
    PERFORMER "В. Высоцкий"
    FLAGS DCP
    INDEX 01 16:22:41
  TRACK 09 AUDIO
    TITLE "Песня о нейтральной полосе"
    PERFORMER "В. Высоцкий"
    FLAGS DCP
    INDEX 01 18:28:05
  TRACK 10 AUDIO
    TITLE "Все ушли на фронт"
    PERFORMER "В. Высоцкий"
    FLAGS DCP
    INDEX 01 20:35:71
  TRACK 11 AUDIO
    TITLE "Штрафные батальоны"
    PERFORMER "В. Высоцкий"
    FLAGS DCP
    INDEX 01 22:52:55
  TRACK 12 AUDIO
    TITLE "`Сыт я по горло, до подбородка...`"
    PERFORMER "В. Высоцкий"
    FLAGS DCP
    INDEX 01 25:40:30
  TRACK 13 AUDIO
    TITLE "Спасите наши души"
    PERFORMER "В. Высоцкий"
    FLAGS DCP
    INDEX 01 26:34:56
  TRACK 14 AUDIO
    TITLE "Банька по-черному"
    PERFORMER "В. Высоцкий"
    FLAGS DCP
    INDEX 01 31:06:12
  TRACK 15 AUDIO
    TITLE "Посещение Музы, или Песенка плагиатора"
    PERFORMER "В. Высоцкий"
    FLAGS DCP
    INDEX 01 34:07:67
  TRACK 16 AUDIO
    TITLE "Гололед"
    PERFORMER "В. Высоцкий"
    FLAGS DCP
    INDEX 01 35:57:11
  TRACK 17 AUDIO
    TITLE "Песенка о слухах"
    PERFORMER "В. Высоцкий"
    FLAGS DCP
    INDEX 00 37:20:46
    INDEX 01 37:21:34
  TRACK 18 AUDIO
    TITLE "Песенка автомобилиста"
    PERFORMER "В. Высоцкий"
    FLAGS DCP
    INDEX 01 40:12:54
  TRACK 19 AUDIO
    TITLE "Тот, который не стрелял"
    PERFORMER "В. Высоцкий"
    FLAGS DCP
    INDEX 01 43:53:29
  TRACK 20 AUDIO
    TITLE "Песенка ни про что, или Что случилось в Африке"
    PERFORMER "В. Высоцкий"
    FLAGS DCP
    INDEX 01 45:57:28
  TRACK 21 AUDIO
    TITLE "Про любовь в каменном веке"
    PERFORMER "В. Высоцкий"
    FLAGS DCP
    INDEX 01 47:27:13
  TRACK 22 AUDIO
    TITLE "Москва - Одесса"
    PERFORMER "В. Высоцкий"
    FLAGS DCP
    INDEX 01 48:48:63

Диск 6 Оригинал второй. Часть 3.

Лог создания рипа

Код:
Отчёт EAC об извлечении, выполненном 5. октября 2007, 11:52 для диска:
В. Высоцкий / Архив Высоцкого. Записи Константина Мустафиди. Оригинал второй. Часть 3
Дисковод: ASUS    DRW-1814BL   Adapter: 1  ID: 0
Режим чтения: Достоверный (C2: нет, Точный поток: да, Отключение кэша: да)
Коррекция смещения при чтении: 6
Способность читать области Lead-in и Lead-out : Нет
Выходной формат: Внутренние WAV-операции
                     44.100 Гц; 16 бит; стерео
Другие параметры:
    Заполнение пропущенных сэмплов тишиной : Да
    Удаление блоков с тишиной в начале и конце : Нет
    Установленный внешний ASPI-интерфейс
Характеристики диапазона извлечения и сообщения об ошибках
Выбранный диапазон
     Имя файла E:\3_2\7\В. Высоцкий - Архив Высоцкого. Записи Константина Мустафиди. Оригинал второй. Часть 3.wav
     Пиковый уровень 94.4 %
     Качество диапазона 100.0 %
     CRC 43B0024D
     Копирование... OK
Ошибок не произошло
Конец отчёта

Индексная карта (non-compilant .cue)

Код:
REM DATE 1972
REM DISCID 160DD715
REM COMMENT "ExactAudioCopy v0.95b4"
PERFORMER "В. Высоцкий"
TITLE "Архив Высоцкого. Записи Константина Мустафиди. Оригинал второй. Часть 3"
FILE "В. Высоцкий - Архив Высоцкого. Записи Константина Мустафиди. Оригинал второй. Часть 3.wav" WAVE
  TRACK 01 AUDIO
    TITLE "Тот, который не стрелял"
    PERFORMER "В. Высоцкий"
    FLAGS DCP
    INDEX 01 00:00:00
  TRACK 02 AUDIO
    TITLE "Чужая колея"
    PERFORMER "В. Высоцкий"
    FLAGS DCP
    INDEX 01 02:41:60
  TRACK 03 AUDIO
    TITLE "Мишка Шифман"
    PERFORMER "В. Высоцкий"
    FLAGS DCP
    INDEX 01 06:01:31
  TRACK 04 AUDIO
    TITLE "Затяжной прыжок"
    PERFORMER "В. Высоцкий"
    FLAGS DCP
    INDEX 01 08:58:10
  TRACK 05 AUDIO
    TITLE "Песня о вещей Кассандре"
    PERFORMER "В. Высоцкий"
    FLAGS DCP
    INDEX 01 13:40:38
  TRACK 06 AUDIO
    TITLE "Про дикого вепря"
    PERFORMER "В. Высоцкий"
    FLAGS DCP
    INDEX 01 16:08:68
  TRACK 07 AUDIO
    TITLE "В созвездии Тау Кита"
    PERFORMER "В. Высоцкий"
    FLAGS DCP
    INDEX 01 18:43:35
  TRACK 08 AUDIO
    TITLE "Песня космических негодяев"
    PERFORMER "В. Высоцкий"
    FLAGS DCP
    INDEX 01 22:21:10
  TRACK 09 AUDIO
    TITLE "Про несчастных лесных жителей"
    PERFORMER "В. Высоцкий"
    FLAGS DCP
    INDEX 01 24:32:49
  TRACK 10 AUDIO
    TITLE "Песня-сказка о нечисти"
    PERFORMER "В. Высоцкий"
    FLAGS DCP
    INDEX 01 28:03:38
  TRACK 11 AUDIO
    TITLE "Лукоморья больше нет"
    PERFORMER "В. Высоцкий"
    FLAGS DCP
    INDEX 01 30:50:11
  TRACK 12 AUDIO
    TITLE "О вещем Олеге"
    PERFORMER "В. Высоцкий"
    FLAGS DCP
    INDEX 01 35:18:64
  TRACK 13 AUDIO
    TITLE "Про джинна"
    PERFORMER "В. Высоцкий"
    FLAGS DCP
    INDEX 01 37:46:08
  TRACK 14 AUDIO
    TITLE "`От скушных шабашей...`"
    PERFORMER "В. Высоцкий"
    FLAGS DCP
    INDEX 01 40:53:24
  TRACK 15 AUDIO
    TITLE "Про йогов"
    PERFORMER "В. Высоцкий"
    FLAGS DCP
    INDEX 01 43:28:27
  TRACK 16 AUDIO
    TITLE "Песенка о переселении душ"
    PERFORMER "В. Высоцкий"
    FLAGS DCP
    INDEX 01 45:31:26
  TRACK 17 AUDIO
    TITLE "Про прыгуна в длину"
    PERFORMER "В. Высоцкий"
    FLAGS DCP
    INDEX 01 47:39:35
  TRACK 18 AUDIO
    TITLE "Про прыгуна в высоту"
    PERFORMER "В. Высоцкий"
    FLAGS DCP
    INDEX 01 49:26:13
  TRACK 19 AUDIO
    TITLE "Марафон"
    PERFORMER "В. Высоцкий"
    FLAGS DCP
    INDEX 01 52:38:62
  TRACK 20 AUDIO
    TITLE "Вратарь"
    PERFORMER "В. Высоцкий"
    FLAGS DCP
    INDEX 01 54:11:13
  TRACK 21 AUDIO
    TITLE "О сентиментальном боксере"
    PERFORMER "В. Высоцкий"
    FLAGS DCP
    INDEX 01 57:59:70

_________________
Разница между теорией и практикой в том, что теоретически разницы между теорией и практикой нет, а на практике она есть.
[Профиль] [ЛС]

Офлайн

sergej644

Стаж:
4 года 2 месяца
Сообщений:
657

Диск 7 Оригинал третий..

Лог создания рипа

Код:
Отчёт EAC об извлечении, выполненном 5. октября 2007, 11:37 для диска:
В. Высоцкий / Архив Высоцкого. Записи Константина Мустафиди. Оригинал третий.
Дисковод: ASUS    DRW-1814BL   Adapter: 1  ID: 0
Режим чтения: Достоверный (C2: нет, Точный поток: да, Отключение кэша: да)
Коррекция смещения при чтении: 6
Способность читать области Lead-in и Lead-out : Нет
Выходной формат: Внутренние WAV-операции
                     44.100 Гц; 16 бит; стерео
Другие параметры:
    Заполнение пропущенных сэмплов тишиной : Да
    Удаление блоков с тишиной в начале и конце : Нет
    Установленный внешний ASPI-интерфейс
Характеристики диапазона извлечения и сообщения об ошибках
Выбранный диапазон
     Имя файла E:\3_2\7\В. Высоцкий - Архив Высоцкого. Записи Константина Мустафиди. Оригинал третий..wav
     Пиковый уровень 89.1 %
     Качество диапазона 100.0 %
     CRC E64E9B78
     Копирование... OK
Ошибок не произошло
Конец отчёта

Индексная карта (non-compilant .cue)

Код:
REM DATE 1973
REM DISCID BB0B630C
REM COMMENT "ExactAudioCopy v0.95b4"
PERFORMER "В. Высоцкий"
TITLE "Архив Высоцкого. Записи Константина Мустафиди. Оригинал третий."
FILE "В. Высоцкий - Архив Высоцкого. Записи Константина Мустафиди. Оригинал третий..wav" WAVE
  TRACK 01 AUDIO
    TITLE "Баллада о маленьком человеке"
    PERFORMER "В. Высоцкий"
    FLAGS DCP
    INDEX 01 00:00:00
  TRACK 02 AUDIO
    TITLE "Марш футбольной команды `Медведей`"
    PERFORMER "В. Высоцкий"
    FLAGS DCP
    INDEX 01 06:37:28
  TRACK 03 AUDIO
    TITLE "Песня Билла Сиггера"
    PERFORMER "В. Высоцкий"
    FLAGS DCP
    INDEX 01 09:54:17
  TRACK 04 AUDIO
    TITLE "Мистерия хиппи"
    PERFORMER "В. Высоцкий"
    FLAGS DCP
    INDEX 01 12:18:47
  TRACK 05 AUDIO
    TITLE "Прерванный полёт"
    PERFORMER "В. Высоцкий"
    FLAGS DCP
    INDEX 01 16:15:38
  TRACK 06 AUDIO
    TITLE "Баллада об оружии"
    PERFORMER "В. Высоцкий"
    FLAGS DCP
    INDEX 01 20:23:27
  TRACK 07 AUDIO
    TITLE "Баллада о манекенах"
    PERFORMER "В. Высоцкий"
    FLAGS DCP
    INDEX 01 26:32:66
  TRACK 08 AUDIO
    TITLE "Баллада о Кокильоне"
    PERFORMER "В. Высоцкий"
    FLAGS DCP
    INDEX 01 32:40:08
  TRACK 09 AUDIO
    TITLE "`Мы все живём как будто, но...`"
    PERFORMER "В. Высоцкий"
    FLAGS DCP
    INDEX 01 36:03:15
  TRACK 10 AUDIO
    TITLE "`В день, когда мы, поддержкой земли заручась...`"
    PERFORMER "В. Высоцкий"
    FLAGS DCP
    INDEX 01 38:39:14
  TRACK 11 AUDIO
    TITLE "`Всему на свете выходят сроки...`"
    PERFORMER "В. Высоцкий"
    FLAGS DCP
    INDEX 01 42:37:73
  TRACK 12 AUDIO
    TITLE "`Был развесёлый розовый восход...`"
    PERFORMER "В. Высоцкий"
    FLAGS DCP
    INDEX 01 46:03:51

Диск 8 Оригинал четвертый. Часть 1.

Лог создания рипа

Код:
Отчёт EAC об извлечении, выполненном 5. октября 2007, 11:26 для диска:
В. Высоцкий / Архив Высоцкого. Записи Константина Мустафиди. Оригинал четвертый. Часть 1
Дисковод: ASUS    DRW-1814BL   Adapter: 1  ID: 0
Режим чтения: Достоверный (C2: нет, Точный поток: да, Отключение кэша: да)
Коррекция смещения при чтении: 6
Способность читать области Lead-in и Lead-out : Нет
Выходной формат: Внутренние WAV-операции
                     44.100 Гц; 16 бит; стерео
Другие параметры:
    Заполнение пропущенных сэмплов тишиной : Да
    Удаление блоков с тишиной в начале и конце : Нет
    Установленный внешний ASPI-интерфейс
Характеристики диапазона извлечения и сообщения об ошибках
Выбранный диапазон
     Имя файла E:\3_2\7\В. Высоцкий - Архив Высоцкого. Записи Константина Мустафиди. Оригинал четвертый. Часть 1.wav
     Пиковый уровень 90.7 %
     Качество диапазона 100.0 %
     CRC 54D1B3BE
     Копирование... OK
Ошибок не произошло
Конец отчёта

Индексная карта (non-compilant .cue)

Код:
REM DATE 1973
REM DISCID F1099111
REM COMMENT "ExactAudioCopy v0.95b4"
PERFORMER "В. Высоцкий"
TITLE "Архив Высоцкого. Записи Константина Мустафиди. Оригинал четвертый. Часть 1"
FILE "В. Высоцкий - Архив Высоцкого. Записи Константина Мустафиди. Оригинал четвертый. Часть 1.wav" WAVE
  TRACK 01 AUDIO
    TITLE "Письмо на выставку"
    PERFORMER "В. Высоцкий"
    FLAGS DCP
    INDEX 01 00:00:00
  TRACK 02 AUDIO
    TITLE "Письмо в деревню"
    PERFORMER "В. Высоцкий"
    FLAGS DCP
    INDEX 01 02:22:61
  TRACK 03 AUDIO
    TITLE "Бал- маскарад"
    PERFORMER "В. Высоцкий"
    FLAGS DCP
    INDEX 01 04:44:68
  TRACK 04 AUDIO
    TITLE "Песня завистника"
    PERFORMER "В. Высоцкий"
    FLAGS DCP
    INDEX 01 06:15:50
  TRACK 05 AUDIO
    TITLE "Поездка в город"
    PERFORMER "В. Высоцкий"
    FLAGS DCP
    INDEX 01 07:55:69
  TRACK 06 AUDIO
    TITLE "Песня студентов- археологов. Марш физиков"
    PERFORMER "В. Высоцкий"
    FLAGS DCP
    INDEX 01 10:24:59
  TRACK 07 AUDIO
    TITLE "Весёлая покойницкая"
    PERFORMER "В. Высоцкий"
    FLAGS DCP
    INDEX 01 14:30:44
  TRACK 08 AUDIO
    TITLE "День рождения лейтенанта милиции в ресторане `Берлин`"
    PERFORMER "В. Высоцкий"
    FLAGS DCP
    INDEX 01 17:23:51
  TRACK 09 AUDIO
    TITLE "Большой Каретный"
    PERFORMER "В. Высоцкий"
    FLAGS DCP
    INDEX 01 19:17:38
  TRACK 10 AUDIO
    TITLE "Серебряные струны"
    PERFORMER "В. Высоцкий"
    FLAGS DCP
    INDEX 01 20:32:25
  TRACK 11 AUDIO
    TITLE "`Я любил и женщин и проказы...`"
    PERFORMER "В. Высоцкий"
    FLAGS DCP
    INDEX 01 22:53:46
  TRACK 12 AUDIO
    TITLE "Городской романс"
    PERFORMER "В. Высоцкий"
    FLAGS DCP
    INDEX 01 24:36:72
  TRACK 13 AUDIO
    TITLE "Наводчица"
    PERFORMER "В. Высоцкий"
    FLAGS DCP
    INDEX 01 27:03:61
  TRACK 14 AUDIO
    TITLE "У тебя глаза - как нож"
    PERFORMER "В. Высоцкий"
    FLAGS DCP
    INDEX 01 28:43:70
  TRACK 15 AUDIO
    TITLE "О нашей встрече"
    PERFORMER "В. Высоцкий"
    FLAGS DCP
    INDEX 01 30:07:23
  TRACK 16 AUDIO
    TITLE "`За меня невеста отрыдает честно...`"
    PERFORMER "В. Высоцкий"
    FLAGS DCP
    INDEX 01 32:59:18
  TRACK 17 AUDIO
    TITLE "Затяжной прыжок"
    PERFORMER "В. Высоцкий"
    FLAGS DCP
    INDEX 01 35:32:49

Диск 9 Оригинал четвертый. Часть 2.

Лог создания рипа

Код:
Отчёт EAC об извлечении, выполненном 5. октября 2007, 11:03 для диска:
В. Высоцкий / Архив Высоцкого. Записи Константина Мустафиди. Оригинал четвертый. Часть 2
Дисковод: ASUS    DRW-1814BL   Adapter: 1  ID: 0
Режим чтения: Достоверный (C2: нет, Точный поток: да, Отключение кэша: да)
Коррекция смещения при чтении: 6
Способность читать области Lead-in и Lead-out : Нет
Выходной формат: Внутренние WAV-операции
                     44.100 Гц; 16 бит; стерео
Другие параметры:
    Заполнение пропущенных сэмплов тишиной : Да
    Удаление блоков с тишиной в начале и конце : Нет
    Установленный внешний ASPI-интерфейс
Характеристики диапазона извлечения и сообщения об ошибках
Выбранный диапазон
     Имя файла E:\3_2\7\В. Высоцкий - Архив Высоцкого. Записи Константина Мустафиди. Оригинал четвертый. Часть 2.wav
     Пиковый уровень 91.9 %
     Качество диапазона 100.0 %
     CRC C262C339
     Копирование... OK
Ошибок не произошло
Конец отчёта

Индексная карта (non-compilant .cue)

Код:
REM DATE 1973
REM DISCID 0F0A1F14
REM COMMENT "ExactAudioCopy v0.95b4"
PERFORMER "В. Высоцкий"
TITLE "Архив Высоцкого. Записи Константина Мустафиди. Оригинал четвертый. Часть 2"
FILE "В. Высоцкий - Архив Высоцкого. Записи Константина Мустафиди. Оригинал четвертый. Часть 2.wav" WAVE
  TRACK 01 AUDIO
    TITLE "Я был слесарь шестого разряда"
    PERFORMER "В. Высоцкий"
    FLAGS DCP
    INDEX 01 00:00:00
  TRACK 02 AUDIO
    TITLE "`Передо мной любой факир - ну просто карлик...`"
    PERFORMER "В. Высоцкий"
    FLAGS DCP
    INDEX 01 01:27:28
  TRACK 03 AUDIO
    TITLE "`Говорят, арестован...`"
    PERFORMER "В. Высоцкий"
    FLAGS DCP
    INDEX 01 02:40:63
  TRACK 04 AUDIO
    TITLE "`Вот раньше жизнь!..`"
    PERFORMER "В. Высоцкий"
    FLAGS DCP
    INDEX 01 03:41:51
  TRACK 05 AUDIO
    TITLE "`Что же ты, зараза, бровь себе подбрила...`"
    PERFORMER "В. Высоцкий"
    FLAGS DCP
    INDEX 01 05:25:50
  TRACK 06 AUDIO
    TITLE "Про Сережку Фомина"
    PERFORMER "В. Высоцкий"
    FLAGS DCP
    INDEX 01 06:23:63
  TRACK 07 AUDIO
    TITLE "Антисемиты"
    PERFORMER "В. Высоцкий"
    FLAGS DCP
    INDEX 01 08:55:09
  TRACK 08 AUDIO
    TITLE "Правда ведь, обидно"
    PERFORMER "В. Высоцкий"
    FLAGS DCP
    INDEX 01 11:06:19
  TRACK 09 AUDIO
    TITLE "`Помню, я однажды и в `очко`, и в `стос` играл...`"
    PERFORMER "В. Высоцкий"
    FLAGS DCP
    INDEX 01 11:52:15
  TRACK 10 AUDIO
    TITLE "`Нам вчера прислали...`"
    PERFORMER "В. Высоцкий"
    FLAGS DCP
    INDEX 01 13:54:17
  TRACK 11 AUDIO
    TITLE "`Катерина, Катя, Катерина...`"
    PERFORMER "В. Высоцкий"
    FLAGS DCP
    INDEX 01 15:08:23
  TRACK 12 AUDIO
    TITLE "Я в деле"
    PERFORMER "В. Высоцкий"
    FLAGS DCP
    INDEX 01 16:14:16
  TRACK 13 AUDIO
    TITLE "Весна еще в начале"
    PERFORMER "В. Высоцкий"
    FLAGS DCP
    INDEX 01 17:28:65
  TRACK 14 AUDIO
    TITLE "`Все позади: и КПЗ, и суд...` (фрагмент)"
    PERFORMER "В. Высоцкий"
    FLAGS DCP
    INDEX 01 19:13:37
  TRACK 15 AUDIO
    TITLE "Памятник"
    PERFORMER "В. Высоцкий"
    FLAGS DCP
    INDEX 01 21:10:55
  TRACK 16 AUDIO
    TITLE "Диалог у телевизора"
    PERFORMER "В. Высоцкий"
    FLAGS DCP
    INDEX 01 25:29:54
  TRACK 17 AUDIO
    TITLE "`Штормит весь вечер, и пока...`"
    PERFORMER "В. Высоцкий"
    FLAGS DCP
    INDEX 01 29:42:68
  TRACK 18 AUDIO
    TITLE "Смотрины"
    PERFORMER "В. Высоцкий"
    FLAGS DCP
    INDEX 01 32:47:59
  TRACK 19 AUDIO
    TITLE "Песенка про Козла отпущения"
    PERFORMER "В. Высоцкий"
    FLAGS DCP
    INDEX 01 37:10:36
  TRACK 20 AUDIO
    TITLE "`Все позади: и КПЗ, и суд...` (монтаж)"
    PERFORMER "В. Высоцкий"
    FLAGS DCP
    INDEX 00 41:02:67
    INDEX 01 41:12:20

Диск 10 Оригинал четвертый. Часть 3.

Лог создания рипа

Код:
Отчёт EAC об извлечении, выполненном 5. октября 2007, 10:48 для диска:
В. Высоцкий / Архив Высоцкого. Записи Константина Мустафиди. Оригинал четвертый. Часть 3
Дисковод: ASUS    DRW-1814BL   Adapter: 1  ID: 0
Режим чтения: Достоверный (C2: нет, Точный поток: да, Отключение кэша: да)
Коррекция смещения при чтении: 6
Способность читать области Lead-in и Lead-out : Нет
Выходной формат: Внутренние WAV-операции
                     44.100 Гц; 16 бит; стерео
Другие параметры:
    Заполнение пропущенных сэмплов тишиной : Да
    Удаление блоков с тишиной в начале и конце : Нет
    Установленный внешний ASPI-интерфейс
Характеристики диапазона извлечения и сообщения об ошибках
Выбранный диапазон
     Имя файла E:\3_2\7\В. Высоцкий - Архив Высоцкого. Записи Константина Мустафиди. Оригинал четвертый. Часть 3.wav
     Пиковый уровень 89.4 %
     Качество диапазона 100.0 %
     CRC 98D6C0E6
     Копирование... OK
Ошибок не произошло
Конец отчёта

Индексная карта (non-compilant .cue)

Код:
REM DATE 1973
REM DISCID F20A3E13
REM COMMENT "ExactAudioCopy v0.95b4"
PERFORMER "В. Высоцкий"
TITLE "Архив Высоцкого. Записи Константина Мустафиди. Оригинал четвертый. Часть 3"
FILE "В. Высоцкий - Архив Высоцкого. Записи Константина Мустафиди. Оригинал четвертый. Часть 3.wav" WAVE
  TRACK 01 AUDIO
    TITLE "`Один музыкант объяснил мне пространно...`"
    PERFORMER "В. Высоцкий"
    FLAGS DCP
    INDEX 01 00:00:00
  TRACK 02 AUDIO
    TITLE "Письмо"
    PERFORMER "В. Высоцкий"
    FLAGS DCP
    INDEX 01 01:51:36
  TRACK 03 AUDIO
    TITLE "`Давно смолкли залпы орудий...`"
    PERFORMER "В. Высоцкий"
    FLAGS DCP
    INDEX 01 04:29:49
  TRACK 04 AUDIO
    TITLE "После чемпионата мира по футболу. Разговор с женой"
    PERFORMER "В. Высоцкий"
    FLAGS DCP
    INDEX 01 06:38:69
  TRACK 05 AUDIO
    TITLE "`В куски разлетелася корона...`"
    PERFORMER "В. Высоцкий"
    FLAGS DCP
    INDEX 01 08:02:48
  TRACK 06 AUDIO
    TITLE "Песня Бродского"
    PERFORMER "В. Высоцкий"
    FLAGS DCP
    INDEX 01 09:17:40
  TRACK 07 AUDIO
    TITLE "`Сколько лет, сколько лет...`"
    PERFORMER "В. Высоцкий"
    FLAGS DCP
    INDEX 01 11:39:00
  TRACK 08 AUDIO
    TITLE "`Я теперь в дураках - не уйти мне с земли...`"
    PERFORMER "В. Высоцкий"
    FLAGS DCP
    INDEX 01 12:19:16
  TRACK 09 AUDIO
    TITLE "Свой остров"
    PERFORMER "В. Высоцкий"
    FLAGS DCP
    INDEX 01 15:35:06
  TRACK 10 AUDIO
    TITLE "`Вот и разошлись пути-дороги вдруг...`"
    PERFORMER "В. Высоцкий"
    FLAGS DCP
    INDEX 01 17:36:04
  TRACK 11 AUDIO
    TITLE "`Долго же шел ты в конверте, листок...`"
    PERFORMER "В. Высоцкий"
    FLAGS DCP
    INDEX 01 19:22:12
  TRACK 12 AUDIO
    TITLE "`Сколько чудес за туманами кроется...`"
    PERFORMER "В. Высоцкий"
    FLAGS DCP
    INDEX 01 22:56:48
  TRACK 13 AUDIO
    TITLE "`Если б водка была на одного...`"
    PERFORMER "В. Высоцкий"
    FLAGS DCP
    INDEX 01 25:09:69
  TRACK 14 AUDIO
    TITLE "`Так оно и есть...`"
    PERFORMER "В. Высоцкий"
    FLAGS DCP
    INDEX 01 27:14:53
  TRACK 15 AUDIO
    TITLE "`У домашних и хищных зверей...`"
    PERFORMER "В. Высоцкий"
    FLAGS DCP
    INDEX 01 29:46:61
  TRACK 16 AUDIO
    TITLE "Баллада о бане"
    PERFORMER "В. Высоцкий"
    FLAGS DCP
    INDEX 01 31:00:00
  TRACK 17 AUDIO
    TITLE "Баллада о короткой шее"
    PERFORMER "В. Высоцкий"
    FLAGS DCP
    INDEX 01 33:47:67
  TRACK 18 AUDIO
    TITLE "`Здесь лапы у елей дрожат на весу...`"
    PERFORMER "В. Высоцкий"
    FLAGS DCP
    INDEX 01 37:19:61
  TRACK 19 AUDIO
    TITLE "`Она была чиста, как снег зимой...`"
    PERFORMER "В. Высоцкий"
    FLAGS DCP
    INDEX 01 40:52:28

Диск 11 Оригинал пятый. Часть 1.

Лог создания рипа

Код:
Отчёт EAC об извлечении, выполненном 5. октября 2007, 10:21 для диска:
В. Высоцкий / Архив Высоцкого. Записи Константина Мустафиди. Оригинал пятый. Часть 1
Дисковод: ASUS    DRW-1814BL   Adapter: 1  ID: 0
Режим чтения: Достоверный (C2: нет, Точный поток: да, Отключение кэша: да)
Коррекция смещения при чтении: 6
Способность читать области Lead-in и Lead-out : Нет
Выходной формат: Внутренние WAV-операции
                     44.100 Гц; 16 бит; стерео
Другие параметры:
    Заполнение пропущенных сэмплов тишиной : Да
    Удаление блоков с тишиной в начале и конце : Нет
    Установленный внешний ASPI-интерфейс
Характеристики диапазона извлечения и сообщения об ошибках
Выбранный диапазон
     Имя файла E:\3_2\7\В. Высоцкий - Архив Высоцкого. Записи Константина Мустафиди. Оригинал пятый. Часть 1.wav
     Пиковый уровень 91.8 %
     Качество диапазона 100.0 %
     CRC 0E5015F4
     Копирование... OK
Ошибок не произошло
Конец отчёта

Индексная карта (non-compilant .cue)

Код:
REM DATE 1973
REM DISCID 5A0BF018
REM COMMENT "ExactAudioCopy v0.95b4"
PERFORMER "В. Высоцкий"
TITLE "Архив Высоцкого. Записи Константина Мустафиди. Оригинал пятый. Часть 1"
FILE "В. Высоцкий - Архив Высоцкого. Записи Константина Мустафиди. Оригинал пятый. Часть 1.wav" WAVE
  TRACK 01 AUDIO
    TITLE "`То ли в избу и запеть...`"
    PERFORMER "В. Высоцкий"
    FLAGS DCP
    INDEX 01 00:00:00
  TRACK 02 AUDIO
    TITLE "Песенка про метателя молота"
    PERFORMER "В. Высоцкий"
    FLAGS DCP
    INDEX 01 03:31:33
  TRACK 03 AUDIO
    TITLE "Песня командировочного"
    PERFORMER "В. Высоцкий"
    FLAGS DCP
    INDEX 01 05:02:32
  TRACK 04 AUDIO
    TITLE "Песня про стукача"
    PERFORMER "В. Высоцкий"
    FLAGS DCP
    INDEX 01 08:15:68
  TRACK 05 AUDIO
    TITLE "`Я несла свою Беду...`"
    PERFORMER "В. Высоцкий"
    FLAGS DCP
    INDEX 01 10:06:30
  TRACK 06 AUDIO
    TITLE "`Пока вы здесь в ванночке с кафелем...`"
    PERFORMER "В. Высоцкий"
    FLAGS DCP
    INDEX 01 12:52:48
  TRACK 07 AUDIO
    TITLE "`Есть на Земле предостаточно рас...`"
    PERFORMER "В. Высоцкий"
    FLAGS DCP
    INDEX 01 14:12:16
  TRACK 08 AUDIO
    TITLE "`И вкусы, и запросы мои - странны...`"
    PERFORMER "В. Высоцкий"
    FLAGS DCP
    INDEX 01 15:49:36
  TRACK 09 AUDIO
    TITLE "`Наши предки - люди темные и грубые...`"
    PERFORMER "В. Высоцкий"
    FLAGS DCP
    INDEX 01 18:27:56
  TRACK 10 AUDIO
    TITLE "Песня про врачей"
    PERFORMER "В. Высоцкий"
    FLAGS DCP
    INDEX 01 20:09:03
  TRACK 11 AUDIO
    TITLE "Рядовой Борисов!"
    PERFORMER "В. Высоцкий"
    FLAGS DCP
    INDEX 01 21:02:09
  TRACK 12 AUDIO
    TITLE "Ребята, напишите мне письмо"
    PERFORMER "В. Высоцкий"
    FLAGS DCP
    INDEX 01 24:02:54
  TRACK 13 AUDIO
    TITLE "`В этом доме большом раньше пьянка была...`"
    PERFORMER "В. Высоцкий"
    FLAGS DCP
    INDEX 01 25:53:37
  TRACK 14 AUDIO
    TITLE "`Сколько я ни старался...`"
    PERFORMER "В. Высоцкий"
    FLAGS DCP
    INDEX 01 26:57:50
  TRACK 15 AUDIO
    TITLE "`Мне ребята сказали про такую наколку!..`"
    PERFORMER "В. Высоцкий"
    FLAGS DCP
    INDEX 01 29:17:43
  TRACK 16 AUDIO
    TITLE "Татуировка"
    PERFORMER "В. Высоцкий"
    FLAGS DCP
    INDEX 01 31:33:34
  TRACK 17 AUDIO
    TITLE "`Вот - главный вход, но только вот...`"
    PERFORMER "В. Высоцкий"
    FLAGS DCP
    INDEX 01 33:32:27
  TRACK 18 AUDIO
    TITLE "Я был душой дурного общества"
    PERFORMER "В. Высоцкий"
    FLAGS DCP
    INDEX 01 36:25:12
  TRACK 19 AUDIO
    TITLE "Ленинградская блокада"
    PERFORMER "В. Высоцкий"
    FLAGS DCP
    INDEX 01 38:35:31
  TRACK 20 AUDIO
    TITLE "Зэка Васильев и Петров зэка"
    PERFORMER "В. Высоцкий"
    FLAGS DCP
    INDEX 01 39:43:50
  TRACK 21 AUDIO
    TITLE "Позабыв про дела и тревоги"
    PERFORMER "В. Высоцкий"
    FLAGS DCP
    INDEX 01 42:15:15
  TRACK 22 AUDIO
    TITLE "Не каждый. (Песня про стукача)"
    PERFORMER "В. Высоцкий"
    FLAGS DCP
    INDEX 01 43:46:00
  TRACK 23 AUDIO
    TITLE "`Мы вместе грабили одну и ту же хату...` (фрагмент)"
    PERFORMER "В. Высоцкий"
    FLAGS DCP
    INDEX 01 46:04:49
  TRACK 24 AUDIO
    TITLE "`Мы вместе грабили одну и ту же хату...` (монтаж)"
    PERFORMER "В. Высоцкий"
    FLAGS DCP
    INDEX 00 48:28:73
    INDEX 01 48:30:72

Диск 12 Оригинал пятый. Часть 2.

Лог создания рипа

Код:
Отчёт EAC об извлечении, выполненном 5. октября 2007, 10:08 для диска:
В. Высоцкий / Архив Высоцкого. Записи Константина Мустафиди. Оригинал пятый. Часть 2
Дисковод: ASUS    DRW-1814BL   Adapter: 1  ID: 0
Режим чтения: Достоверный (C2: нет, Точный поток: да, Отключение кэша: да)
Коррекция смещения при чтении: 6
Способность читать области Lead-in и Lead-out : Нет
Выходной формат: Внутренние WAV-операции
                     44.100 Гц; 16 бит; стерео
Другие параметры:
    Заполнение пропущенных сэмплов тишиной : Да
    Удаление блоков с тишиной в начале и конце : Нет
    Установленный внешний ASPI-интерфейс
Характеристики диапазона извлечения и сообщения об ошибках
Выбранный диапазон
     Имя файла E:\3_2\7\В. Высоцкий - Архив Высоцкого. Записи Константина Мустафиди. Оригинал пятый. Часть 2.wav
     Пиковый уровень 89.7 %
     Качество диапазона 100.0 %
     CRC BD0197EF
     Копирование... OK
Ошибок не произошло
Конец отчёта

Индексная карта (non-compilant .cue)

Код:
REM DATE 1973
REM DISCID 4F0C111A
REM COMMENT "ExactAudioCopy v0.95b4"
PERFORMER "В. Высоцкий"
TITLE "Архив Высоцкого. Записи Константина Мустафиди. Оригинал пятый. Часть 2"
FILE "В. Высоцкий - Архив Высоцкого. Записи Константина Мустафиди. Оригинал пятый. Часть 2.wav" WAVE
  TRACK 01 AUDIO
    TITLE "`Ну о чем с тобою говорить!..`"
    PERFORMER "В. Высоцкий"
    FLAGS DCP
    INDEX 01 00:00:00
  TRACK 02 AUDIO
    TITLE "`Эй, шофер, вези - Бутырский хутор...`"
    PERFORMER "В. Высоцкий"
    FLAGS DCP
    INDEX 01 01:13:69
  TRACK 03 AUDIO
    TITLE "`До нашей эры соблюдалось чувство меры...`"
    PERFORMER "В. Высоцкий"
    FLAGS DCP
    INDEX 01 02:30:70
  TRACK 04 AUDIO
    TITLE "`То была не интрижка...`"
    PERFORMER "В. Высоцкий"
    FLAGS DCP
    INDEX 01 04:01:24
  TRACK 05 AUDIO
    TITLE "Зарисовка о Ленинграде"
    PERFORMER "В. Высоцкий"
    FLAGS DCP
    INDEX 01 05:24:20
  TRACK 06 AUDIO
    TITLE "Город уши заткнул"
    PERFORMER "В. Высоцкий"
    FLAGS DCP
    INDEX 01 06:10:17
  TRACK 07 AUDIO
    TITLE "Бодайбо"
    PERFORMER "В. Высоцкий"
    FLAGS DCP
    INDEX 01 08:21:47
  TRACK 08 AUDIO
    TITLE "Сивка-Бурка"
    PERFORMER "В. Высоцкий"
    FLAGS DCP
    INDEX 01 09:52:09
  TRACK 09 AUDIO
    TITLE "`У нас вчера с позавчера...`"
    PERFORMER "В. Высоцкий"
    FLAGS DCP
    INDEX 01 11:52:04
  TRACK 10 AUDIO
    TITLE "`Нат Пинкертон - вот с детства мой кумир...`"
    PERFORMER "В. Высоцкий"
    FLAGS DCP
    INDEX 01 13:29:70
  TRACK 11 AUDIO
    TITLE "Песня про первые ряды"
    PERFORMER "В. Высоцкий"
    FLAGS DCP
    INDEX 01 16:28:46
  TRACK 12 AUDIO
    TITLE "`Бросьте скуку, как корку арбузную...`"
    PERFORMER "В. Высоцкий"
    FLAGS DCP
    INDEX 01 19:41:34
  TRACK 13 AUDIO
    TITLE "`Я теперь в дураках - не уйти мне с земли...`"
    PERFORMER "В. Высоцкий"
    FLAGS DCP
    INDEX 01 20:48:72
  TRACK 14 AUDIO
    TITLE "Лежит камень в степи"
    PERFORMER "В. Высоцкий"
    FLAGS DCP
    INDEX 01 25:01:16
  TRACK 15 AUDIO
    TITLE "`Жил-был добрый дурачина-простофиля...`"
    PERFORMER "В. Высоцкий"
    FLAGS DCP
    INDEX 01 26:06:52
  TRACK 16 AUDIO
    TITLE "`Не покупают никакой еды...`"
    PERFORMER "В. Высоцкий"
    FLAGS DCP
    INDEX 01 29:23:72
  TRACK 17 AUDIO
    TITLE "Песня о Волге"
    PERFORMER "В. Высоцкий"
    FLAGS DCP
    INDEX 01 31:15:08
  TRACK 18 AUDIO
    TITLE "Рецидивист"
    PERFORMER "В. Высоцкий"
    FLAGS DCP
    INDEX 01 35:01:46
  TRACK 19 AUDIO
    TITLE "Песня про Уголовный кодекс"
    PERFORMER "В. Высоцкий"
    FLAGS DCP
    INDEX 01 36:43:53
  TRACK 20 AUDIO
    TITLE "Попутчик"
    PERFORMER "В. Высоцкий"
    FLAGS DCP
    INDEX 01 38:31:65
  TRACK 21 AUDIO
    TITLE "Песня Рябого"
    PERFORMER "В. Высоцкий"
    FLAGS DCP
    INDEX 01 41:02:34
  TRACK 22 AUDIO
    TITLE "`Подумаешь - с женой не очень ладно...`"
    PERFORMER "В. Высоцкий"
    FLAGS DCP
    INDEX 01 42:41:05
  TRACK 23 AUDIO
    TITLE "`Не писать мне повестей, романов...`"
    PERFORMER "В. Высоцкий"
    FLAGS DCP
    INDEX 01 43:53:54
  TRACK 24 AUDIO
    TITLE "Счетчик щелкает"
    PERFORMER "В. Высоцкий"
    FLAGS DCP
    INDEX 01 45:20:30
  TRACK 25 AUDIO
    TITLE "Песня о конькобежце на короткие дистанции, которого заставили бежать на длинную"
    PERFORMER "В. Высоцкий"
    FLAGS DCP
    INDEX 01 46:59:24
  TRACK 26 AUDIO
    TITLE "`Она на двор - он со двора...`"
    PERFORMER "В. Высоцкий"
    FLAGS DCP
    INDEX 01 49:34:01

Диск 13 Оригинал шестой.

Лог создания рипа

Код:
Отчёт EAC об извлечении, выполненном 5. октября 2007, 9:13 для диска:
В. Высоцкий / Архив Высоцкого. Записи Константина Мустафиди. Оригинал шестой
Дисковод: ASUS    DRW-1814BL   Adapter: 1  ID: 0
Режим чтения: Достоверный (C2: нет, Точный поток: да, Отключение кэша: да)
Коррекция смещения при чтении: 6
Способность читать области Lead-in и Lead-out : Нет
Выходной формат: Внутренние WAV-операции
                     44.100 Гц; 16 бит; стерео
Другие параметры:
    Заполнение пропущенных сэмплов тишиной : Да
    Удаление блоков с тишиной в начале и конце : Нет
    Установленный внешний ASPI-интерфейс
Характеристики диапазона извлечения и сообщения об ошибках
Выбранный диапазон
     Имя файла E:\3_2\В. Высоцкий - Архив Высоцкого. Записи Константина Мустафиди. Оригинал шестой.wav
     Пиковый уровень 88.6 %
     Качество диапазона 100.0 %
     CRC F551BC11
     Копирование... OK
Ошибок не произошло
Конец отчёта

Индексная карта (non-compilant .cue)

Код:
REM DATE 1974
REM DISCID 390E1B16
REM COMMENT "ExactAudioCopy v0.95b4"
PERFORMER "В. Высоцкий"
TITLE "Архив Высоцкого. Записи Константина Мустафиди. Оригинал шестой"
FILE "В. Высоцкий - Архив Высоцкого. Записи Константина Мустафиди. Оригинал шестой.wav" WAVE
  TRACK 01 AUDIO
    TITLE "Горизонт"
    PERFORMER "В. Высоцкий"
    FLAGS DCP
    INDEX 01 00:00:00
  TRACK 02 AUDIO
    TITLE "МАЗы"
    PERFORMER "В. Высоцкий"
    FLAGS DCP
    INDEX 01 03:24:08
  TRACK 03 AUDIO
    TITLE "Чужая колея"
    PERFORMER "В. Высоцкий"
    FLAGS DCP
    INDEX 01 06:35:28
  TRACK 04 AUDIO
    TITLE "Ой, где был я вчера"
    PERFORMER "В. Высоцкий"
    FLAGS DCP
    INDEX 01 10:09:01
  TRACK 05 AUDIO
    TITLE "Милицейский протокол"
    PERFORMER "В. Высоцкий"
    FLAGS DCP
    INDEX 01 13:00:01
  TRACK 06 AUDIO
    TITLE "Мои похорона, или Страшный сон очень смелого человека"
    PERFORMER "В. Высоцкий"
    FLAGS DCP
    INDEX 01 16:35:68
  TRACK 07 AUDIO
    TITLE "Тот, который не стрелял"
    PERFORMER "В. Высоцкий"
    FLAGS DCP
    INDEX 01 19:19:43
  TRACK 08 AUDIO
    TITLE "Жираф большой, или Семейная хроника"
    PERFORMER "В. Высоцкий"
    FLAGS DCP
    INDEX 01 22:11:24
  TRACK 09 AUDIO
    TITLE "Поездка в город"
    PERFORMER "В. Высоцкий"
    FLAGS DCP
    INDEX 01 23:51:54
  TRACK 10 AUDIO
    TITLE "Я не люблю"
    PERFORMER "В. Высоцкий"
    FLAGS DCP
    INDEX 01 26:25:53
  TRACK 11 AUDIO
    TITLE "Случай в ресторане"
    PERFORMER "В. Высоцкий"
    FLAGS DCP
    INDEX 01 28:39:28
  TRACK 12 AUDIO
    TITLE "Товарищи учёные"
    PERFORMER "В. Высоцкий"
    FLAGS DCP
    INDEX 01 30:37:27
  TRACK 13 AUDIO
    TITLE "Честь шахматной короны. Подготовка"
    PERFORMER "В. Высоцкий"
    FLAGS DCP
    INDEX 01 33:22:73
  TRACK 14 AUDIO
    TITLE "Честь шахматной короны. Игра"
    PERFORMER "В. Высоцкий"
    FLAGS DCP
    INDEX 01 36:21:18
  TRACK 15 AUDIO
    TITLE "Диалог у телевизора"
    PERFORMER "В. Высоцкий"
    FLAGS DCP
    INDEX 01 39:17:55
  TRACK 16 AUDIO
    TITLE "`Проложите, проложите...`"
    PERFORMER "В. Высоцкий"
    FLAGS DCP
    INDEX 01 42:51:47
  TRACK 17 AUDIO
    TITLE "Песня Солодова"
    PERFORMER "В. Высоцкий"
    FLAGS DCP
    INDEX 01 43:52:52
  TRACK 18 AUDIO
    TITLE "Частушки (`Гули-гули-гуленьки...`)"
    PERFORMER "В. Высоцкий"
    FLAGS DCP
    INDEX 01 46:11:44
  TRACK 19 AUDIO
    TITLE "Песня Вани у Марии"
    PERFORMER "В. Высоцкий"
    FLAGS DCP
    INDEX 01 48:08:72
  TRACK 20 AUDIO
    TITLE "Кто за чем бежит"
    PERFORMER "В. Высоцкий"
    FLAGS DCP
    INDEX 01 50:39:65
  TRACK 21 AUDIO
    TITLE "Баллада об уходе в рай"
    PERFORMER "В. Высоцкий"
    FLAGS DCP
    INDEX 01 55:03:66
  TRACK 22 AUDIO
    TITLE "`Оплавляются свечи...`"
    PERFORMER "В. Высоцкий"
    FLAGS DCP
    INDEX 01 58:14:16

Диск 14 Оригинал седьмой.

Лог создания рипа

Код:
Отчёт EAC об извлечении, выполненном 5. октября 2007, 9:31 для диска:
В. Высоцкий / Архив Высоцкого. Записи Константина Мустафиди. Оригинал седьмой
Дисковод: ASUS    DRW-1814BL   Adapter: 1  ID: 0
Режим чтения: Достоверный (C2: нет, Точный поток: да, Отключение кэша: да)
Коррекция смещения при чтении: 6
Способность читать области Lead-in и Lead-out : Нет
Выходной формат: Внутренние WAV-операции
                     44.100 Гц; 16 бит; стерео
Другие параметры:
    Заполнение пропущенных сэмплов тишиной : Да
    Удаление блоков с тишиной в начале и конце : Нет
    Установленный внешний ASPI-интерфейс
Характеристики диапазона извлечения и сообщения об ошибках
Выбранный диапазон
     Имя файла E:\3_2\7\В. Высоцкий - Архив Высоцкого. Записи Константина Мустафиди. Оригинал седьмой.wav
     Пиковый уровень 89.1 %
     Качество диапазона 100.0 %
     CRC 8CCBE4E5
     Копирование... OK
Ошибок не произошло
Конец отчёта

Индексная карта (non-compilant .cue)

Код:
REM DATE 1974
REM DISCID 120A8312
REM COMMENT "ExactAudioCopy v0.95b4"
PERFORMER "В. Высоцкий"
TITLE "Архив Высоцкого. Записи Константина Мустафиди. Оригинал седьмой"
FILE "В. Высоцкий - Архив Высоцкого. Записи Константина Мустафиди. Оригинал седьмой.wav" WAVE
  TRACK 01 AUDIO
    TITLE "Очи чёрные. Погоня"
    PERFORMER "В. Высоцкий"
    FLAGS DCP
    INDEX 01 00:00:00
  TRACK 02 AUDIO
    TITLE "Очи чёрные. Старый дом"
    PERFORMER "В. Высоцкий"
    FLAGS DCP
    INDEX 01 02:46:30
  TRACK 03 AUDIO
    TITLE "Инструкция перед поездкой за рубеж, или Полчаса в месткоме"
    PERFORMER "В. Высоцкий"
    FLAGS DCP
    INDEX 01 05:44:30
  TRACK 04 AUDIO
    TITLE "Куплеты Бенгальского (фрагмент)"
    PERFORMER "В. Высоцкий"
    FLAGS DCP
    INDEX 01 10:52:19
  TRACK 05 AUDIO
    TITLE "Шансонетка про Розу- гимназистку (фрагмент)"
    PERFORMER "В. Высоцкий"
    FLAGS DCP
    INDEX 01 13:03:47
  TRACK 06 AUDIO
    TITLE "Банька по- чёрному"
    PERFORMER "В. Высоцкий"
    FLAGS DCP
    INDEX 01 14:20:69
  TRACK 07 AUDIO
    TITLE "`От скушных шабашей...` (фрагмент)"
    PERFORMER "В. Высоцкий"
    FLAGS DCP
    INDEX 01 18:46:45
  TRACK 08 AUDIO
    TITLE "`Я все вопросы освещу сполна...` (фрагмент)"
    PERFORMER "В. Высоцкий"
    FLAGS DCP
    INDEX 01 22:34:38
  TRACK 09 AUDIO
    TITLE "`Нет меня - я покинул Расею...`"
    PERFORMER "В. Высоцкий"
    FLAGS DCP
    INDEX 01 25:44:08
  TRACK 10 AUDIO
    TITLE "День рождения лейтенанта милиции в ресторане `Берлин`"
    PERFORMER "В. Высоцкий"
    FLAGS DCP
    INDEX 01 28:01:48
  TRACK 11 AUDIO
    TITLE "`Переворот в мозгах из края в край...`(фрагмент)"
    PERFORMER "В. Высоцкий"
    FLAGS DCP
    INDEX 01 29:22:23
  TRACK 12 AUDIO
    TITLE "Про чёрта"
    PERFORMER "В. Высоцкий"
    FLAGS DCP
    INDEX 01 33:03:47
  TRACK 13 AUDIO
    TITLE "`...Стою словно голенький...`(фрагмент)"
    PERFORMER "В. Высоцкий"
    FLAGS DCP
    INDEX 01 35:53:37
  TRACK 14 AUDIO
    TITLE "Песня о сумасшедшем доме"
    PERFORMER "В. Высоцкий"
    FLAGS DCP
    INDEX 01 36:02:30
  TRACK 15 AUDIO
    TITLE "Тот, кто раньше с нею был"
    PERFORMER "В. Высоцкий"
    FLAGS DCP
    INDEX 01 37:57:44
  TRACK 16 AUDIO
    TITLE "У тебя глаза - как нож (фрагмент)"
    PERFORMER "В. Высоцкий"
    FLAGS DCP
    INDEX 01 41:09:33
  TRACK 17 AUDIO
    TITLE "Красное, зеленое"
    PERFORMER "В. Высоцкий"
    FLAGS DCP
    INDEX 01 42:21:34
  TRACK 18 AUDIO
    TITLE "Татуировка"
    PERFORMER "В. Высоцкий"
    FLAGS DCP
    INDEX 01 42:59:01

_________________
Разница между теорией и практикой в том, что теоретически разницы между теорией и практикой нет, а на практике она есть.
[Профиль] [ЛС]
Показать сообщения:    

Текущее время: Сегодня 23:40

Часовой пояс: GMT + 3



Вы не можете начинать темы
Вы не можете отвечать на сообщения
Вы не можете редактировать свои сообщения
Вы не можете удалять свои сообщения
Вы не можете голосовать в опросах
Вы не можете прикреплять файлы к сообщениям
Вы не можете скачивать файлы