Золотые дни идет свободное скачивание без начисления Download
 

Офлайн

sergej644

Стаж:
5 лет 4 месяца
Сообщений:
853

-Loudness - Lightning Strikes (30th Anniversary Limited Edition)--
Год издания: 2016
Страна: Japan
Жанр: Heavy Metal
Продолжительность: 01:38:23-Лейбл издания: Warner Music
Страна-выпуска диска: Japan
Номер по каталогу: WPZL-31201/3-Формат: WavPack
Битрейт аудио: Lossless
Тип рипа: image +.cue
Наличие сканов в содержимом раздачи: да
-Loudness - японская рок-группа, играющая в стиле хэви-метал. Основана в 1981 году в городе Осака. Дискография группы на 2016 год насчитывает 27 студийных альбомов.

Трэклист

CD 1 | 00:39:35


01.Let It Go(4:15)
02.Dark Desire(4:20)
03.1000 Eyes(4:36)
04.Face To Face(3:50)
05.Who Knows(4:04)
06.Ashes In The Sky(6:03)
07.Black Star Oblivion(3:55)
08.Street Life Dream(4:30)
09.Complication(4:03)

CD 2 | 00:58:47


01.Show Me The Way(3:20)
02.Let Me Know(4:23)
03.Evil Laughin'(5:10)
04.Bunch Of Jokes(4:31)
05.Yamashita Tune(4:11)
06.Complication(4:07)
07.Night Queen(3:40)
08.Speed Ii(4:01)
09.Leave It To Us(4:08)
10.Mysterious Night(4:17)
11.Love Is Blind(5:08)
12.Cha Cha Cha(4:28)
13.A Man Without Fear(3:55)
14.Inst(3:29)
-

Лог создания рипа

CD 1

Код:
Exact Audio Copy V1.3 from 2. September 2016
EAC extraction logfile from 23. October 2016, 18:51
LOUDNESS / LIGHTNING STRIKES
Used drive  : TSSTcorpBDDVDW SE-506BB   Adapter: 2  ID: 0
Read mode               : Secure
Utilize accurate stream : Yes
Defeat audio cache      : Yes
Make use of C2 pointers : No
Read offset correction                      : 6
Overread into Lead-In and Lead-Out          : No
Fill up missing offset samples with silence : Yes
Delete leading and trailing silent blocks   : No
Null samples used in CRC calculations       : Yes
Used interface                              : Installed external ASPI interface
Used output format              : User Defined Encoder
Selected bitrate                : 768 kBit/s
Quality                         : High
Add ID3 tag                     : No
Command line compressor         : C:\Progs\wavpack\wavpack.exe
Additional command line options : -h -d %source%
TOC of the extracted CD
     Track |   Start  |  Length  | Start sector | End sector
    ---------------------------------------------------------
        1  |  0:00.00 |  4:14.68 |         0    |    19117
        2  |  4:14.68 |  4:20.34 |     19118    |    38651
        3  |  8:35.27 |  4:36.02 |     38652    |    59353
        4  | 13:11.29 |  3:50.15 |     59354    |    76618
        5  | 17:01.44 |  4:03.57 |     76619    |    94900
        6  | 21:05.26 |  6:02.49 |     94901    |   122099
        7  | 27:08.00 |  3:55.00 |    122100    |   139724
        8  | 31:03.00 |  4:29.59 |    139725    |   159958
        9  | 35:32.59 |  4:02.40 |    159959    |   178148
Range status and errors
Selected range
     Filename E:\EAC\LOUDNESS - LIGHTNING STRIKES\LOUDNESS - LIGHTNING STRIKES.wav
     Peak level 100.0 %
     Extraction speed 1.8 X
     Range quality 100.0 %
     Test CRC 541D8B75
     Copy CRC 541D8B75
     Copy OK
No errors occurred
AccurateRip summary
Track  1  cannot be verified as accurate (confidence 3)  [27AB2567], AccurateRip returned [47C55AEF]  (AR v2)
Track  2  cannot be verified as accurate (confidence 3)  [3DDAD668], AccurateRip returned [BFBA573D]  (AR v2)
Track  3  cannot be verified as accurate (confidence 3)  [EEF60F16], AccurateRip returned [06601352]  (AR v2)
Track  4  cannot be verified as accurate (confidence 3)  [191AACD1], AccurateRip returned [1D0A28C2]  (AR v2)
Track  5  cannot be verified as accurate (confidence 3)  [4795FAB7], AccurateRip returned [E23120A3]  (AR v2)
Track  6  cannot be verified as accurate (confidence 3)  [526A648B], AccurateRip returned [138B4AE1]  (AR v2)
Track  7  cannot be verified as accurate (confidence 3)  [B0787EFD], AccurateRip returned [09B85BC6]  (AR v2)
Track  8  cannot be verified as accurate (confidence 3)  [41DCA8D8], AccurateRip returned [E0F6EB30]  (AR v2)
Track  9  cannot be verified as accurate (confidence 3)  [9DFACD11], AccurateRip returned [D2E3D9EC]  (AR v2)
No tracks could be verified as accurate
You may have a different pressing from the one(s) in the database
End of status report
---- CUETools DB Plugin V2.1.6
[CTDB TOCID: lCG7JS08490vB_WguXAgC8YcV6w-] found
Submit result: lCG7JS08490vB_WguXAgC8YcV6w- has been confirmed
Track | CTDB Status
  1   | ( 4/12) Accurately ripped
  2   | ( 4/12) Accurately ripped
  3   | ( 4/12) Accurately ripped
  4   | ( 4/12) Accurately ripped
  5   | ( 4/12) Accurately ripped
  6   | ( 4/12) Accurately ripped
  7   | ( 4/12) Accurately ripped
  8   | ( 4/12) Accurately ripped
  9   | ( 4/12) Accurately ripped

CD 2

Код:
Exact Audio Copy V1.3 from 2. September 2016
EAC extraction logfile from 23. October 2016, 20:56
Loudness / Demo Lightning Strikes
Used drive  : TSSTcorpBDDVDW SE-506BB   Adapter: 2  ID: 0
Read mode               : Secure
Utilize accurate stream : Yes
Defeat audio cache      : Yes
Make use of C2 pointers : No
Read offset correction                      : 6
Overread into Lead-In and Lead-Out          : No
Fill up missing offset samples with silence : Yes
Delete leading and trailing silent blocks   : No
Null samples used in CRC calculations       : Yes
Used interface                              : Installed external ASPI interface
Used output format              : User Defined Encoder
Selected bitrate                : 768 kBit/s
Quality                         : High
Add ID3 tag                     : No
Command line compressor         : C:\Progs\wavpack\wavpack.exe
Additional command line options : -h -d %source%
TOC of the extracted CD
     Track |   Start  |  Length  | Start sector | End sector
    ---------------------------------------------------------
        1  |  0:00.00 |  3:19.38 |         0    |    14962
        2  |  3:19.38 |  4:23.25 |     14963    |    34712
        3  |  7:42.63 |  5:09.73 |     34713    |    57960
        4  | 12:52.61 |  4:31.22 |     57961    |    78307
        5  | 17:24.08 |  4:10.70 |     78308    |    97127
        6  | 21:35.03 |  4:07.05 |     97128    |   115657
        7  | 25:42.08 |  3:39.71 |    115658    |   132153
        8  | 29:22.04 |  4:00.38 |    132154    |   150191
        9  | 33:22.42 |  4:07.50 |    150192    |   168766
       10  | 37:30.17 |  4:16.55 |    168767    |   188021
       11  | 41:46.72 |  5:07.46 |    188022    |   211092
       12  | 46:54.43 |  4:27.74 |    211093    |   231191
       13  | 51:22.42 |  3:55.34 |    231192    |   248850
       14  | 55:18.01 |  3:29.33 |    248851    |   264558
Range status and errors
Selected range
     Filename E:\EAC\LOUDNESS - LIGHTNING STRIKES\Loudness - Demo Lightning Strikes.wav
     Peak level 98.9 %
     Extraction speed 1.9 X
     Range quality 100.0 %
     Test CRC 0601E888
     Copy CRC 0601E888
     Copy OK
No errors occurred
AccurateRip summary
Track  1  not present in database
Track  2  not present in database
Track  3  not present in database
Track  4  not present in database
Track  5  not present in database
Track  6  not present in database
Track  7  not present in database
Track  8  not present in database
Track  9  not present in database
Track 10  not present in database
Track 11  not present in database
Track 12  not present in database
Track 13  not present in database
Track 14  not present in database
None of the tracks are present in the AccurateRip database
End of status report
---- CUETools DB Plugin V2.1.6
[CTDB TOCID: 7RzxRE8ygUTPjHFo91TJFeDNuLA-] found
Submit result: 7RzxRE8ygUTPjHFo91TJFeDNuLA- has been confirmed
Track | CTDB Status
  1   | (2/2) Accurately ripped
  2   | (2/2) Accurately ripped
  3   | (2/2) Accurately ripped
  4   | (2/2) Accurately ripped
  5   | (2/2) Accurately ripped
  6   | (2/2) Accurately ripped
  7   | (2/2) Accurately ripped
  8   | (2/2) Accurately ripped
  9   | (2/2) Accurately ripped
10   | (2/2) Accurately ripped
11   | (2/2) Accurately ripped
12   | (2/2) Accurately ripped
13   | (2/2) Accurately ripped
14   | (2/2) Accurately ripped

Индексная карта (non-compilant .cue)

CD 1

Код:
REM GENRE "Heavy Metal"
REM DATE 1986
REM DISCID 6D094709
REM COMMENT "ExactAudioCopy v1.3"
CATALOG 4943674236374
PERFORMER LOUDNESS
TITLE "LIGHTNING STRIKES"
FILE "CD1 - LIGHTNING STRIKES.wv" WAVE
  TRACK 01 AUDIO
    TITLE "Let It Go"
    PERFORMER Loudness
    ISRC JPWP01671055
    INDEX 01 00:00:00
  TRACK 02 AUDIO
    TITLE "Dark Desire"
    PERFORMER Loudness
    ISRC JPWP01671056
    INDEX 01 04:14:68
  TRACK 03 AUDIO
    TITLE "1000 Eyes"
    PERFORMER Loudness
    ISRC JPWP01671057
    INDEX 01 08:35:27
  TRACK 04 AUDIO
    TITLE "Face To Face"
    PERFORMER Loudness
    ISRC JPWP01671058
    INDEX 01 13:11:29
  TRACK 05 AUDIO
    TITLE "Who Knows"
    PERFORMER Loudness
    ISRC JPWP01671059
    INDEX 00 17:01:39
    INDEX 01 17:01:44
  TRACK 06 AUDIO
    TITLE "Ashes In The Sky"
    PERFORMER Loudness
    ISRC JPWP01671060
    INDEX 01 21:05:26
  TRACK 07 AUDIO
    TITLE "Black Star Oblivion"
    PERFORMER Loudness
    ISRC JPWP01671061
    INDEX 01 27:08:00
  TRACK 08 AUDIO
    TITLE "Street Life Dream"
    PERFORMER Loudness
    ISRC JPWP01671061
    INDEX 01 31:03:00
  TRACK 09 AUDIO
    TITLE Complication
    PERFORMER Loudness
    ISRC JPWP01671063
    INDEX 01 35:32:59

CD 2

Код:
REM GENRE "Heavy Metal"
REM DATE 2016
REM DISCID AB0DC70E
REM COMMENT "ExactAudioCopy v1.3"
CATALOG 4943674236374
PERFORMER Loudness
TITLE "Demo Lightning Strikes"
FILE "CD2 - Demo Lightning Strikes.wv" WAVE
  TRACK 01 AUDIO
    TITLE "Show Me The Way"
    PERFORMER Loudness
    ISRC JPWP01671110
    INDEX 01 00:00:00
  TRACK 02 AUDIO
    TITLE "Let Me Know"
    PERFORMER Loudness
    ISRC JPWP01671111
    INDEX 00 03:18:37
    INDEX 01 03:19:38
  TRACK 03 AUDIO
    TITLE "Evil Laughin'"
    PERFORMER Loudness
    ISRC JPWP01671112
    INDEX 00 07:41:62
    INDEX 01 07:42:63
  TRACK 04 AUDIO
    TITLE "Bunch Of Jokes"
    PERFORMER Loudness
    ISRC JPWP01671113
    INDEX 00 12:51:60
    INDEX 01 12:52:61
  TRACK 05 AUDIO
    TITLE "Yamashita Tune"
    PERFORMER Loudness
    ISRC JPWP01671114
    INDEX 00 17:23:07
    INDEX 01 17:24:08
  TRACK 06 AUDIO
    TITLE Complication
    PERFORMER Loudness
    ISRC JPWP01671115
    INDEX 00 21:34:02
    INDEX 01 21:35:03
  TRACK 07 AUDIO
    TITLE "Night Queen"
    PERFORMER Loudness
    ISRC JPWP01671116
    INDEX 00 25:41:07
    INDEX 01 25:42:08
  TRACK 08 AUDIO
    TITLE "Speed Ii"
    PERFORMER Loudness
    ISRC JPWP01671117
    INDEX 00 29:21:03
    INDEX 01 29:22:04
  TRACK 09 AUDIO
    TITLE "Leave It To Us"
    PERFORMER Loudness
    ISRC JPWP01671118
    INDEX 00 33:21:41
    INDEX 01 33:22:42
  TRACK 10 AUDIO
    TITLE "Mysterious Night"
    PERFORMER Loudness
    ISRC JPWP01671119
    INDEX 00 37:29:16
    INDEX 01 37:30:17
  TRACK 11 AUDIO
    TITLE "Love Is Blind"
    PERFORMER Loudness
    ISRC JPWP01671120
    INDEX 00 41:45:71
    INDEX 01 41:46:72
  TRACK 12 AUDIO
    TITLE "Cha Cha Cha"
    PERFORMER Loudness
    ISRC JPWP01671121
    INDEX 00 46:53:42
    INDEX 01 46:54:43
  TRACK 13 AUDIO
    TITLE "A Man Without Fear"
    PERFORMER Loudness
    ISRC JPWP01671122
    INDEX 00 51:21:41
    INDEX 01 51:22:42
  TRACK 14 AUDIO
    TITLE Inst
    PERFORMER Loudness
    ISRC JPWP01671123
    INDEX 00 55:17:00
    INDEX 01 55:18:01
--

_________________
Разница между теорией и практикой в том, что теоретически разницы между теорией и практикой нет, а на практике она есть.
[Профиль] [ЛС]
Показать сообщения:    

Текущее время: Сегодня 06:30

Часовой пояс: GMT + 3



Вы не можете начинать темы
Вы не можете отвечать на сообщения
Вы не можете редактировать свои сообщения
Вы не можете удалять свои сообщения
Вы не можете голосовать в опросах
Вы не можете прикреплять файлы к сообщениям
Вы не можете скачивать файлы