Золотые дни идет свободное скачивание без начисления Download
 

Офлайн

sergej644

Стаж:
5 лет 4 месяца
Сообщений:
853

-Saxon-The Very Best Of Saxon (3CD)--
Год издания: 2007
Страна: UK
Жанр: Heavy Metal
Продолжительность: 03:51:59-Лейбл издания: EMI Gold
Страна-выпуска диска: EU
Номер по каталогу: 0946 3 85350 2 7-Формат: Ape
Битрейт аудио: Lossless
Тип рипа: image +.cue
Наличие сканов в содержимом раздачи: да
-

Трэклист

CD 1 | 01:13:48


01.Big Teaser (© 1979) (3:57)
02.Stallions Of The Highway (© 1979) (2:52)
03.Backs To The Wall (© 1979) (3:11)
04.Militia Guard (© 1979) (4:52)
05.Rainbow Theme (© 1979) (3:08)
06.Frozen Rainbow (© 1979) (2:30)
07.Wheels Of Steel (© 1980) (5:59)
08.Stand up and be counted (© 1980) (3:09)
09.747(Strangers in The Night) (© 1980) (5:00)
10.Seel The Light shining (© 1980) (4:55)
11.Suzie Hold On (© 1980) (4:33)
12.Judgement Day(Live) (© 1997) (5:39)
13.Motorcycle Man (© 1980) (3:59)
14.Street Fighting Gang (© 1980) (3:11)
15.Strong Arm Of The Law (© 1980) (4:37)
16.Taking Your Chances (© 1980) (4:18)
17.Heavy Metal Thunder (© 1980) (4:17)
18.20,000 FT (© 1980) (3:41)

CD 2 | 01:19:16


01.Hungry Years (© 1980) (4:28)
02.Dallas 1PM (© 1980) (6:28)
03.And The Bands Played On (© 1981) (2:48)
04.Never Surrender (© 1981) (2:54)
05.Princess Of The Night (© 1981) (4:02)
06.Fire In The Sky (© 1981) (3:37)
07.Denim and Leather (© 1981) (5:45)
08.Midnight Rider (© 1981) (4:20)
09.Motorcycle Man(Live) (© 1982) (4:36)
10.747(Strangers in The Night)(Live) (© 1982) (4:37)
11.Strong Arm Of The Law(Live) (© 1982) (3:21)
12.20,000 FT (Live) (© 1982) (8:53)
13.Wheels of Steel(Live) (© 1982)(5:20)
14.Power and The Glory (© 1983) (5:54)
15.Nightmate (© 1983) (4:22)
16.Midas Touch (© 1983) (4:12)
17.Redline (© 1983) (3:37)

CD 3 | 01:18:55


01.[Sailing To America (© 1984) (5:06)
02.A Litle Bit Of What You Fancy (© 1984) (3:52)
03.Do It All For You (© 1984) (4:44)
04.Just Let Me Rock (© 1984) (4:13)
05.Crusader (© 1984) (6:36)
06.Back on The Streets (© 1985) (4:01)
07.Live Fast Die Young (© 1985) (3:45)
08.Rock'N'Roll Gypsy (© 1985) (4:16)
09.Krakatoa (© 1985) (3:46)
10.Waiting For The Night (© 1986) (4:13)
11.Chase The Fade (© 1986) (2:31)
12.Rock The Nations (© 1986) (4:43)
13.Northern Lady (© 1986) (3:55)
14.Everybody Up(Live) (© 1985) (3:37)
15.Ride Like The Wind (© 1988) (4:29)
16.Red Alert (© 1988) (4:38)
17.I Can't Wait Anymore (© 1988) (4:26)
18.Broken Heroes(Live) (© 1985) (6:05)
-

Лог создания рипа

CD 1

Код:
Exact Audio Copy V0.99 prebeta 5 from 4. May 2009
EAC extraction logfile from 14. September 2010, 17:26
Saxon / The Very Best Of Saxon(1979-1988)
Used drive  : ASUS    DRW-20B1ST   Adapter: 1  ID: 1
Read mode               : Secure
Utilize accurate stream : Yes
Defeat audio cache      : Yes
Make use of C2 pointers : No
Read offset correction                      : 6
Overread into Lead-In and Lead-Out          : No
Fill up missing offset samples with silence : Yes
Delete leading and trailing silent blocks   : No
Null samples used in CRC calculations       : Yes
Used interface                              : Native Win32 interface for Win NT & 2000
Used output format              : Monkey's Audio Lossless Encoder
Selected bitrate                : High Lossless Compression
Quality                         : High
Add ID3 tag                     : No
Command line compressor         : C:\Program Files (x86)\Monkey's Audio\MAC.exe
Additional command line options : -v
TOC of the extracted CD
     Track |   Start  |  Length  | Start sector | End sector
    ---------------------------------------------------------
        1  |  0:00.00 |  3:57.12 |         0    |    17786
        2  |  3:57.12 |  2:51.53 |     17787    |    30664
        3  |  6:48.65 |  3:11.27 |     30665    |    45016
        4  | 10:00.17 |  4:52.00 |     45017    |    66916
        5  | 14:52.17 |  3:07.60 |     66917    |    81001
        6  | 18:00.02 |  2:29.45 |     81002    |    92221
        7  | 20:29.47 |  5:58.69 |     92222    |   119140
        8  | 26:28.41 |  3:09.02 |    119141    |   133317
        9  | 29:37.43 |  4:59.49 |    133318    |   155791
       10  | 34:37.17 |  4:54.64 |    155792    |   177905
       11  | 39:32.06 |  4:32.48 |    177906    |   198353
       12  | 44:04.54 |  5:39.03 |    198354    |   223781
       13  | 49:43.57 |  3:59.00 |    223782    |   241706
       14  | 53:42.57 |  3:10.71 |    241707    |   256027
       15  | 56:53.53 |  4:37.23 |    256028    |   276825
       16  | 61:31.01 |  4:17.59 |    276826    |   296159
       17  | 65:48.60 |  4:17.36 |    296160    |   315470
       18  | 70:06.21 |  3:41.33 |    315471    |   332078
Range status and errors
Selected range
     Filename E:\Saxon - The Very Best Of Saxon.wav
     Peak level 99.2 %
     Range quality 100.0 %
     Copy CRC 77B9C822
     Copy OK
No errors occurred
AccurateRip summary
Track  1  accurately ripped (confidence 2)  [CB569F70]
Track  2  accurately ripped (confidence 2)  [5837481C]
Track  3  accurately ripped (confidence 2)  [3EFAFFA2]
Track  4  accurately ripped (confidence 2)  [6A95CE72]
Track  5  accurately ripped (confidence 2)  [529EFCF8]
Track  6  accurately ripped (confidence 2)  [39CDB751]
Track  7  accurately ripped (confidence 2)  [C4668EE8]
Track  8  accurately ripped (confidence 2)  [41541E58]
Track  9  accurately ripped (confidence 2)  [615EAB1B]
Track 10  accurately ripped (confidence 2)  [BB51D7BA]
Track 11  accurately ripped (confidence 2)  [3A7D00A7]
Track 12  accurately ripped (confidence 2)  [B2500C18]
Track 13  accurately ripped (confidence 2)  [7BB82E25]
Track 14  accurately ripped (confidence 2)  [51E6A965]
Track 15  accurately ripped (confidence 2)  [A3A7D60C]
Track 16  accurately ripped (confidence 2)  [980E032D]
Track 17  accurately ripped (confidence 2)  [D7B4CD1C]
Track 18  accurately ripped (confidence 2)  [38A5F922]
All tracks accurately ripped
End of status report

CD 2

Код:
Exact Audio Copy V0.99 prebeta 5 from 4. May 2009
EAC extraction logfile from 7. September 2010, 18:26
Saxon / The Very Best Of Saxon(1979-1988) - 2CD
Used drive  : ASUS    DRW-20B1ST   Adapter: 1  ID: 1
Read mode               : Secure
Utilize accurate stream : Yes
Defeat audio cache      : Yes
Make use of C2 pointers : No
Read offset correction                      : 6
Overread into Lead-In and Lead-Out          : No
Fill up missing offset samples with silence : Yes
Delete leading and trailing silent blocks   : No
Null samples used in CRC calculations       : Yes
Used interface                              : Native Win32 interface for Win NT & 2000
Used output format              : Monkey's Audio Lossless Encoder
Selected bitrate                : High Lossless Compression
Quality                         : High
Add ID3 tag                     : No
Command line compressor         : C:\Program Files (x86)\Monkey's Audio\MAC.exe
Additional command line options : -v
TOC of the extracted CD
     Track |   Start  |  Length  | Start sector | End sector
    ---------------------------------------------------------
        1  |  0:00.00 |  4:28.16 |         0    |    20115
        2  |  4:28.16 |  6:28.32 |     20116    |    49247
        3  | 10:56.48 |  2:48.31 |     49248    |    61878
        4  | 13:45.04 |  2:54.15 |     61879    |    74943
        5  | 16:39.19 |  4:02.35 |     74944    |    93128
        6  | 20:41.54 |  3:37.25 |     93129    |   109428
        7  | 24:19.04 |  5:45.18 |    109429    |   135321
        8  | 30:04.22 |  4:20.28 |    135322    |   154849
        9  | 34:24.50 |  4:36.13 |    154850    |   175562
       10  | 39:00.63 |  4:37.34 |    175563    |   196371
       11  | 43:38.22 |  3:20.64 |    196372    |   211435
       12  | 46:59.11 |  8:52.40 |    211436    |   251375
       13  | 55:51.51 |  5:19.67 |    251376    |   275367
       14  | 61:11.43 |  5:53.43 |    275368    |   301885
       15  | 67:05.11 |  4:21.65 |    301886    |   321525
       16  | 71:27.01 |  4:11.65 |    321526    |   340415
       17  | 75:38.66 |  3:37.09 |    340416    |   356699
Range status and errors
Selected range
     Filename E:\Saxon - The Very Best Of Saxon(1979-1988) - 2CD.wav
     Peak level 99.2 %
     Range quality 100.0 %
     Copy CRC 0496A1FA
     Copy OK
No errors occurred
AccurateRip summary
Track  1  accurately ripped (confidence 2)  [3ECE49CA]
Track  2  accurately ripped (confidence 2)  [F7DA2AB6]
Track  3  accurately ripped (confidence 2)  [81CAB101]
Track  4  accurately ripped (confidence 2)  [174AFC93]
Track  5  accurately ripped (confidence 2)  [8FD939DF]
Track  6  accurately ripped (confidence 2)  [FAC4F8A0]
Track  7  accurately ripped (confidence 2)  [F99FDCC4]
Track  8  accurately ripped (confidence 2)  [89EC1040]
Track  9  accurately ripped (confidence 2)  [28617BA3]
Track 10  accurately ripped (confidence 2)  [D53CA914]
Track 11  accurately ripped (confidence 2)  [8A768E7F]
Track 12  accurately ripped (confidence 2)  [222F5038]
Track 13  accurately ripped (confidence 2)  [28D248C1]
Track 14  accurately ripped (confidence 2)  [9D96C855]
Track 15  accurately ripped (confidence 2)  [D2C0A76A]
Track 16  accurately ripped (confidence 2)  [55FE0AE4]
Track 17  accurately ripped (confidence 2)  [4B2C3F67]
All tracks accurately ripped
End of status report

CD 3

Код:
Exact Audio Copy V0.99 prebeta 5 from 4. May 2009
EAC extraction logfile from 7. September 2010, 18:10
Saxon / The Very Best Of Saxon(1979-1988) - 3CD
Used drive  : ASUS    DRW-20B1ST   Adapter: 1  ID: 1
Read mode               : Secure
Utilize accurate stream : Yes
Defeat audio cache      : Yes
Make use of C2 pointers : No
Read offset correction                      : 6
Overread into Lead-In and Lead-Out          : No
Fill up missing offset samples with silence : Yes
Delete leading and trailing silent blocks   : No
Null samples used in CRC calculations       : Yes
Used interface                              : Native Win32 interface for Win NT & 2000
Used output format              : Monkey's Audio Lossless Encoder
Selected bitrate                : High Lossless Compression
Quality                         : High
Add ID3 tag                     : No
Command line compressor         : C:\Program Files (x86)\Monkey's Audio\MAC.exe
Additional command line options : -v
TOC of the extracted CD
     Track |   Start  |  Length  | Start sector | End sector
    ---------------------------------------------------------
        1  |  0:00.00 |  5:05.43 |         0    |    22917
        2  |  5:05.43 |  3:52.22 |     22918    |    40339
        3  |  8:57.65 |  4:44.24 |     40340    |    61663
        4  | 13:42.14 |  4:12.55 |     61664    |    80618
        5  | 17:54.69 |  6:35.48 |     80619    |   110291
        6  | 24:30.42 |  4:00.59 |    110292    |   128350
        7  | 28:31.26 |  3:45.24 |    128351    |   145249
        8  | 32:16.50 |  4:15.58 |    145250    |   164432
        9  | 36:32.33 |  3:46.08 |    164433    |   181390
       10  | 40:18.41 |  4:13.16 |    181391    |   200381
       11  | 44:31.57 |  2:31.11 |    200382    |   211717
       12  | 47:02.68 |  4:42.70 |    211718    |   232937
       13  | 51:45.63 |  3:54.68 |    232938    |   250555
       14  | 55:40.56 |  3:37.28 |    250556    |   266858
       15  | 59:18.09 |  4:29.01 |    266859    |   287034
       16  | 63:47.10 |  4:37.43 |    287035    |   307852
       17  | 68:24.53 |  4:25.55 |    307853    |   327782
       18  | 72:50.33 |  6:04.43 |    327783    |   355125
Range status and errors
Selected range
     Filename E:\Saxon - The Very Best Of Saxon(1979-1988)-3CD.wav
     Peak level 99.2 %
     Range quality 100.0 %
     Copy CRC 994C47B5
     Copy OK
No errors occurred
AccurateRip summary
Track  1  accurately ripped (confidence 5)  [9E83745C]
Track  2  accurately ripped (confidence 5)  [43BDC95F]
Track  3  accurately ripped (confidence 5)  [3E10B9C4]
Track  4  accurately ripped (confidence 5)  [E1D462F0]
Track  5  accurately ripped (confidence 5)  [BF7D70B6]
Track  6  accurately ripped (confidence 5)  [3390FC69]
Track  7  accurately ripped (confidence 5)  [936BE955]
Track  8  accurately ripped (confidence 5)  [99129EBC]
Track  9  accurately ripped (confidence 5)  [B16BEB64]
Track 10  accurately ripped (confidence 5)  [40C11FAF]
Track 11  accurately ripped (confidence 5)  [1E003E7D]
Track 12  accurately ripped (confidence 5)  [5DF93522]
Track 13  accurately ripped (confidence 5)  [A1006B26]
Track 14  accurately ripped (confidence 5)  [78C80D78]
Track 15  accurately ripped (confidence 5)  [EB312E67]
Track 16  accurately ripped (confidence 5)  [1879AC67]
Track 17  accurately ripped (confidence 5)  [3C406691]
Track 18  accurately ripped (confidence 4)  [E771A59E]
All tracks accurately ripped
End of status report

Индексная карта (non-compilant .cue)

CD 1

Код:
REM GENRE "Heavy Metal"
REM DATE 2007
REM DISCID 04114B12
REM COMMENT "ExactAudioCopy v0.99pb5"
PERFORMER "Saxon"
TITLE "The Very Best Of Saxon(1979-1988)"
FILE "Saxon - The Very Best Of Saxon.ape" WAVE
  TRACK 01 AUDIO
    TITLE "Big Teaser"
    PERFORMER Saxon
    INDEX 01 00:00:00
  TRACK 02 AUDIO
    TITLE "Stallions Of The Highway"
    PERFORMER Saxon
    INDEX 00 03:56:60
    INDEX 01 03:57:12
  TRACK 03 AUDIO
    TITLE "Backs To The Wall"
    PERFORMER Saxon
    INDEX 00 06:48:02
    INDEX 01 06:48:65
  TRACK 04 AUDIO
    TITLE "Militia Guard"
    PERFORMER Saxon
    INDEX 00 09:59:18
    INDEX 01 10:00:17
  TRACK 05 AUDIO
    TITLE "Rainbow Theme"
    PERFORMER Saxon
    INDEX 00 14:51:29
    INDEX 01 14:52:17
  TRACK 06 AUDIO
    TITLE "Frozen Rainbow"
    PERFORMER Saxon
    INDEX 01 18:00:02
  TRACK 07 AUDIO
    TITLE "Wheels Of Steel"
    PERFORMER Saxon
    INDEX 00 20:28:36
    INDEX 01 20:29:47
  TRACK 08 AUDIO
    TITLE "Stand up and be counted"
    PERFORMER Saxon
    INDEX 00 26:27:21
    INDEX 01 26:28:41
  TRACK 09 AUDIO
    TITLE "747(Strangers in The Night)"
    PERFORMER Saxon
    INDEX 00 29:36:66
    INDEX 01 29:37:43
  TRACK 10 AUDIO
    TITLE "Seel The Light shining"
    PERFORMER Saxon
    INDEX 00 34:35:59
    INDEX 01 34:37:17
  TRACK 11 AUDIO
    TITLE "Suzie Hold On"
    PERFORMER Saxon
    INDEX 00 39:31:43
    INDEX 01 39:32:06
  TRACK 12 AUDIO
    TITLE "Judgement Day(Live)"
    PERFORMER Saxon
    INDEX 00 44:04:22
    INDEX 01 44:04:54
  TRACK 13 AUDIO
    TITLE "Motorcycle Man"
    PERFORMER Saxon
    INDEX 00 49:42:22
    INDEX 01 49:43:57
  TRACK 14 AUDIO
    TITLE "Street Fighting Gang"
    PERFORMER Saxon
    INDEX 00 53:41:12
    INDEX 01 53:42:57
  TRACK 15 AUDIO
    TITLE "Strong Arm Of The Law"
    PERFORMER Saxon
    INDEX 00 56:52:48
    INDEX 01 56:53:53
  TRACK 16 AUDIO
    TITLE "Taking Your Chances"
    PERFORMER Saxon
    INDEX 00 61:29:73
    INDEX 01 61:31:01
  TRACK 17 AUDIO
    TITLE "Heavy Metal Thunder"
    PERFORMER Saxon
    INDEX 00 65:48:21
    INDEX 01 65:48:60
  TRACK 18 AUDIO
    TITLE "20,000 FT"
    PERFORMER Saxon
    INDEX 00 70:05:42
    INDEX 01 70:06:21

CD 2

Код:
REM GENRE "Heavy Metal"
REM DATE 2007
REM DISCID D8129411
REM COMMENT "ExactAudioCopy v0.99pb5"
PERFORMER "Saxon"
TITLE "The Very Best Of Saxon(1979-1988) - 2CD"
FILE "Saxon - The Very Best Of Saxon(1979-1988) - 2CD.ape" WAVE
  TRACK 01 AUDIO
    TITLE "Hungry Years"
    PERFORMER Saxon
    INDEX 01 00:00:00
  TRACK 02 AUDIO
    TITLE "Dallas 1PM"
    PERFORMER Saxon
    INDEX 00 04:26:35
    INDEX 01 04:28:16
  TRACK 03 AUDIO
    TITLE "And The Bands Played On "
    PERFORMER Saxon
    INDEX 00 10:55:66
    INDEX 01 10:56:48
  TRACK 04 AUDIO
    TITLE "Never Surrender"
    PERFORMER Saxon
    INDEX 00 13:43:73
    INDEX 01 13:45:04
  TRACK 05 AUDIO
    TITLE "Princess Of The Night"
    PERFORMER Saxon
    INDEX 00 16:39:02
    INDEX 01 16:39:19
  TRACK 06 AUDIO
    TITLE "Fire In The Sky"
    PERFORMER Saxon
    INDEX 00 20:40:07
    INDEX 01 20:41:54
  TRACK 07 AUDIO
    TITLE "Denim and Leather"
    PERFORMER Saxon
    INDEX 00 24:17:49
    INDEX 01 24:19:04
  TRACK 08 AUDIO
    TITLE "Midnight Rider"
    PERFORMER Saxon
    INDEX 00 30:03:74
    INDEX 01 30:04:22
  TRACK 09 AUDIO
    TITLE "Motorcycle Man(Live)"
    PERFORMER Saxon
    INDEX 01 34:24:50
  TRACK 10 AUDIO
    TITLE "747(Strangers in The Night)(Live)"
    PERFORMER Saxon
    INDEX 01 39:00:63
  TRACK 11 AUDIO
    TITLE "Strong Arm Of The Law(Live)"
    PERFORMER Saxon
    INDEX 01 43:38:22
  TRACK 12 AUDIO
    TITLE "20,000 FT (Live)"
    PERFORMER Saxon
    INDEX 01 46:59:11
  TRACK 13 AUDIO
    TITLE "Wheels of Steel(Live)"
    PERFORMER Saxon
    INDEX 01 55:51:51
  TRACK 14 AUDIO
    TITLE "Power and The Glory "
    PERFORMER Saxon
    INDEX 00 61:10:66
    INDEX 01 61:11:43
  TRACK 15 AUDIO
    TITLE "Track15"
    PERFORMER "Saxon"
    INDEX 00 67:04:38
    INDEX 01 67:05:11
  TRACK 16 AUDIO
    TITLE "Track16"
    PERFORMER "Saxon"
    INDEX 01 71:27:01
  TRACK 17 AUDIO
    TITLE "Track17"
    PERFORMER "Saxon"
    INDEX 00 75:38:14
    INDEX 01 75:38:66

CD 3

Код:
REM GENRE "Heavy Metal"
REM DATE 2007
REM DISCID F8127F12
REM COMMENT "ExactAudioCopy v0.99pb5"
PERFORMER "Saxon"
TITLE "The Very Best Of Saxon(1979-1988) - 3CD"
FILE "Saxon - The Very Best Of Saxon(1979-1988) - 3CD.ape" WAVE
  TRACK 01 AUDIO
    TITLE "Sailing To America"
    PERFORMER Saxon
    INDEX 01 00:00:00
  TRACK 02 AUDIO
    TITLE "A Litle Bit Of What You Fancy"
    PERFORMER Saxon
    INDEX 00 05:04:66
    INDEX 01 05:05:43
  TRACK 03 AUDIO
    TITLE "Do It All For You"
    PERFORMER Saxon
    INDEX 00 08:57:01
    INDEX 01 08:57:65
  TRACK 04 AUDIO
    TITLE "Just Let Me Rock"
    PERFORMER Saxon
    INDEX 00 13:41:15
    INDEX 01 13:42:14
  TRACK 05 AUDIO
    TITLE Crusader
    PERFORMER Saxon
    INDEX 00 17:54:24
    INDEX 01 17:54:69
  TRACK 06 AUDIO
    TITLE "Back on The Streets"
    PERFORMER Saxon
    INDEX 00 24:29:44
    INDEX 01 24:30:42
  TRACK 07 AUDIO
    TITLE "Live Fast Die Young"
    PERFORMER Saxon
    INDEX 00 28:31:05
    INDEX 01 28:31:26
  TRACK 08 AUDIO
    TITLE "Rock'N'Roll Gypsy"
    PERFORMER Saxon
    INDEX 00 32:15:59
    INDEX 01 32:16:50
  TRACK 09 AUDIO
    TITLE Krakatoa
    PERFORMER Saxon
    INDEX 00 36:31:37
    INDEX 01 36:32:33
  TRACK 10 AUDIO
    TITLE "Waiting For The Night"
    PERFORMER Saxon
    INDEX 00 40:17:45
    INDEX 01 40:18:41
  TRACK 11 AUDIO
    TITLE "Chase The Fade"
    PERFORMER Saxon
    INDEX 00 44:30:37
    INDEX 01 44:31:57
  TRACK 12 AUDIO
    TITLE "Rock The Nations"
    PERFORMER Saxon
    INDEX 00 47:01:63
    INDEX 01 47:02:68
  TRACK 13 AUDIO
    TITLE "Northern Lady"
    PERFORMER Saxon
    INDEX 00 51:43:49
    INDEX 01 51:45:63
  TRACK 14 AUDIO
    TITLE "Everybody Up(Live)"
    PERFORMER Saxon
    INDEX 00 55:39:58
    INDEX 01 55:40:56
  TRACK 15 AUDIO
    TITLE "Ride Like The Wind"
    PERFORMER Saxon
    INDEX 00 59:16:32
    INDEX 01 59:18:09
  TRACK 16 AUDIO
    TITLE "Red Alert"
    PERFORMER Saxon
    INDEX 00 63:46:58
    INDEX 01 63:47:10
  TRACK 17 AUDIO
    TITLE "I Can't Wait Anymore"
    PERFORMER Saxon
    INDEX 00 68:24:03
    INDEX 01 68:24:53
  TRACK 18 AUDIO
    TITLE "Broken Heroes(Live)"
    PERFORMER Saxon
    INDEX 00 72:50:09
    INDEX 01 72:50:33
--

_________________
Разница между теорией и практикой в том, что теоретически разницы между теорией и практикой нет, а на практике она есть.
[Профиль] [ЛС]
Показать сообщения:    

Текущее время: Сегодня 06:27

Часовой пояс: GMT + 3



Вы не можете начинать темы
Вы не можете отвечать на сообщения
Вы не можете редактировать свои сообщения
Вы не можете удалять свои сообщения
Вы не можете голосовать в опросах
Вы не можете прикреплять файлы к сообщениям
Вы не можете скачивать файлы