Золотые дни идет свободное скачивание без начисления Download
 

Офлайн

sergej644

Стаж:
4 года 11 месяцев
Сообщений:
717

--Rainbow - Memories in Rock: Live In Germany - 2016

Год выпуска: 2016
Страна: England
Жанр:Hard Rock
Продолжительность: 01:50:22
-Качество видео: Blu-Ray (1080p)
Контейнер: M2TS
Стандарт разрешения: 1080p
Видео кодек: MPEG4 AVC
Аудио кодек: PCM/DTS-HD Master Audio
Видео: MPEG-4 AVC Video / 30000 kbps / 1080i / 29.970 fps / 16:9 / High Profile 4.1
Аудио: LPCM Audio / 2.0 / 96 kHz / 4608 kbps / 24-bit
Аудио: DTS-HD Master Audio / 5.1 / 96 kHz / 5799 kbps / 24-bit (DTS Core: 5.1 / 48 kHz / 768 kbps / 24-bit)
-

Впервые за 19 лет, первое выступление легендарного гитариста Ричи Блэкмора и его возрожденного коллектива Ritchie Blackmore's Rainbow, которое состоялось в июне 2016 года на фестивале Monsters of Rock в Германии. Группа сыграла три концерта в Европе: два в Германии и один в Англии. Записи из двух немецких шоу в Loreley и Stuttgart составляют этот живой альбом Memories In Rock, сочетая классические треки из Deep Purple и Rainbow. Группа играла великолепно и Ритчи Блэкмор доказал, что он остается одним из лучших гитаристов всех времен. Вокалистом в новом составе Rainbow стал участник испанской группы Lords Of Black Ронни Ромеро.
-

Трэклист


01. Intro
02. Highway Star
Ritchie Blackmore / Ian Gillan / Roger Glover / Jon Lord / Ian Paice
03. Spotlight Kid
Ritchie Blackmore / Roger Glover
04. Mistreated
Ritchie Blackmore / David Coverdale
05. 16th Century Greensleeves
Ritchie Blackmore / Ronnie Dio
06. Since уоu Been Gone
Russell Ballard
07. Man On тhе Silver Mountain
Ritchie Blackmore / Ronnie Dio
08. Catch тhе Rainbow
Ritchie Blackmore / Ronnie Dio
09. Difficult To Cure (Beetuoven’S Ninth)
Trad. / Arr. Ritchie Blackmore / Arr. Don Airey / Arr. Roger Glover
10. Perfect Strangers
Ritchie Blackmore / Ian Gillan / Roger Glover
11. Stargazer
Ritchie Blackmore / Ronnie Dio
12. Long Live Rock'n’Roll
Ritchie Blackmore / Ronnie Dio
13. Child In Time / Woman From Tokyo
Ritchie Blackmore / Ian Gillan / Roger Glover / Jon Lord / Ian Paice
14. Black Night
Ritchie Blackmore / Ian Gillan / Roger Glover / Jon Lord / Ian Paice
15. Smoke On Thе Water
Ritchie Blackmore / Ian Gillan / Roger Glover / Jon Lord / Ian Paice
Bonus Tracks From Alterative Night
16. Spotlight Kid
Ritchie Blackmore / Roger Glover
17. Man On туе Silver Mountain
Ritchie Blackmore / Ronnie Dio
18. Long Live Rock'n’Roll
Ritchie Blackmore / Ronnie Dio
19. Stargazer
Ritchie Blackmore / Ronnie Dio

Media Info

Код:
Общее
Идентификатор                            : 0 (0x0)
Полное имя                               : D:\Torrent Files\Rainbow - Memories in Rock - Live In Germany BD 2012\RAINBOW_MEMORIES_IN_ROCK\BDMV\STREAM\00000.m2ts
Формат                                   : BDAV
Формат/Информация                        : Blu-ray Video
Размер файла                             : 32,8 Гбайт
Продолжительность                        : 1 ч. 50 м.
Режим общего битрейта                    : Переменный
Общий поток                              : 42,5 Мбит/сек
Максимальный общий битрейт               : 48,0 Мбит/сек
Видео
Идентификатор                            : 4113 (0x1011)
Идентификатор меню                       : 1 (0x1)
Формат                                   : AVC
Формат/Информация                        : Advanced Video Codec
Профиль формата                          : High@L4.1
Параметр CABAC формата                   : Да
Параметр ReFrames формата                : 4 кадра
Идентификатор кодека                     : 27
Продолжительность                        : 1 ч. 50 м.
Вид битрейта                             : Постоянный
Номинальный битрейт                      : 30,0 Мбит/сек
Ширина                                   : 1920 пикселей
Высота                                   : 1080 пикселей
Соотношение сторон                       : 16:9
Частота кадров                           : 29,970 (30000/1001) кадров/сек
Цветовое пространство                    : YUV
Субдискретизация насыщенности            : 4:2:0
Битовая глубина                          : 8 бит
Тип развёртки                            : MBAFF
Метод сохранения типа развёртки          : Чередующиеся поля
Порядок развёртки                        : Верхнее поле первое
Бит/(Пиксели*Кадры)                      : 0.483
Аудио #1
Идентификатор                            : 4352 (0x1100)
Идентификатор меню                       : 1 (0x1)
Формат                                   : PCM
Параметр Endianness формата              : Big
Параметр Sign формата                    : Signed
Режим смешивания                         : Blu-ray
Идентификатор кодека                     : 128
Продолжительность                        : 1 ч. 50 м.
Вид битрейта                             : Постоянный
Битрейт                                  : 4608 Кбит/сек
Каналы                                   : 2 канала
Расположение каналов                     : Front: L R
Частота                                  : 96,0 КГц
Битовая глубина                          : 24 бит
Размер потока                            : 3,55 Гбайт (11%)
Аудио #2
Идентификатор                            : 4353 (0x1101)
Идентификатор меню                       : 1 (0x1)
Формат                                   : DTS
Формат/Информация                        : Digital Theater Systems
Профиль формата                          : MA / Core
Режим                                    : 16
Параметр Endianness формата              : Big
Режим смешивания                         : Stream extension
Идентификатор кодека                     : 134
Продолжительность                        : 1 ч. 50 м.
Вид битрейта                             : Переменный / Постоянный
Битрейт                                  : Неизвестно / 768 Кбит/сек
Каналы                                   : 6 каналов
Расположение каналов                     : Front: L C R, Side: L R, LFE
Частота                                  : 96,0 КГц / 48,0 КГц
Частота кадров                           : 93,750 кадра/сек (512 spf)
Битовая глубина                          : 24 бит
Метод сжатия                             : Без потерь / Lossy

Инфофайл

Disc Title: RAINBOW_MEMORIES_IN_ROCK
Disc Size: 43,966,142,643 bytes
Protection: AACS
BD-Java: No
BDInfo: 0.5.8
Notes:
BDINFO HOME:
Cinema Squid
http://www.cinemasquid.com/blu-ray/tools/bdinfo
INCLUDES FORUMS REPORT FOR:
AVS Forum Blu-ray Audio and Video Specifications Thread
http://www.avsforum.com/avs-vb/showthread.php?t=1155731
********************
PLAYLIST: 00000.MPLS
********************
<--- BEGIN FORUMS PASTE --->
Код:
Код:
Total   Video
Title                                                           Codec   Length  Movie Size      Disc Size       Bitrate Bitrate Main Audio Track                          Secondary Audio Track
-----                                                           ------  ------- --------------  --------------  ------- ------- ------------------                        ---------------------
00000.MPLS                                                      AVC     1:50:22 35,189,661,696  43,966,142,643  42.51   30.00   LPCM 2.0 4608Kbps (96kHz/24-bit)
DTS-HD Master 5.1 5799Kbps (96kHz/24-bit)
Код:
Код:
DISC INFO:
Disc Title:     RAINBOW_MEMORIES_IN_ROCK
Disc Size:      43,966,142,643 bytes
Protection:     AACS
BD-Java:        No
BDInfo:         0.5.8
PLAYLIST REPORT:
Name:                   00000.MPLS
Length:                 1:50:22.048 (h:m:s.ms)
Size:                   35,189,661,696 bytes
Total Bitrate:          42.51 Mbps
VIDEO:
Codec                   Bitrate             Description
-----                   -------             -----------
MPEG-4 AVC Video        30000 kbps          1080i / 29.970 fps / 16:9 / High Profile 4.1
AUDIO:
Codec                           Language        Bitrate         Description
-----                           --------        -------         -----------
LPCM Audio                      English         4608 kbps       2.0 / 96 kHz / 4608 kbps / 24-bit
DTS-HD Master Audio             English         5799 kbps       5.1 / 96 kHz / 5799 kbps / 24-bit (DTS Core: 5.1 / 48 kHz / 768 kbps / 24-bit)
FILES:
Name            Time In         Length          Size            Total Bitrate
----            -------         ------          ----            -------------
00000.M2TS      0:00:00.000     1:50:22.048     35,189,661,696  42,512
CHAPTERS:
Number          Time In         Length          Avg Video Rate  Max 1-Sec Rate  Max 1-Sec Time  Max 5-Sec Rate  Max 5-Sec Time  Max 10Sec Rate  Max 10Sec Time  Avg Frame Size  Max Frame Size  Max Frame Time
------          -------         ------          --------------  --------------  --------------  --------------  --------------  --------------  --------------  --------------  --------------  --------------
1               0:00:00.000     0:02:25.311     30,010 kbps     32,219 kbps     00:00:32.732    30,699 kbps     00:00:00.567    30,328 kbps     00:00:00.266    125,139 bytes   398,565 bytes   00:00:22.422
2               0:02:25.311     0:06:08.501     30,002 kbps     34,916 kbps     00:07:47.366    30,978 kbps     00:07:43.396    30,342 kbps     00:07:38.357    125,135 bytes   375,822 bytes   00:05:12.445
3               0:08:33.813     0:05:36.302     29,999 kbps     33,573 kbps     00:13:41.687    30,574 kbps     00:13:37.683    30,293 kbps     00:13:32.678    125,121 bytes   358,185 bytes   00:10:51.951
4               0:14:10.115     0:09:52.458     29,998 kbps     32,471 kbps     00:23:06.785    30,453 kbps     00:20:11.810    30,266 kbps     00:18:08.487    125,116 bytes   396,932 bytes   00:18:18.497
5               0:24:02.574     0:06:53.012     30,005 kbps     33,181 kbps     00:27:34.252    30,531 kbps     00:28:08.186    30,320 kbps     00:27:34.052    125,145 bytes   369,295 bytes   00:25:57.155
6               0:30:55.587     0:03:15.028     30,002 kbps     33,149 kbps     00:32:01.085    30,545 kbps     00:33:23.835    30,266 kbps     00:32:01.085    125,132 bytes   359,157 bytes   00:34:10.615
7               0:34:10.615     0:04:47.553     29,999 kbps     33,155 kbps     00:36:14.272    30,524 kbps     00:34:59.897    30,308 kbps     00:36:14.505    125,120 bytes   363,640 bytes   00:34:11.616
8               0:38:58.169     0:09:28.868     29,998 kbps     36,677 kbps     00:47:40.891    31,629 kbps     00:47:36.887    30,698 kbps     00:47:31.882    125,119 bytes   347,244 bytes   00:40:58.856
9               0:48:27.037     0:12:42.762     30,000 kbps     32,901 kbps     00:52:10.293    30,575 kbps     00:51:50.540    30,313 kbps     00:48:50.060    125,124 bytes   321,692 bytes   00:51:55.412
10              1:01:09.799     0:06:22.348     30,000 kbps     32,781 kbps     01:06:42.264    30,695 kbps     01:07:16.499    30,319 kbps     01:06:33.389    125,125 bytes   337,203 bytes   01:01:21.210
11              1:07:32.148     0:10:50.983     30,001 kbps     32,942 kbps     01:09:54.623    30,595 kbps     01:16:11.633    30,279 kbps     01:11:26.382    125,130 bytes   331,651 bytes   01:11:36.325
12              1:18:23.131     0:06:47.907     29,999 kbps     33,364 kbps     01:20:19.414    30,619 kbps     01:22:03.919    30,325 kbps     01:24:03.071    125,120 bytes   343,579 bytes   01:19:17.486
13              1:25:11.039     0:10:48.547     30,001 kbps     35,195 kbps     01:25:20.448    31,051 kbps     01:25:16.444    30,549 kbps     01:25:11.406    125,130 bytes   320,743 bytes   01:33:34.375
14              1:35:59.587     0:06:46.172     30,001 kbps     32,585 kbps     01:41:01.688    30,580 kbps     01:36:44.265    30,293 kbps     01:40:31.992    125,129 bytes   336,070 bytes   01:36:58.045
15              1:42:45.759     0:07:36.289     29,995 kbps     47,744 kbps     01:50:15.775    33,506 kbps     01:50:11.771    31,748 kbps     01:50:06.766    125,112 bytes   620,301 bytes   01:50:16.543
STREAM DIAGNOSTICS:
File            PID             Type            Codec           Language                Seconds                 Bitrate                 Bytes           Packets
----            ---             ----            -----           --------                --------------          --------------          -------------   -----
00000.M2TS      4113 (0x1011)   0x1B            AVC                                     6621.915                30,001                  24,832,788,831  135,076,686
00000.M2TS      4352 (0x1100)   0x80            LPCM            eng (English)           6621.915                4,614                   3,819,598,440   21,190,560
00000.M2TS      4353 (0x1101)   0x86            DTS-HD MA       eng (English)           6621.915                5,799                   4,800,467,132   26,790,380
<---- END FORUMS PASTE ---->
QUICK SUMMARY:
Disc Title: RAINBOW_MEMORIES_IN_ROCK
Disc Size: 43,966,142,643 bytes
Protection: AACS
BD-Java: No
Playlist: 00000.MPLS
Size: 35,189,661,696 bytes
Length: 1:50:22.048
Total Bitrate: 42.51 Mbps
Video: MPEG-4 AVC Video / 30000 kbps / 1080i / 29.970 fps / 16:9 / High Profile 4.1
Audio: English / LPCM Audio / 2.0 / 96 kHz / 4608 kbps / 24-bit
Audio: English / DTS-HD Master Audio / 5.1 / 96 kHz / 5799 kbps / 24-bit (DTS Core: 5.1 / 48 kHz / 768 kbps / 24-bit)
Disc Title: RAINBOW_MEMORIES_IN_ROCK
Disc Size: 43,966,142,643 bytes
Protection: AACS
BD-Java: No
BDInfo: 0.5.8
Notes:
BDINFO HOME:
Cinema Squid
http://www.cinemasquid.com/blu-ray/tools/bdinfo
INCLUDES FORUMS REPORT FOR:
AVS Forum Blu-ray Audio and Video Specifications Thread
http://www.avsforum.com/avs-vb/showthread.php?t=1155731
********************
PLAYLIST: 00001.MPLS
********************
<--- BEGIN FORUMS PASTE --->
Код:
Код:
Total   Video
Title                                                           Codec   Length  Movie Size      Disc Size       Bitrate Bitrate Main Audio Track                          Secondary Audio Track
-----                                                           ------  ------- --------------  --------------  ------- ------- ------------------                        ---------------------
00001.MPLS                                                      AVC     0:09:15 2,592,345,408   43,966,142,643  37.30   25.01   LPCM 2.0 4608Kbps (96kHz/24-bit)          DTS-HD Master 5.1 5837Kbps (96kHz/24-bit)
Код:
Код:
DISC INFO:
Disc Title:     RAINBOW_MEMORIES_IN_ROCK
Disc Size:      43,966,142,643 bytes
Protection:     AACS
BD-Java:        No
BDInfo:         0.5.8
PLAYLIST REPORT:
Name:                   00001.MPLS
Length:                 0:09:15.955 (h:m:s.ms)
Size:                   2,592,345,408 bytes
Total Bitrate:          37.30 Mbps
VIDEO:
Codec                   Bitrate             Description
-----                   -------             -----------
MPEG-4 AVC Video        25005 kbps          1080i / 29.970 fps / 16:9 / High Profile 4.1
AUDIO:
Codec                           Language        Bitrate         Description
-----                           --------        -------         -----------
LPCM Audio                      English         4608 kbps       2.0 / 96 kHz / 4608 kbps / 24-bit
DTS-HD Master Audio             English         5837 kbps       5.1 / 96 kHz / 5837 kbps / 24-bit (DTS Core: 5.1 / 48 kHz / 768 kbps / 24-bit)
FILES:
Name            Time In         Length          Size            Total Bitrate
----            -------         ------          ----            -------------
00001.M2TS      0:00:00.000     0:09:15.955     2,592,345,408   37,303
CHAPTERS:
Number          Time In         Length          Avg Video Rate  Max 1-Sec Rate  Max 1-Sec Time  Max 5-Sec Rate  Max 5-Sec Time  Max 10Sec Rate  Max 10Sec Time  Avg Frame Size  Max Frame Size  Max Frame Time
------          -------         ------          --------------  --------------  --------------  --------------  --------------  --------------  --------------  --------------  --------------  --------------
1               0:00:00.000     0:09:15.955     25,005 kbps     30,225 kbps     00:09:08.080    26,892 kbps     00:09:05.011    25,994 kbps     00:09:00.039    104,292 bytes   485,510 bytes   00:00:00.333
STREAM DIAGNOSTICS:
File            PID             Type            Codec           Language                Seconds                 Bitrate                 Bytes           Packets
----            ---             ----            -----           --------                --------------          --------------          -------------   -----
00001.M2TS      4113 (0x1011)   0x1B            AVC                                     1746.812                25,002                  5,459,189,778   29,700,037
00001.M2TS      4352 (0x1100)   0x80            LPCM            eng (English)           1746.812                4,615                   1,007,637,876   5,590,224
00001.M2TS      4353 (0x1101)   0x86            DTS-HD MA       eng (English)           1746.812                5,820                   1,270,714,692   7,047,705
<---- END FORUMS PASTE ---->
QUICK SUMMARY:
Disc Title: RAINBOW_MEMORIES_IN_ROCK
Disc Size: 43,966,142,643 bytes
Protection: AACS
BD-Java: No
Playlist: 00001.MPLS
Size: 2,592,345,408 bytes
Length: 0:09:15.955
Total Bitrate: 37.30 Mbps
Video: MPEG-4 AVC Video / 25005 kbps / 1080i / 29.970 fps / 16:9 / High Profile 4.1
Audio: English / LPCM Audio / 2.0 / 96 kHz / 4608 kbps / 24-bit
Audio: English / DTS-HD Master Audio / 5.1 / 96 kHz / 5837 kbps / 24-bit (DTS Core: 5.1 / 48 kHz / 768 kbps / 24-bit)
********************
PLAYLIST: 00008.MPLS
********************
<--- BEGIN FORUMS PASTE --->
Код:
Код:
Total   Video
Title                                                           Codec   Length  Movie Size      Disc Size       Bitrate Bitrate Main Audio Track                          Secondary Audio Track
-----                                                           ------  ------- --------------  --------------  ------- ------- ------------------                        ---------------------
00008.MPLS                                                      AVC     0:08:18 2,321,424,576   43,966,142,643  37.22   24.99   LPCM 2.0 4608Kbps (96kHz/24-bit)          DTS-HD Master 5.1 5766Kbps (96kHz/24-bit)
Код:
Код:
DISC INFO:
Disc Title:     RAINBOW_MEMORIES_IN_ROCK
Disc Size:      43,966,142,643 bytes
Protection:     AACS
BD-Java:        No
BDInfo:         0.5.8
PLAYLIST REPORT:
Name:                   00008.MPLS
Length:                 0:08:18.965 (h:m:s.ms)
Size:                   2,321,424,576 bytes
Total Bitrate:          37.22 Mbps
VIDEO:
Codec                   Bitrate             Description
-----                   -------             -----------
MPEG-4 AVC Video        24994 kbps          1080i / 29.970 fps / 16:9 / High Profile 4.1
AUDIO:
Codec                           Language        Bitrate         Description
-----                           --------        -------         -----------
LPCM Audio                      English         4608 kbps       2.0 / 96 kHz / 4608 kbps / 24-bit
DTS-HD Master Audio             English         5766 kbps       5.1 / 96 kHz / 5766 kbps / 24-bit (DTS Core: 5.1 / 48 kHz / 768 kbps / 24-bit)
FILES:
Name            Time In         Length          Size            Total Bitrate
----            -------         ------          ----            -------------
00001.M2TS      0:00:00.000     0:08:18.965     2,321,424,576   37,217
CHAPTERS:
Number          Time In         Length          Avg Video Rate  Max 1-Sec Rate  Max 1-Sec Time  Max 5-Sec Rate  Max 5-Sec Time  Max 10Sec Rate  Max 10Sec Time  Avg Frame Size  Max Frame Size  Max Frame Time
------          -------         ------          --------------  --------------  --------------  --------------  --------------  --------------  --------------  --------------  --------------  --------------
1               0:00:00.000     0:08:18.965     24,996 kbps     32,844 kbps     00:08:15.661    26,587 kbps     00:08:11.691    25,763 kbps     00:08:06.719    104,246 bytes   485,510 bytes   00:00:00.967
STREAM DIAGNOSTICS:
File            PID             Type            Codec           Language                Seconds                 Bitrate                 Bytes           Packets
----            ---             ----            -----           --------                --------------          --------------          -------------   -----
00001.M2TS      4113 (0x1011)   0x1B            AVC                                     1746.812                25,002                  5,459,189,778   29,700,037
00001.M2TS      4352 (0x1100)   0x80            LPCM            eng (English)           1746.812                4,615                   1,007,637,876   5,590,224
00001.M2TS      4353 (0x1101)   0x86            DTS-HD MA       eng (English)           1746.812                5,820                   1,270,714,692   7,047,705
<---- END FORUMS PASTE ---->
QUICK SUMMARY:
Disc Title: RAINBOW_MEMORIES_IN_ROCK
Disc Size: 43,966,142,643 bytes
Protection: AACS
BD-Java: No
Playlist: 00008.MPLS
Size: 2,321,424,576 bytes
Length: 0:08:18.965
Total Bitrate: 37.22 Mbps
Video: MPEG-4 AVC Video / 24994 kbps / 1080i / 29.970 fps / 16:9 / High Profile 4.1
Audio: English / LPCM Audio / 2.0 / 96 kHz / 4608 kbps / 24-bit
Audio: English / DTS-HD Master Audio / 5.1 / 96 kHz / 5766 kbps / 24-bit (DTS Core: 5.1 / 48 kHz / 768 kbps / 24-bit)
********************
PLAYLIST: 00007.MPLS
********************
<--- BEGIN FORUMS PASTE --->
Код:
Код:
Total   Video
Title                                                           Codec   Length  Movie Size      Disc Size       Bitrate Bitrate Main Audio Track                          Secondary Audio Track
-----                                                           ------  ------- --------------  --------------  ------- ------- ------------------                        ---------------------
00007.MPLS                                                      AVC     0:05:54 1,650,668,352   43,966,142,643  37.30   25.01   LPCM 2.0 4608Kbps (96kHz/24-bit)          DTS-HD Master 5.1 5835Kbps (96kHz/24-bit)
Код:
Код:
DISC INFO:
Disc Title:     RAINBOW_MEMORIES_IN_ROCK
Disc Size:      43,966,142,643 bytes
Protection:     AACS
BD-Java:        No
BDInfo:         0.5.8
PLAYLIST REPORT:
Name:                   00007.MPLS
Length:                 0:05:54.020 (h:m:s.ms)
Size:                   1,650,668,352 bytes
Total Bitrate:          37.30 Mbps
VIDEO:
Codec                   Bitrate             Description
-----                   -------             -----------
MPEG-4 AVC Video        25006 kbps          1080i / 29.970 fps / 16:9 / High Profile 4.1
AUDIO:
Codec                           Language        Bitrate         Description
-----                           --------        -------         -----------
LPCM Audio                      English         4608 kbps       2.0 / 96 kHz / 4608 kbps / 24-bit
DTS-HD Master Audio             English         5835 kbps       5.1 / 96 kHz / 5835 kbps / 24-bit (DTS Core: 5.1 / 48 kHz / 768 kbps / 24-bit)
FILES:
Name            Time In         Length          Size            Total Bitrate
----            -------         ------          ----            -------------
00001.M2TS      0:00:00.000     0:05:54.020     1,650,668,352   37,298
CHAPTERS:
Number          Time In         Length          Avg Video Rate  Max 1-Sec Rate  Max 1-Sec Time  Max 5-Sec Rate  Max 5-Sec Time  Max 10Sec Rate  Max 10Sec Time  Avg Frame Size  Max Frame Size  Max Frame Time
------          -------         ------          --------------  --------------  --------------  --------------  --------------  --------------  --------------  --------------  --------------  --------------
1               0:00:00.000     0:05:54.020     25,008 kbps     31,840 kbps     00:05:51.284    27,298 kbps     00:05:47.380    26,242 kbps     00:05:42.375    104,295 bytes   485,510 bytes   00:00:00.300
STREAM DIAGNOSTICS:
File            PID             Type            Codec           Language                Seconds                 Bitrate                 Bytes           Packets
----            ---             ----            -----           --------                --------------          --------------          -------------   -----
00001.M2TS      4113 (0x1011)   0x1B            AVC                                     1746.812                25,002                  5,459,189,778   29,700,037
00001.M2TS      4352 (0x1100)   0x80            LPCM            eng (English)           1746.812                4,615                   1,007,637,876   5,590,224
00001.M2TS      4353 (0x1101)   0x86            DTS-HD MA       eng (English)           1746.812                5,820                   1,270,714,692   7,047,705
<---- END FORUMS PASTE ---->
QUICK SUMMARY:
Disc Title: RAINBOW_MEMORIES_IN_ROCK
Disc Size: 43,966,142,643 bytes
Protection: AACS
BD-Java: No
Playlist: 00007.MPLS
Size: 1,650,668,352 bytes
Length: 0:05:54.020
Total Bitrate: 37.30 Mbps
Video: MPEG-4 AVC Video / 25006 kbps / 1080i / 29.970 fps / 16:9 / High Profile 4.1
Audio: English / LPCM Audio / 2.0 / 96 kHz / 4608 kbps / 24-bit
Audio: English / DTS-HD Master Audio / 5.1 / 96 kHz / 5835 kbps / 24-bit (DTS Core: 5.1 / 48 kHz / 768 kbps / 24-bit)
********************
PLAYLIST: 00006.MPLS
********************
<--- BEGIN FORUMS PASTE --->
Код:
Код:
Total   Video
Title                                                           Codec   Length  Movie Size      Disc Size       Bitrate Bitrate Main Audio Track                          Secondary Audio Track
-----                                                           ------  ------- --------------  --------------  ------- ------- ------------------                        ---------------------
00006.MPLS                                                      AVC     0:05:35 1,563,752,448   43,966,142,643  37.34   24.99   LPCM 2.0 4608Kbps (96kHz/24-bit)          DTS-HD Master 5.1 5890Kbps (96kHz/24-bit)
Код:
Код:
DISC INFO:
Disc Title:     RAINBOW_MEMORIES_IN_ROCK
Disc Size:      43,966,142,643 bytes
Protection:     AACS
BD-Java:        No
BDInfo:         0.5.8
PLAYLIST REPORT:
Name:                   00006.MPLS
Length:                 0:05:35.001 (h:m:s.ms)
Size:                   1,563,752,448 bytes
Total Bitrate:          37.34 Mbps
VIDEO:
Codec                   Bitrate             Description
-----                   -------             -----------
MPEG-4 AVC Video        24991 kbps          1080i / 29.970 fps / 16:9 / High Profile 4.1
AUDIO:
Codec                           Language        Bitrate         Description
-----                           --------        -------         -----------
LPCM Audio                      English         4608 kbps       2.0 / 96 kHz / 4608 kbps / 24-bit
DTS-HD Master Audio             English         5890 kbps       5.1 / 96 kHz / 5890 kbps / 24-bit (DTS Core: 5.1 / 48 kHz / 768 kbps / 24-bit)
FILES:
Name            Time In         Length          Size            Total Bitrate
----            -------         ------          ----            -------------
00001.M2TS      0:00:00.000     0:05:35.001     1,563,752,448   37,339
CHAPTERS:
Number          Time In         Length          Avg Video Rate  Max 1-Sec Rate  Max 1-Sec Time  Max 5-Sec Rate  Max 5-Sec Time  Max 10Sec Rate  Max 10Sec Time  Avg Frame Size  Max Frame Size  Max Frame Time
------          -------         ------          --------------  --------------  --------------  --------------  --------------  --------------  --------------  --------------  --------------  --------------
1               0:00:00.000     0:05:35.001     24,994 kbps     28,910 kbps     00:00:01.201    25,835 kbps     00:05:28.494    25,479 kbps     00:05:23.556    104,234 bytes   485,509 bytes   00:00:00.967
STREAM DIAGNOSTICS:
File            PID             Type            Codec           Language                Seconds                 Bitrate                 Bytes           Packets
----            ---             ----            -----           --------                --------------          --------------          -------------   -----
00001.M2TS      4113 (0x1011)   0x1B            AVC                                     1746.812                25,002                  5,459,189,778   29,700,037
00001.M2TS      4352 (0x1100)   0x80            LPCM            eng (English)           1746.812                4,615                   1,007,637,876   5,590,224
00001.M2TS      4353 (0x1101)   0x86            DTS-HD MA       eng (English)           1746.812                5,820                   1,270,714,692   7,047,705
<---- END FORUMS PASTE ---->
QUICK SUMMARY:
Disc Title: RAINBOW_MEMORIES_IN_ROCK
Disc Size: 43,966,142,643 bytes
Protection: AACS
BD-Java: No
Playlist: 00006.MPLS
Size: 1,563,752,448 bytes
Length: 0:05:35.001
Total Bitrate: 37.34 Mbps
Video: MPEG-4 AVC Video / 24991 kbps / 1080i / 29.970 fps / 16:9 / High Profile 4.1
Audio: English / LPCM Audio / 2.0 / 96 kHz / 4608 kbps / 24-bit
Audio: English / DTS-HD Master Audio / 5.1 / 96 kHz / 5890 kbps / 24-bit (DTS Core: 5.1 / 48 kHz / 768 kbps / 24-bit)
-

Line-up&#58;

Ritchie Blackmore - Guitar
Ronnie Romero - Vocals
David Keith - Drums
Bob Nouveau - Bass
Jens Johansson - Keyboards
Candice Night - Backing Vocals
Lady Lynn - Backing Vocals
-

Скриншоты

-
--

_________________
Разница между теорией и практикой в том, что теоретически разницы между теорией и практикой нет, а на практике она есть.
[Профиль] [ЛС]

Офлайн

mr.Visitor

Стаж:
4 года 4 месяца
Сообщений:
257

Сын DIO классно отжигает... вспомнился САМ Ronnie!

_________________

[Профиль] [ЛС]
Показать сообщения:    

Текущее время: Сегодня 18:40

Часовой пояс: GMT + 3



Вы не можете начинать темы
Вы не можете отвечать на сообщения
Вы не можете редактировать свои сообщения
Вы не можете удалять свои сообщения
Вы не можете голосовать в опросах
Вы не можете прикреплять файлы к сообщениям
Вы не можете скачивать файлы