(Melodic Heavy Metal) Pretty Maids - Kingmaker (Japanese Edition) - 2016 [FLAC, image +.cue, lossless] :: Bit-Torrent Трекер Emtrek.org
 
Золотые дни идет свободное скачивание без начисления Download
 

Офлайн

sergej644

Стаж:
5 лет 7 месяцев
Сообщений:
868

-Pretty Maids - Kingmaker (Japanese Edition)--
Год издания: 2016
Страна: Denmark
Жанр: Melodic Heavy Metal
Продолжительность: 01:00:22-Лейбл издания: Ward Records
Страна-выпуска диска: Japan
Номер по каталогу: GQCS-90228-Формат: FLAC
Битрейт аудио: Lossless
Тип рипа: image +.cue
Наличие сканов в содержимом раздачи: да
-

Трэклист


01.When God Took A Day Off(6:01)
02.Kingmaker(4:16)
03.Face The World(4:07)
04.Humanize Me(4:13)
05.Last Beauty On Earth(4:05)
06.Bull's Eye(3:57)
07.King Of The Right Here And Now(4:41)
08.Heavens Little Devil(3:48)
09.Civilized Monsters(4:57)
10.Sickening(3:46)
11.Was That What You Wanted(5:01)
12.Kingmaker (Extended Version)(5:46)
13.Humanize Me (Extended Version)(5:42)
-

Лог создания рипа

Код:
Exact Audio Copy V1.1 from 23. June 2015
EAC extraction logfile from 24. October 2016, 18:34
Pretty Maids / Kingmaker
Used drive  : HL-DT-STBD-RE  BH14NS40   Adapter: 1  ID: 2
Read mode               : Secure
Utilize accurate stream : Yes
Defeat audio cache      : Yes
Make use of C2 pointers : No
Read offset correction                      : 6
Overread into Lead-In and Lead-Out          : No
Fill up missing offset samples with silence : Yes
Delete leading and trailing silent blocks   : No
Null samples used in CRC calculations       : Yes
Used interface                              : Native Win32 interface for Win NT & 2000
Used output format              : User Defined Encoder
Selected bitrate                : 896 kBit/s
Quality                         : High
Add ID3 tag                     : No
Command line compressor         : C:\Program Files\Exact Audio Copy\Flac\flac.exe
Additional command line options : -V -8 -T "Date=%year%" -T "Genre=%genre%" %source%
TOC of the extracted CD
     Track |   Start  |  Length  | Start sector | End sector
    ---------------------------------------------------------
        1  |  0:00.00 |  6:01.33 |         0    |    27107
        2  |  6:01.33 |  4:16.33 |     27108    |    46340
        3  | 10:17.66 |  4:06.60 |     46341    |    64850
        4  | 14:24.51 |  4:13.25 |     64851    |    83850
        5  | 18:38.01 |  4:05.21 |     83851    |   102246
        6  | 22:43.22 |  3:56.66 |    102247    |   120012
        7  | 26:40.13 |  4:41.09 |    120013    |   141096
        8  | 31:21.22 |  3:48.34 |    141097    |   158230
        9  | 35:09.56 |  4:57.24 |    158231    |   180529
       10  | 40:07.05 |  3:45.74 |    180530    |   197478
       11  | 43:53.04 |  5:00.44 |    197479    |   220022
       12  | 48:53.48 |  5:46.14 |    220023    |   245986
       13  | 54:39.62 |  5:42.22 |    245987    |   271658
Range status and errors
Selected range
     Filename E:\Pretty Maids - Kingmaker (Japanese Edition) (2016)\Pretty Maids.wav
     Peak level 98.8 %
     Extraction speed 2.6 X
     Range quality 99.9 %
     Test CRC 7BFC8887
     Copy CRC 7BFC8887
     Copy OK
No errors occurred
AccurateRip summary
Track  1  not present in database
Track  2  not present in database
Track  3  not present in database
Track  4  not present in database
Track  5  not present in database
Track  6  not present in database
Track  7  not present in database
Track  8  not present in database
Track  9  not present in database
Track 10  not present in database
Track 11  not present in database
Track 12  not present in database
Track 13  not present in database
None of the tracks are present in the AccurateRip database
End of status report

Индексная карта (non-compilant .cue)

Код:
REM GENRE "Heavy Metal"
REM DATE 2016
REM DISCID A70E260D
REM COMMENT "ExactAudioCopy v1.1"
PERFORMER "Pretty Maids"
TITLE "Kingmaker"
FILE "Pretty Maids.flac" WAVE
  TRACK 01 AUDIO
    TITLE "When God Took A Day Off"
    PERFORMER "Pretty Maids"
    INDEX 01 00:00:00
  TRACK 02 AUDIO
    TITLE "Kingmaker"
    PERFORMER "Pretty Maids"
    INDEX 01 06:01:33
  TRACK 03 AUDIO
    TITLE "Face The World"
    PERFORMER "Pretty Maids"
    INDEX 01 10:17:66
  TRACK 04 AUDIO
    TITLE "Humanize Me"
    PERFORMER "Pretty Maids"
    INDEX 01 14:24:51
  TRACK 05 AUDIO
    TITLE "Last Beauty On Earth"
    PERFORMER "Pretty Maids"
    INDEX 01 18:38:01
  TRACK 06 AUDIO
    TITLE "Bull's Eye"
    PERFORMER "Pretty Maids"
    INDEX 01 22:43:22
  TRACK 07 AUDIO
    TITLE "King Of The Right Here And Now"
    PERFORMER "Pretty Maids"
    INDEX 01 26:40:13
  TRACK 08 AUDIO
    TITLE "Heavens Little Devil"
    PERFORMER "Pretty Maids"
    INDEX 01 31:21:22
  TRACK 09 AUDIO
    TITLE "Civilized Monsters"
    PERFORMER "Pretty Maids"
    INDEX 01 35:09:56
  TRACK 10 AUDIO
    TITLE "Sickening"
    PERFORMER "Pretty Maids"
    INDEX 01 40:07:05
  TRACK 11 AUDIO
    TITLE "Was That What You Wanted"
    PERFORMER "Pretty Maids"
    INDEX 01 43:53:04
  TRACK 12 AUDIO
    TITLE "Kingmaker (Extended Version)"
    PERFORMER "Pretty Maids"
    INDEX 01 48:53:48
  TRACK 13 AUDIO
    TITLE "Humanize Me (Extended Version)"
    PERFORMER "Pretty Maids"
    INDEX 01 54:39:62
--

_________________
Разница между теорией и практикой в том, что теоретически разницы между теорией и практикой нет, а на практике она есть.
[Профиль] [ЛС]
Показать сообщения:    

Текущее время: Сегодня 11:16

Часовой пояс: GMT + 3



Вы не можете начинать темы
Вы не можете отвечать на сообщения
Вы не можете редактировать свои сообщения
Вы не можете удалять свои сообщения
Вы не можете голосовать в опросах
Вы не можете прикреплять файлы к сообщениям
Вы не можете скачивать файлы