Today is free to download without increasing Download
 

Offline

Мария

Longevity:
4 years
Posts:
3725

Новогодняя «Дискотека 80-х» (2015.12.31-2016.01.01) HDTV [H.264/1080i-LQ] - Производство: НТВ
Жанр: Концерт
Описание:
В праздничную ночь Новогоднее Телевидение (а именно так НТВ будет расшифровываться с 27 по 31 декабря) приготовило своим зрителям фантастический музыкальный подарок — телеверсию международного фестиваля «Авторадио» «Новогодняя дискотека 80-х». Все любимые хиты, неподвластные времени, прозвучат на одной сцене в самое волшебное время года! К постоянным участникам «Дискотеки» — Вячеславу Добрынину, Андрею Державину, Сергею Минаеву, группе «Кар-Мэн», присоединятся «дебютанты», прославившиеся в 80-е — золотое время для всех стилей и направлений музыки. На сцене грандиозного шоу выступят Армен Григорян и группа «Крематорий», Вячеслав Бутусов с незабываемыми композициями «Наутилуса Помпилиуса» и «Кино», стильная электронная группа «Технология»… Конечно, не обойдется без мелодий и ритмов зарубежной эстрады — зажигательных Boney M, Саманты Фокс, C. C. Catch, Secret Service, а также «Рикки и Повери», Savage, Joy и многих других. Впервые к гостям фестиваля присоединится знаменитый Крис де Бург, чья романтическая баллада The Lady In Red в конце 80-х взорвала мировые музыкальные чарты и стала самым популярным дискотечным «медляком» в СССР.
Трекслист:
01. Сергей Минаев - Братец Луи
02. Владимир Маркин - Белая Черёмуха
03. Samantha Fox - Touch Me
04. Samantha Fox - Hot Stuff
05. Samantha Fox - Nothing's Gonna Stop Me Now
06. Кар-Мэн - Чио-Чио-Сан
07. Кар-Мэн - Лондон, Гудбай
08. Михаил Боярский - Зеленоглазое Такси

Продолжение треклиста

09. Вячеслав Добрынин - Мегамикс (Спасатель, Качается вагон, Колодец, Казино, Колдовское озеро, Льется музыка)
10. Любэ - Батька Махно
11. Любэ - Любимый Мой Дворик
12. Любэ - Не Валяй Дурака, Америка!
13. Boney M - Bahama Mama
14. Boney M - Daddy Cool
15. Boney M - Rasputin
16. Дюна - Страна Лимония
17. Дюна - Привет с большого Бодуна
18. C.C.Catch - I Can Lose My Heart Tonight
19. C.C.Catch - Heaven And Hell
20. C.C.Catch - Megamix (Strangers by night, Cause you are young, Like a Hurricane, Midnight gambler)
21. Ricchi E Poveri - Sara Perche Ti Amo
22. Ricchi E Poveri - Venezia
23. Ricchi E Poveri - Made in Italy
24. Вячеслав Бутусов и гр. Юпитер - Круговая Порука (Скованные Одной Цепью)
25. Вячеслав Бутусов и гр. Юпитер - Звезда По Имени Солнце
26. Вячеслав Бутусов и гр. Юпитер - Гудбай, Америка
27. F.R.David - Girl
28. F.R.David - Words
29. Самоцветы - Всё, Что В Жизни Есть У Меня
30. Самоцветы - Мой Адрес - Советский Союз
31. Joy - Valerie
32. Joy - Japanese Girls
33. Joy - Touch By Touch
34. Земляне - Мегамикс (Каскадеры, Трава у дома)
35. Сергей Васюта и гр. Сладкий Сон - На Белом Покрывале Января
36. Barrabas - Dolores
37. Крематорий - Мусорный ветер
38. Secret Service - L.A. Goodbye (в титрах Las goodbye)
39. Secret Service - Flash In The Night
40. Secret Service - Ten O’Clock Postman
41. Андрей Державин - Чужая Свадьба
42. Savage - Only You
43. Savage - Don't Cry Tonight
44. Savage - Goodbye
45. Технология - Нажми На Кнопку
46. Комиссар - Ты Уйдёшь
47. Chris De Burgh - Moonlight And Vodka
48. Chris De Burgh - Missing You
49. Chris De Burgh - Don't Pay The Ferryman
50. Chris De Burgh - Lady In Red
Продолжительность: 03:16:11
Качество видео: HDTV
Субтитры: Отсутствуют
Видео: AVC, 1920x1080 (16:9), 25.000 fps, 7 871 Kbps (0.152 bit/pixel)
Аудио: MP2, 48.0 KHz, 2 ch, 192 Kbps, CBR

Mediainfo:

Код:
Формат                                   : MPEG-TS
Размер файла                             : 11,6 Гбайт
Продолжительность                        : 3 ч. 16 м.
Режим общего битрейта                    : Переменный
Общий поток                              : 8484 Кбит/сек
Видео
Идентификатор                            : 901 (0x385)
Идентификатор меню                       : 90 (0x5A)
Формат                                   : AVC
Формат/Информация                        : Advanced Video Codec
Профиль формата                          : Main@L4
Параметр CABAC формата                   : Да
Параметр ReFrames формата                : 2 кадра
Идентификатор кодека                     : 27
Продолжительность                        : 3 ч. 16 м.
Битрейт                                  : 7871 Кбит/сек
Ширина                                   : 1920 пикселей
Высота                                   : 1080 пикселей
Соотношение сторон                       : 16:9
Частота кадров                           : 25,000 кадров/сек
Цветовое пространство                    : YUV
Субдискретизация насыщенности            : 4:2:0
Битовая глубина                          : 8 бит
Тип развёртки                            : MBAFF
Порядок развёртки                        : Верхнее поле первое
Бит/(Пиксели*Кадры)                      : 0.152
Размер потока                            : 10,8 Гбайт (93%)
Цветовой диапазон                        : Limited
Основные цвета                           : BT.709
Характеристики трансфера                 : BT.709
Коэффициенты матрицы                     : BT.709
Аудио
Идентификатор                            : 902 (0x386)
Идентификатор меню                       : 90 (0x5A)
Формат                                   : MPEG Audio
Версия формата                           : Version 1
Профиль формата                          : Layer 2
Идентификатор кодека                     : 3
Продолжительность                        : 3 ч. 16 м.
Вид битрейта                             : Постоянный
Битрейт                                  : 192 Кбит/сек
Каналы                                   : 2 канала
Частота                                  : 48,0 КГц
Метод сжатия                             : С потерями
Размер потока                            : 269 Мбайт (2%)
Язык                                     : Russian
Скриншоты:

Скриншоты:


_________________
моя страничка
[Profile] [PM]
Display posts from previous:    

The time now is: Today 19:15

All times are GMT + 3 Hours



You cannot post new topics in this forum
You cannot reply to topics in this forum
You cannot edit your posts in this forum
You cannot delete your posts in this forum
You cannot vote in polls in this forum
You cannot attach files in this forum
You cannot download files in this forum