Today is free to download without increasing Download
 

Offline

ликонтроп

Longevity:
6 years 10 months
Posts:
1593

Dead Factory & Atum - Strefa
Жанр: Industrial, Noise
Год выпуска диска: 2006
Производитель диска: Poland [Beast Of Prey]
Аудио кодек: FLAC
Тип рипа: image+.cue
Битрейт аудио: lossless
Продолжительность: 51'16''
Трэклист:
Dead Factory
1. The Awakening (8:08)
2. Kingdom Of Rust And Concrete (8:28)
3. Astral Journey (4:55)
4. Extinction (5:36)
Atum
5. Zona I (5:56)
6. Zona II (6:20)
7. Zona III (7:00)
8. Zona IV (4:54)
Notes
150 x 140 mm format. Made from a 70 cm, grey, printed cardboard on which two pockets are placed. In pockets there are two photographs chosen from six different and a steel net. In the front of the cover there is a photography in 120 x 120 mm format. All is foiled and hand-numerated to 213 items. Professionally made CDr.
Отчет EAC
Exact Audio Copy V0.99 prebeta 4 from 23. January 2008
Отчёт EAC об извлечении, выполненном 18. февраля 2009, 16:55
Various / Strefa
Дисковод: PIONEER DVD-RW DVR-115D Adapter: 4 ID: 0
Режим чтения : Достоверность
Использование точного потока : Да
Отключение кэша аудио : Да
Использование указателей C2 : Нет
Коррекция смещения при чтении : 48
Способность читать области Lead-in и Lead-out : Нет
Заполнение пропущенных сэмплов тишиной : Да
Удаление блоков с тишиной в начале и конце : Нет
При вычислениях CRC использовались нулевые сэмплы : Да
Интерфейс : Установленный внешний ASPI-интерфейс
Выходной формат : Пользовательский кодировщик
Выбранный битрейт : 1024 kBit/s
Качество : Высокий
Добавление ID3-тэга : Нет
Утилита сжатия : C:\Program Files\Exact Audio Copy\Flac\flac.exe
Дополнительные параметры : -T "artist=%a" -T "title=%t" -T "album=%g" -T "date=%y" -T "tracknumber=%n" -T "genre=%m" %s
TOC извлечённого CD
Трек | Старт | Длительность | Начальный сектор | Конечный сектор
---------------------------------------------------------------------
1 | 0:00.00 | 8:07.67 | 0 | 36591
2 | 8:07.67 | 8:27.53 | 36592 | 74669
3 | 16:35.45 | 4:55.12 | 74670 | 96806
4 | 21:30.57 | 5:35.69 | 96807 | 122000
5 | 27:06.51 | 5:55.51 | 122001 | 148676
6 | 33:02.27 | 6:19.72 | 148677 | 177173
7 | 39:22.24 | 7:00.28 | 177174 | 208701
8 | 46:22.52 | 4:54.00 | 208702 | 230751
Характеристики диапазона извлечения и сообщения об ошибках
Выбранный диапазон
Имя файла D:\REQUEST\Dead Factory & Atum - 2006 - Strefa\Various - Strefa.wav
Пиковый уровень 99.9 %
Качество диапазона 100.0 %
CRC теста 477E0727
CRC копии 477E0727
Копирование... OK
Ошибок не произошло
AccurateRip: сводка
Трек 1 нет в базе данных
Трек 2 нет в базе данных
Трек 3 нет в базе данных
Трек 4 нет в базе данных
Трек 5 нет в базе данных
Трек 6 нет в базе данных
Трек 7 нет в базе данных
Трек 8 нет в базе данных
Ни одного трека нет в базе AccurateRip
Конец отчёта
Отчет AudioChecker
AUDIOCHECKER v1.2 - by Dester - opdester@freemail.hu
~~~~~~~~~~~~~~~~~
1 -===- D:\REQUEST\Dead Factory & Atum - 2006 - Strefa\Various - Strefa.flac
Extracted successfully
Conclusion: This track looks like CDDA with probability 100%
Сканы оформления прилагаются

_________________
Signed off for violation of forum rules
[Profile] [PM]

Offline

Кирил

Longevity:
6 years 6 months
Posts:
274

Чёт не качается.
[Profile] [PM]
Display posts from previous:    

The time now is: Today 16:34

All times are GMT + 3 Hours



You cannot post new topics in this forum
You cannot reply to topics in this forum
You cannot edit your posts in this forum
You cannot delete your posts in this forum
You cannot vote in polls in this forum
You cannot attach files in this forum
You cannot download files in this forum