Today is free to download without increasing Download
 

Online

andrew6572

Longevity:
6 years 11 months
Posts:
6093


Жанр: Hard Rock
Продолжительность: 00:04:36
Год выпуска: 2015
Описание: Slash is joined by Myles Kennedy and the Conspirators to perform a song from his album World on Fire. Conan Show 02/05/15
Качество: HDTV 720p
Контейнер: MKV
Видео кодек: H.264
Аудио кодек: AC3
Видео: AVC, 1280x720 (16:9), 3 700 Kbps, 29.97 fps
Аудио: AC3, 448 Kbps, 48 KHz, 6 ch
Аудио 2: AC3, 192 Kbps, 48 KHz, 2 ch

MediaInfo

General
Unique ID : 211748202086178768552869678800191986098 (0x9F4D386606A7A5789008652E03C199B2)
Complete name : K:\Slash_ft_Myles_Kennedy_and_The_Conspirators-Bent_to_Fly_(Conan_2015-02-05)-720p-x264-2015-SRP\slash_ft_myles_kennedy_and_the_conspirators-bent_to_fly_(conan_2015-02-05)-720p-x264-2015-srp.mkv
Format : Matroska
Format version : Version 2
File size : 146 MiB
Duration : 4mn 36s
Overall bit rate : 4 428 Kbps
Encoded date : UTC 2015-02-09 21:49:09
Writing application : mkvmerge v4.0.0 ('The Stars were mine') built on Jun 6 2010 16:18:42
Writing library : libebml v1.0.0 + libmatroska v1.0.0
Video
ID : 1
Format : AVC
Format/Info : Advanced Video Codec
Format profile : High@L4.1
Format settings, CABAC : Yes
Format settings, ReFrames : 5 frames
Codec ID : V_MPEG4/ISO/AVC
Duration : 4mn 36s
Bit rate : 3 700 Kbps
Width : 1 280 pixels
Height : 720 pixels
Display aspect ratio : 16:9
Frame rate mode : Constant
Frame rate : 29.970 fps
Color space : YUV
Chroma subsampling : 4:2:0
Bit depth : 8 bits
Scan type : Progressive
Bits/(Pixel*Frame) : 0.134
Stream size : 122 MiB (84%)
Title : * SRP * 2015 *
Writing library : x264 core 144 r2525 40bb568
Encoding settings : cabac=1 / ref=5 / deblock=1:-2:-1 / analyse=0x3:0x133 / me=umh / subme=9 / psy=1 / psy_rd=1.00:0.00 / mixed_ref=1 / me_range=24 / chroma_me=1 / trellis=2 / 8x8dct=1 / cqm=0 / deadzone=21,11 / fast_pskip=1 / chroma_qp_offset=-2 / threads=9 / lookahead_threads=2 / sliced_threads=0 / nr=0 / decimate=1 / interlaced=0 / bluray_compat=0 / constrained_intra=0 / bframes=16 / b_pyramid=2 / b_adapt=2 / b_bias=0 / direct=3 / weightb=1 / open_gop=0 / weightp=2 / keyint=250 / keyint_min=25 / scenecut=40 / intra_refresh=0 / rc_lookahead=60 / rc=crf / mbtree=1 / crf=18.0 / qcomp=0.60 / qpmin=0 / qpmax=69 / qpstep=4 / ip_ratio=1.40 / aq=1:1.00
Default : Yes
Forced : No
Audio #1
ID : 2
Format : AC-3
Format/Info : Audio Coding 3
Mode extension : CM (complete main)
Format settings, Endianness : Big
Codec ID : A_AC3
Duration : 4mn 36s
Bit rate mode : Constant
Bit rate : 448 Kbps
Channel(s) : 6 channels
Channel positions : Front: L C R, Side: L R, LFE
Sampling rate : 48.0 KHz
Bit depth : 16 bits
Compression mode : Lossy
Delay relative to video : 28ms
Stream size : 14.7 MiB (10%)
Language : English
Default : Yes
Forced : No
Audio #2
ID : 3
Format : AC-3
Format/Info : Audio Coding 3
Mode extension : CM (complete main)
Format settings, Endianness : Big
Codec ID : A_AC3
Duration : 4mn 36s
Bit rate mode : Constant
Bit rate : 192 Kbps
Channel(s) : 2 channels
Channel positions : Front: L R
Sampling rate : 48.0 KHz
Bit depth : 16 bits
Compression mode : Lossy
Delay relative to video : 12ms
Stream size : 6.32 MiB (4%)
Language : Spanish
Default : No
Forced : No

Скриншоты



_________________
"Любая война – всего лишь трусливое бегство от проблем мирного времени." Томас Манн.
[Profile] [PM]
Display posts from previous:    

The time now is: Today 10:50

All times are GMT + 3 Hours



You cannot post new topics in this forum
You cannot reply to topics in this forum
You cannot edit your posts in this forum
You cannot delete your posts in this forum
You cannot vote in polls in this forum
You cannot attach files in this forum
You cannot download files in this forum