Today is free to download without increasing Download
 

Online

andrew6572

Longevity:
6 years 11 months
Posts:
6093

Axel Rudi Pell - Live on Fire (Part2) Страна: Germany
Жанр: Hard Rock, Melodic Heavy Metal
Продолжительность: 01:19:23
Год выпуска: 2013 г.-Описание: В марте 2013 года на лейбле SPV/Steamhammer вышел новый концертный CD/DVD AXEL RUDI PELL "Live On Fire". В него вошли записи двух прошлогодних выступлений музыканта в рамках тура в поддержку последнего альбома "Circle Of The Oath": сольного концерта в Кёльне и фестивального выступления на немецком Rock Of Ages Festival.-Треклист:
01. The Guilolotine Suite (Intro)
02. Ghost in the Black
03. Strong as a Rock
04. Before I Die
05. Masquerade Ball / Casbah / Dreaming Dead / Whole Lotta Love / Dreaming Dead
06. Drum Solo
07. Mystica / Mistreated / Mystica
08. Oceans of Time
09. Circle of the Oath
10. Tear Down the Walls / Nasty Reputation
11. Rock the Nation
-Качество: DVDRip
Контейнер: AVI
Видео кодек: XviD
Аудио кодек: AC3
Видео: 720x400 (1.80:1), 25 fps, XviD build 50 ~2168 kbps avg, 0.30 bit/pixel
Аудио: 48 kHz, AC3 Dolby Digital, 3/2 (L,C,R,l,r) + LFE ch, ~448 kbps

МедиаИнфо

General
Полное имя : D:\новая папка\Axel Rudi Pell - Live on Fire. (Part 2)..avi
Формат : AVI
Формат/Информация : Audio Video Interleave
Размер файла : 1.45 GiB
Продолжительность : 1h 19mn
Общий поток : 2 620 Kbps
Программа кодирования : VirtualDubMod 1.5.10.2 (build 2540/release)
Библиотека кодирования : VirtualDubMod build 2540/release
Video
Идентификатор : 0
Формат : MPEG-4 Visual
Профиль формата : Advanced Simple@L5
Параметр BVOP формата : 1
Параметр QPel формата : No
Параметр GMC формата : No warppoints
Параметр матрицы формата : Default (H.263)
Идентификатор кодека : XVID
Идентификатор кодека/Подсказка : XviD
Продолжительность : 1h 19mn
Битрейт : 2 168 Kbps
Ширина : 720 pixels
Высота : 400 pixels
Соотношение сторон : 16:9
Частота кадров : 25.000 fps
Цветовое пространство : YUV
Субдискретизация насыщенности : 4:2:0
Битовая глубина : 8 bits
Тип развёртки : Progressive
Метод сжатия : Lossy
Бит/(Пиксели*Кадры) : 0.301
Размер потока : 1.20 GiB (83%)
Библиотека кодирования : XviD 1.2.1 (UTC 2008-12-04)
Audio
Идентификатор : 1
Формат : AC-3
Формат/Информация : Audio Coding 3
Расширение режима : CM (complete main)
Параметр Endianness формата : Big
Идентификатор кодека : 2000
Продолжительность : 1h 18mn
Вид битрейта : Constant
Битрейт : 448 Kbps
Каналы : 6 channels
Расположение каналов : Front: L C R, Side: L R, LFE
Частота : 48.0 KHz
Битовая глубина : 16 bits
Метод сжатия : Lossy
Размер потока : 251 MiB (17%)
Выравнивание : Aligned on interleaves
Продолжительность промежутка : 41 ms (1.01 video frame)
Время предзагрузки промежутка : 512 ms

Скриншоты


_________________
"Любая война – всего лишь трусливое бегство от проблем мирного времени." Томас Манн.
[Profile] [PM]
Display posts from previous:    

The time now is: Today 18:05

All times are GMT + 3 Hours



You cannot post new topics in this forum
You cannot reply to topics in this forum
You cannot edit your posts in this forum
You cannot delete your posts in this forum
You cannot vote in polls in this forum
You cannot attach files in this forum
You cannot download files in this forum