Золотые дни идет свободное скачивание без начисления Download
 

Онлайн

andrew6572

Стаж:
4 года 10 месяцев
Сообщений:
5396

Various Artists - Best of Chillout Moods
Жанр: Ambient, Jazz, Lounge
Год выпуска диска: 2005
Производитель диска: н/д
Аудио кодек: DTS
Тип рипа: tracks+.cue
Продолжительность: 01:15:02
Трэклист:
01. Amarna - Night Rain (5:09)
02. Christopher Franke - Black Garden View (4:52)
03. Divine Works - Ancient Person Of My Heart (3:23)
04. Dune - Who Wants To Live Forever (3:58)
05. Enigma - Sadness Part I (4:07)
06. Gerry Rafferty - The Right Moment (3:15)
07. Jonathan Caine - Body Language (4:33)
08. Michael Gettel - Cumbrina Autumn (6:43)
09. Michael Nyman - The Heart Asks Pleasure First - The Promise (3:12)
10. Miles Inc. - Children (3:51)
11. Neal Schon - Cool Breeze (4:51)
12. David Sylvian & Ryuichi Sakamoto - Forbidden Colors (5:31)
13. Sacred Spirit - You've Gotta Learn (Three Kingdoms) (3:53)
14. Simple Minds - Somebody Up There Likes You (4:47)
15. Soul II Soul - Courtney Blows (4:29)
16. Spencer Brewer - Portraits (4:32)
17. EDGE - Rowena's Theme (3:56)
Доп. информация:
Обложка не от этого релиза. Правильную обложку найти не удается
Источник: What.CD.
Релизер: net

Отчет ЕАС

Exact Audio Copy V0.99 prebeta 4 from 23. January 2008
EAC extraction logfile from 2. November 2008, 19:11
Various Artist / Best of Chillout Moods (DTS)
Used drive : MATSHITAUJ-842D Adapter: 0 ID: 0
Read mode : Secure
Utilize accurate stream : Yes
Defeat audio cache : No
Make use of C2 pointers : Yes
Combined read/write offset correction : 0
Overread into Lead-In and Lead-Out : No
Fill up missing offset samples with silence : Yes
Delete leading and trailing silent blocks : No
Null samples used in CRC calculations : No
Used interface : Native Win32 interface for Win NT & 2000
Gap handling : Not detected, thus appended to previous track
Used output format : Internal WAV Routines
Sample format : 44.100 Hz; 16 Bit; Stereo
TOC of the extracted CD
Track | Start | Length | Start sector | End sector
---------------------------------------------------------
1 | 0:00.00 | 5:09.70 | 0 | 23244
2 | 5:09.70 | 4:52.48 | 23245 | 45192
3 | 10:02.43 | 3:23.69 | 45193 | 60486
4 | 13:26.37 | 3:58.04 | 60487 | 78340
5 | 17:24.41 | 4:07.01 | 78341 | 96866
6 | 21:31.42 | 3:15.33 | 96867 | 111524
7 | 24:47.00 | 4:33.31 | 111525 | 132030
8 | 29:20.31 | 6:43.72 | 132031 | 162327
9 | 36:04.28 | 3:12.52 | 162328 | 176779
10 | 39:17.05 | 3:51.03 | 176780 | 194107
11 | 43:08.08 | 4:51.71 | 194108 | 216003
12 | 48:00.04 | 5:31.03 | 216004 | 240831
13 | 53:31.07 | 3:53.51 | 240832 | 258357
14 | 57:24.58 | 4:47.27 | 258358 | 279909
15 | 62:12.10 | 4:29.73 | 279910 | 300157
16 | 66:42.08 | 4:32.10 | 300158 | 320567
17 | 71:14.18 | 3:56.33 | 320568 | 338300
Track 1
Filename C:\Users\Administrator\Documents\What.cd\Best of Chillout Moods\Various Artists - Best of Chillout Moods (2005) DTS\01 - Night Rain.wav
Peak level 25.0 %
Track quality 99.9 %
Test CRC 14C61A39
Copy CRC 14C61A39
Copy OK
Track 2
Filename C:\Users\Administrator\Documents\What.cd\Best of Chillout Moods\Various Artists - Best of Chillout Moods (2005) DTS\02 - Black Garden View.wav
Peak level 25.0 %
Track quality 100.0 %
Test CRC 96FB025E
Copy CRC 96FB025E
Copy OK
Track 3
Filename C:\Users\Administrator\Documents\What.cd\Best of Chillout Moods\Various Artists - Best of Chillout Moods (2005) DTS\03 - Ancient Person of my Heart.wav
Peak level 25.0 %
Track quality 100.0 %
Test CRC DEF4CBA6
Copy CRC DEF4CBA6
Copy OK
Track 4
Filename C:\Users\Administrator\Documents\What.cd\Best of Chillout Moods\Various Artists - Best of Chillout Moods (2005) DTS\04 - Who wants to live forever.wav
Peak level 25.0 %
Track quality 100.0 %
Test CRC 5454C1EB
Copy CRC 5454C1EB
Copy OK
Track 5
Filename C:\Users\Administrator\Documents\What.cd\Best of Chillout Moods\Various Artists - Best of Chillout Moods (2005) DTS\05 - Sadness Part I.wav
Peak level 25.0 %
Track quality 100.0 %
Test CRC 4BFFD3CB
Copy CRC 4BFFD3CB
Copy OK
Track 6
Filename C:\Users\Administrator\Documents\What.cd\Best of Chillout Moods\Various Artists - Best of Chillout Moods (2005) DTS\06 - The Right Moment.wav
Peak level 25.0 %
Track quality 100.0 %
Test CRC D7EABC77
Copy CRC D7EABC77
Copy OK
Track 7
Filename C:\Users\Administrator\Documents\What.cd\Best of Chillout Moods\Various Artists - Best of Chillout Moods (2005) DTS\07 - Body language.wav
Peak level 25.0 %
Track quality 100.0 %
Test CRC B5D29AF4
Copy CRC B5D29AF4
Copy OK
Track 8
Filename C:\Users\Administrator\Documents\What.cd\Best of Chillout Moods\Various Artists - Best of Chillout Moods (2005) DTS\08 - Cumbrina Autumn.wav
Peak level 25.0 %
Track quality 100.0 %
Test CRC 95633AEE
Copy CRC 95633AEE
Copy OK
Track 9
Filename C:\Users\Administrator\Documents\What.cd\Best of Chillout Moods\Various Artists - Best of Chillout Moods (2005) DTS\09 - The Heart Asks Pleasure First - The Promise.wav
Peak level 25.0 %
Track quality 100.0 %
Test CRC F5FD042F
Copy CRC F5FD042F
Copy OK
Track 10
Filename C:\Users\Administrator\Documents\What.cd\Best of Chillout Moods\Various Artists - Best of Chillout Moods (2005) DTS\10 - Children.wav
Peak level 25.0 %
Track quality 100.0 %
Test CRC 9C68CBCC
Copy CRC 9C68CBCC
Copy OK
Track 11
Filename C:\Users\Administrator\Documents\What.cd\Best of Chillout Moods\Various Artists - Best of Chillout Moods (2005) DTS\11 - Cool breeze.wav
Peak level 25.0 %
Track quality 100.0 %
Test CRC B02D28ED
Copy CRC B02D28ED
Copy OK
Track 12
Filename C:\Users\Administrator\Documents\What.cd\Best of Chillout Moods\Various Artists - Best of Chillout Moods (2005) DTS\12 - Forbidden Colors.wav
Peak level 25.0 %
Track quality 100.0 %
Test CRC 0295FE2E
Copy CRC 0295FE2E
Copy OK
Track 13
Filename C:\Users\Administrator\Documents\What.cd\Best of Chillout Moods\Various Artists - Best of Chillout Moods (2005) DTS\13 - You've Gotta Learn (Three Kingdoms).wav
Peak level 25.0 %
Track quality 100.0 %
Test CRC 1BCC1B6E
Copy CRC 1BCC1B6E
Copy OK
Track 14
Filename C:\Users\Administrator\Documents\What.cd\Best of Chillout Moods\Various Artists - Best of Chillout Moods (2005) DTS\14 - Somebody up there likes you.wav
Peak level 25.0 %
Track quality 100.0 %
Test CRC FEB7EA28
Copy CRC FEB7EA28
Copy OK
Track 15
Filename C:\Users\Administrator\Documents\What.cd\Best of Chillout Moods\Various Artists - Best of Chillout Moods (2005) DTS\15 - Courtney Blows.wav
Peak level 25.0 %
Track quality 99.9 %
Test CRC 06F09940
Copy CRC 06F09940
Copy OK
Track 16
Filename C:\Users\Administrator\Documents\What.cd\Best of Chillout Moods\Various Artists - Best of Chillout Moods (2005) DTS\16 - Portraits.wav
Peak level 25.0 %
Track quality 100.0 %
Test CRC 62154AD1
Copy CRC 62154AD1
Copy OK
Track 17
Filename C:\Users\Administrator\Documents\What.cd\Best of Chillout Moods\Various Artists - Best of Chillout Moods (2005) DTS\17 - Rowena's Theme.wav
Peak level 25.0 %
Track quality 100.0 %
Test CRC ECA28A56
Copy CRC ECA28A56
Copy OK
No errors occurred
End of status report

_________________
"Любая война – всего лишь трусливое бегство от проблем мирного времени." Томас Манн.
[Профиль] [ЛС]

Офлайн

sg2089

Стаж:
3 года 11 месяцев
Сообщений:
273

Спасибо! Скачаю трек и «заценю» DTS…

_________________
I'm not a complete idiot, some parts are missing!
[Профиль] [ЛС]

Офлайн

ss607e

Стаж:
3 года 3 месяца
Сообщений:
756

Качество достойное... ay az кстати обычный MPC-HC воспроизводит на ура если кто сомневается...

_________________
De Vliegende Hollander
[Профиль] [ЛС]
Показать сообщения:    

Текущее время: Сегодня 10:01

Часовой пояс: GMT + 3



Вы не можете начинать темы
Вы не можете отвечать на сообщения
Вы не можете редактировать свои сообщения
Вы не можете удалять свои сообщения
Вы не можете голосовать в опросах
Вы не можете прикреплять файлы к сообщениям
Вы не можете скачивать файлы