Today is free to download without increasing Download
 

Offline

Cool2013

Longevity:
5 years 11 months
Posts:
608

Охотники на гангстеров / Gangster Squad (2013) BDRip [1080p] ATV
«Ни имён. Ни закона. Ни жалости»
- Год выпуска: 2013
Страна: США
Жанр: боевик, триллер, драма, криминал
Продолжительность: 01:52:55
Перевод: Профессиональный (дублированный)
Оригинальная аудиодорожка: Есть
Cубтитры: Русские, Английские
Режиссёр: Рубен Флейшер
Сценарий: Уилл Билл, Пол Либерман
Продюсер: Дэн Лин, Кевин МакКормик, Майкл Тадросс
Оператор: Дион Биби
Композитор: Стив Яблонски
Художник: Мехер Ахмад, Остин Горг, Тимоти Дэвид О’Брайэн
Монтаж: Алан Баумгартен, Джеймс Херберт
В ролях: Джош Бролин, Райан Гослинг, Шон Пенн, Эмма Стоун, Ник Нолти, Энтони Маки, Джованни Рибизи, Майкл Пенья, Роберт Патрик, Мирей Инос
Бюджет: $60 000 000
Сборы в США: $46 000 903
Сборы в мире: + $59 200 000 = $105 200 903
Сборы в России: $4 171 579
Мировая премьера: 7 января 2013
Премьера (РФ): 24 января 2013, «Каро-Премьер»
Релиз на DVD: 30 апреля 2013, «CP Дистрибуция»
Релиз на Blu-Ray: 30 апреля 2013, «CP Дистрибуция»

Описание: Лос-Анджелес, 1949 год. Уроженец Бруклина, жестокий главарь банды Микки Коэн держит город в ежовых рукавицах, собирая «грязные» деньги от торговли наркотиками, оружием и проституции, и — если все пойдет, как надо, — к Западу от Чикаго мышь не пискнет без его ведома. Защищают его не только его же головорезы, но и находящиеся у него «на крючке» полиция и политики. Этого хватит, чтобы запугать даже самых смелых, закаленных улицей копов… кроме, пожалуй, небольшой тайной группы сотрудников полицейского департамента Лос-Анджелеса во главе с сержантом Джоном О’Мара и Джерри Вутерсом, которые объединились, чтобы попытаться уничтожить преступный мир Коэна.-Качество исходника: BDRemux
Качество: BDRip
Тип: HD (1080p)
Контейнер: M4V
Видео: H.264, 1920x800, 2.40:1, 8 000 Kbps, 23.976 fps
Аудио 1: Русский/Профессиональный (дублированный) , AAC / 2.0 / 157 Kbps / 48.0 KHz
Аудио 2: Английский/Оригинальная дорожка , AAC / 2.0 / 158 Kbps / 48.0 KHz
Аудио 3: Русский/Профессиональный (дублированный) , AC-3 / 5.1 / 640 Kbps / 48.0 KHz
Аудио 4: Английский/Оригинальная дорожка , AC-3 / 5.1 / 640 Kbps / 48.0 KHz
Язык субтитров: Русский, Английский
Вид субтитров: Вшитые (полные, отключаемые)-

iTunes Meta Tags

Код:
Sort Name: Gangster Squad
XID: Apple:vendor_id:2013-468564
contentID: 619792520
Copyright: © 2012 Warner Bros. Entertainment Inc.
Screenwriters: Уилл Билл, Пол Либерман
Producers: Дэн Лин, Кевин МакКормик, Майкл Тадросс
Director: Рубен Флейшер
Cast: Джош Бролин, Райан Гослинг, Шон Пенн, Эмма Стоун, Ник Нолти, Энтони Маки, Джованни Рибизи, Майкл Пенья, Роберт Патрик, Мирей Инос, Алексей Рязанцев, Михаил Тихонов, Валерий Сторожик, Татьяна Шитова, Игорь Старосельцев
Studio: Warner Bros.
Rating: 5
Long Description: Лос-Анджелес, 1949 год. Уроженец Бруклина, жестокий главарь банды Микки Коэн держит город в ежовых рукавицах, собирая \"грязные\" деньги от торговли наркотиками, оружием и проституции, и - если все пойдет, как надо, - к Западу от Чикаго мышь не пискнет без его ведома. Защищают его не только его же головорезы, но и находящиеся у него \"на крючке\" полиция и политики. Этого хватит, чтобы запугать даже самых смелых, закаленных улицей копов... кроме, пожалуй, небольшой тайной группы сотрудников полицейского департамента Лос-Анджелеса во главе с сержантом Джоном О’Мара и Джерри Вутерсом, которые объединились, чтобы попытаться уничтожить преступный мир Коэна.
Description: Лос-Анджелес, 1949 год. Уроженец Бруклина, жестокий главарь банды Микки Коэн держит город в ежовых рукавицах, собирая \"грязные\" деньги от торговли наркотиками, оружием и проституции, и - если все пойдет, как надо, - к Западу от Чикаго мышь не пискнет без его ведома.
Release Date: 2013-01-11T08:00:00Z
Genre: Action & Adventure
Artist: Ruben Fleischer
Name: Gangster Squad

MediaInfo

Код:
General
Complete name                            : /Users/imac/HandBrake/Gangster Squad (1080p HD).m4v
Format                                   : MPEG-4
Codec ID                                 : M4V
File size                                : 7.58 GiB
Duration                                 : 1h 52mn
Overall bit rate mode                    : Variable
Overall bit rate                         : 9 604 Kbps
Movie name                               : Gangster Squad
Performer                                : Ruben Fleischer
Genre                                    : Action & Adventure
Recorded date                            : UTC 2013-01-11 08:00:00
Encoded date                             : UTC 2014-03-04 20:56:23
Tagged date                              : UTC 2014-03-04 21:11:25
Copyright                                : © 2012 Warner Bros. Entertainment Inc.
Cover                                    : Yes
sonm                                     : Gangster Squad
desc                                     : Лос-Анджелес, 1949 год. Уроженец Бруклина, жестокий главарь банды Микки Коэн держит город в ежовых рукавицах, собирая \"грязные\" деньги от торговли наркотиками, оружием и проституции, и - если все пойдет, как надо, - к Западу от Чикаго мышь не пискнет без его ведома.
ldes                                     : Лос-Анджелес, 1949 год. Уроженец Бруклина, жестокий главарь банды Микки Коэн держит город в ежовых рукавицах, собирая \"грязные\" деньги от торговли наркотиками, оружием и проституции, и - если все пойдет, как надо, - к Западу от Чикаго мышь не пискнет без его ведома. Защищают его не только его же головорезы, но и находящиеся у него \"на крючке\" полиция и политики. Этого хватит, чтобы запугать даже самых смелых, закаленных улицей копов... кроме, пожалуй, небольшой тайной группы сотрудников полицейского департамента Лос-Анджелеса во главе с сержантом Джоном О’Мара и Джерри Вутерсом, которые объединились, чтобы попытаться уничтожить преступный мир Коэна.
hdvd                                     : 2
stik                                     : 9
rtng                                     : 0
cnID                                     : 619792520
xid                                      : Apple:vendor_id:2013-468564
iTunEXTC                                 : mpaa|R|400|
iTunMOVI                                 :  /  /  /  /   cast /    /      /       name /       Джош Бролин /      /      /       name /       Райан Гослинг /      /      /       name /       Шон Пенн /      /      /       name /       Эмма Стоун /      /      /       name /       Ник Нолти /      /      /       name /       Энтони Маки /      /      /       name /       Джованни Рибизи /      /      /       name /       Майкл Пенья /      /      /       name /       Роберт Патрик /      /      /       name /       Мирей Инос /      /      /       name /       Алексей Рязанцев /      /      /       name /       Михаил Тихонов /      /      /       name /       Валерий Сторожик /      /      /       name /       Татьяна Шитова /      /      /       name /       Игорь Старосельцев /      /    /   directors /    /      /       name /       Рубен Флейшер /      /    /   producers /    /      /       name /       Дэн Лин /      /      /       name /       Кевин МакКормик /      /      /       name /       Майкл Тадросс /      /    /   screenwriters /    /      /       name /       Уилл Билл /      /      /       name /       Пол Либерман /      /    /   studio /   Warner Bros. /  /
Video #1
ID                                       : 1
Format                                   : AVC
Format/Info                              : Advanced Video Codec
Format profile                           : [url=mailto:High@L4.0]High@L4.0[/url]
Format settings, CABAC                   : Yes
Format settings, ReFrames                : 4 frames
Codec ID                                 : avc1
Codec ID/Info                            : Advanced Video Coding
Duration                                 : 1h 52mn
Bit rate mode                            : Variable
Bit rate                                 : 8 000 Kbps
Width                                    : 1 920 pixels
Height                                   : 800 pixels
Display aspect ratio                     : 2.40:1
Frame rate mode                          : Variable
Frame rate                               : 23.976 fps
Minimum frame rate                       : 23.810 fps
Maximum frame rate                       : 24.272 fps
Color space                              : YUV
Chroma subsampling                       : 4:2:0
Bit depth                                : 8 bits
Scan type                                : Progressive
Bits/(Pixel*Frame)                       : 0.217
Stream size                              : 6.31 GiB (83%)
Writing library                          : x264 core 130 r2273 b3065e6
Encoding settings                        : cabac=1 / ref=4 / deblock=1:0:0 / analyse=0x3:0x133 / me=umh / subme=10 / psy=1 / psy_rd=1.00:0.00 / mixed_ref=1 / me_range=32 / chroma_me=1 / trellis=2 / 8x8dct=1 / cqm=0 / deadzone=21,11 / fast_pskip=1 / chroma_qp_offset=-2 / threads=12 / lookahead_threads=1 / sliced_threads=0 / nr=0 / decimate=1 / interlaced=0 / bluray_compat=0 / constrained_intra=0 / bframes=4 / b_pyramid=2 / b_adapt=2 / b_bias=0 / direct=3 / weightb=1 / open_gop=0 / weightp=2 / keyint=240 / keyint_min=24 / scenecut=40 / intra_refresh=0 / rc_lookahead=40 / rc=2pass / mbtree=0 / bitrate=8000 / ratetol=1.0 / qcomp=0.60 / qpmin=0 / qpmax=69 / qpstep=4 / cplxblur=20.0 / qblur=0.5 / vbv_maxrate=25000 / vbv_bufsize=25000 / nal_hrd=none / ip_ratio=1.40 / pb_ratio=1.30 / aq=1:1.00
Language                                 : English
Encoded date                             : UTC 2014-03-04 20:56:23
Tagged date                              : UTC 2014-03-04 21:06:55
Color primaries                          : BT.709-5, BT.1361, IEC 61966-2-4, SMPTE RP177
Transfer characteristics                 : BT.709-5, BT.1361
Matrix coefficients                      : BT.709-5, BT.1361, IEC 61966-2-4 709, SMPTE RP177
Video #2
ID                                       : 8
Format                                   : JPEG
Codec ID                                 : jpeg
Duration                                 : 1h 52mn
Bit rate mode                            : Variable
Bit rate                                 : 495 bps
Width                                    : 640 pixels
Height                                   : 270 pixels
Display aspect ratio                     : 2.40:1
Frame rate mode                          : Variable
Frame rate                               : 0.002 fps
Minimum frame rate                       : 0.002 fps
Maximum frame rate                       : 0.003 fps
Color space                              : YUV
Chroma subsampling                       : 4:2:0
Bit depth                                : 8 bits
Compression mode                         : Lossy
Bits/(Pixel*Frame)                       : 1.432
Stream size                              : 363 KiB (0%)
Language                                 : English
Encoded date                             : UTC 2014-03-04 20:56:23
Tagged date                              : UTC 2014-03-04 21:08:33
Audio #1
ID                                       : 2
Format                                   : AAC
Format/Info                              : Advanced Audio Codec
Format profile                           : LC
Codec ID                                 : 40
Duration                                 : 1h 52mn
Bit rate mode                            : Variable
Bit rate                                 : 157 Kbps
Maximum bit rate                         : 247 Kbps
Channel(s)                               : 2 channels
Channel positions                        : Front: L R
Sampling rate                            : 48.0 KHz
Compression mode                         : Lossy
Stream size                              : 127 MiB (2%)
Language                                 : Russian
Encoded date                             : UTC 2014-03-04 20:56:23
Tagged date                              : UTC 2014-03-04 21:09:00
Audio #2
ID                                       : 3
Format                                   : AAC
Format/Info                              : Advanced Audio Codec
Format profile                           : LC
Codec ID                                 : 40
Duration                                 : 1h 52mn
Bit rate mode                            : Variable
Bit rate                                 : 158 Kbps
Maximum bit rate                         : 252 Kbps
Channel(s)                               : 2 channels
Channel positions                        : Front: L R
Sampling rate                            : 48.0 KHz
Compression mode                         : Lossy
Stream size                              : 128 MiB (2%)
Language                                 : English
Encoded date                             : UTC 2014-03-04 20:56:23
Tagged date                              : UTC 2014-03-04 21:04:44
Audio #3
ID                                       : 4
Format                                   : AC-3
Format/Info                              : Audio Coding 3
Mode extension                           : CM (complete main)
Format settings, Endianness              : Big
Codec ID                                 : ac-3
Duration                                 : 1h 52mn
Bit rate mode                            : Constant
Bit rate                                 : 640 Kbps
Channel(s)                               : 6 channels
Channel positions                        : Front: L C R, Side: L R, LFE
Sampling rate                            : 48.0 KHz
Bit depth                                : 16 bits
Compression mode                         : Lossy
Stream size                              : 517 MiB (7%)
Language                                 : Russian
Encoded date                             : UTC 2014-03-04 20:56:23
Tagged date                              : UTC 2014-03-04 21:00:49
Audio #4
ID                                       : 5
Format                                   : AC-3
Format/Info                              : Audio Coding 3
Mode extension                           : CM (complete main)
Format settings, Endianness              : Big
Codec ID                                 : ac-3
Duration                                 : 1h 52mn
Bit rate mode                            : Constant
Bit rate                                 : 640 Kbps
Channel(s)                               : 6 channels
Channel positions                        : Front: L C R, Side: L R, LFE
Sampling rate                            : 48.0 KHz
Bit depth                                : 16 bits
Compression mode                         : Lossy
Stream size                              : 517 MiB (7%)
Encoded date                             : UTC 2014-03-04 20:56:23
Tagged date                              : UTC 2014-03-04 21:00:49
Text #1
ID                                       : 6
Format                                   : Timed text
Muxing mode                              : sbtl
Codec ID                                 : tx3g
Duration                                 : 1h 52mn
Bit rate mode                            : Variable
Bit rate                                 : 77 bps
Stream size                              : 63.5 KiB (0%)
Language                                 : Russian
Encoded date                             : UTC 2014-03-04 20:56:23
Tagged date                              : UTC 2014-03-04 21:08:54
Text #2
ID                                       : 7
Format                                   : Timed text
Muxing mode                              : sbtl
Codec ID                                 : tx3g
Duration                                 : 1h 43mn
Bit rate mode                            : Variable
Bit rate                                 : 67 bps
Stream size                              : 50.6 KiB (0%)
Language                                 : English
Encoded date                             : UTC 2014-03-04 20:56:23
Tagged date                              : UTC 2014-03-04 21:08:43
Text #3
ID                                       : 9
Format                                   : Apple text
Codec ID                                 : text
Duration                                 : 1h 52mn
Bit rate mode                            : Constant
Bit rate                                 : 0 bps
Stream size                              : 312 Bytes (0%)
Language                                 : English
Encoded date                             : UTC 2014-03-04 21:09:00
Tagged date                              : UTC 2014-03-04 21:09:00
Menu
00:00:00.000                             : 00:00:00.000
00:09:53.718                             : 00:09:53.635
00:20:51.250                             : 00:20:51.167
00:28:36.256                             : 00:28:36.173
00:39:22.944                             : 00:39:22.860
00:49:25.546                             : 00:49:25.462
00:59:59.345                             : 00:59:59.262
01:09:23.575                             : 01:09:23.493
01:20:05.341                             : 01:20:05.259
01:31:01.621                             : 01:31:01.539
01:38:50.422                             : 01:38:50.341
01:44:11.451                             : 01:44:11.370

x264 лог

Код:
x264 [info]: frame I:1768  Avg QP:12.18  size:195152  PSNR Mean Y:50.24 U:53.00 V:53.38 Avg:50.97 Global:50.60
x264 [info]: frame P:46723 Avg QP:14.40  size: 74318  PSNR Mean Y:47.98 U:51.47 V:52.75 Avg:48.86 Global:48.45
x264 [info]: frame B:113942 Avg QP:16.62  size: 25954  PSNR Mean Y:46.98 U:51.13 V:52.23 Avg:47.97 Global:47.60
x264 [info]: consecutive B-frames:  3.8%  7.6% 12.8% 56.8% 19.0%
x264 [info]: mb I  I16..4:  4.8% 79.7% 15.5%
x264 [info]: mb P  I16..4:  1.6% 15.4%  1.2%  P16..4: 39.0% 23.1% 15.2%  0.5%  0.1%    skip: 3.9%
x264 [info]: mb B  I16..4:  0.1%  0.7%  0.1%  B16..8: 47.2% 14.1%  3.4%  direct: 6.4%  skip:27.9%  L0:46.0% L1:45.9% BI: 8.2%
x264 [info]: 8x8 transform intra:83.4% inter:48.8%
x264 [info]: direct mvs  spatial:98.6% temporal:1.4%
x264 [info]: coded y,uvDC,uvAC intra: 88.6% 76.3% 61.3% inter: 33.1% 18.1% 2.7%
x264 [info]: i16 v,h,dc,p: 39% 14% 18% 29%
x264 [info]: i8 v,h,dc,ddl,ddr,vr,hd,vl,hu: 10%  8% 16%  9% 11% 11% 11% 11% 12%
x264 [info]: i4 v,h,dc,ddl,ddr,vr,hd,vl,hu: 10%  9%  7% 10% 14% 13% 13% 11% 13%
x264 [info]: i8c dc,h,v,p: 53% 19% 16% 11%
x264 [info]: Weighted P-Frames: Y:2.2% UV:1.2%
x264 [info]: ref P L0: 58.3%  7.1% 22.6% 10.3%  1.7%  0.1%
x264 [info]: ref B L0: 87.0% 10.7%  2.3%
x264 [info]: ref B L1: 93.8%  6.2%
x264 [info]: SSIM Mean Y:0.9861016 (18.570db)
x264 [info]: PSNR Mean Y:47.299 U:51.248 V:52.393 Avg:48.259 Global:47.852 kb/s:7999.82
Скриншоты: -

Релиз подготовлен для просмотра на Apple TV, iPad, iPhone, iPod Touch.
Для просмотра данного релиза на компьютере с ОС Windows рекомендуется использовать VLC media player

_________________
[Profile] [PM]
Display posts from previous:    

The time now is: Today 09:02

All times are GMT + 3 Hours



You cannot post new topics in this forum
You cannot reply to topics in this forum
You cannot edit your posts in this forum
You cannot delete your posts in this forum
You cannot vote in polls in this forum
You cannot attach files in this forum
You cannot download files in this forum