Today is free to download without increasing Download
 

Offline

Cool2013

Longevity:
5 years 11 months
Posts:
608

Меняющие реальность / The Adjustment Bureau (2011) BDRip [1080p] ATV
«Ради нее он готов изменить мир»
- Год выпуска: 2011
Страна: США
Жанр: фантастика, триллер, мелодрама
Продолжительность: 01:45:50
Перевод: Профессиональный (дублированный)
Оригинальная аудиодорожка: Есть
Cубтитры: Русские, Английские
Режиссёр: Джордж Нолфи
Сценарий: Джордж Нолфи, Филип К. Дик
Продюсер: Билл Карраро, Майкл Хэкетт, Крис Мур
Оператор: Джон Толл
Композитор: Томас Ньюман
Художник: Кевин Томпсон, Стивен Х. Картер, Кася Валицка-Мэймон
Монтаж: Джей Рабиновиц
В ролях: Мэтт Дэймон, Эмили Блант, Энтони Маки, Джон Слэттери, Теренс Стэмп, Майкл Келли, Энтони Руйвивар, Дэвид Бишинс, Джонни Чикко, Брайан Хейли
Бюджет: $51 000 000
Сборы в США: $62 495 645
Сборы в мире: + $65 373 734 = $127 869 379
Сборы в России: $4 074 907
Мировая премьера: 26 февраля 2011
Премьера (РФ): 3 марта 2011, «UPI»
Релиз на DVD: 19 июля 2011, «Юниверсал Пикчерс Рус»
Релиз на Blu-Ray: 19 июля 2011, «Юниверсал Пикчерс Рус»

Описание: Волею случая конгрессмен Дэвид Норрис узнает, что мир движется по заранее написанному плану, за исполнением которого следят работающие в неком Бюро Корректировки люди в шляпах, обладающие сверхъестественными способностями. Как назло, план не предусматривает дальнейших пересечений с балериной Элизой, в которую политик влюблен. Дэвид заручается поддержкой одного из агентов Бюро и начинает неравную борьбу с остальными, отстаивая свободу выбора и личное счастье…-Качество исходника: BDRemux
Качество: BDRip
Тип: HD (1080p)
Контейнер: M4V
Видео: H.264, 1920x1040, 1.85:1, 8 000 Kbps, 23.976 fps
Аудио 1: Русский/Профессиональный (дублированный) , AAC / 2.0 / 158 Kbps / 48.0 KHz
Аудио 2: Английский/Оригинальная дорожка , AAC / 2.0 / 158 Kbps / 48.0 KHz
Аудио 3: Русский/Профессиональный (дублированный) , AC-3 / 5.1 / 640 Kbps / 48.0 KHz
Аудио 4: Английский/Оригинальная дорожка , AC-3 / 5.1 / 640 Kbps / 48.0 KHz
Язык субтитров: Русский, Английский
Вид субтитров: Вшитые (полные, отключаемые)-

iTunes Meta Tags

Код:
Sort Name: Adjustment Bureau
XID: Apple:vendor_id:2011-450765
contentID: 434628870
Copyright: © 2011 MRC II Distribution Company LP. All Rights Reserved.
Screenwriters: Джордж Нолфи, Филип К. Дик
Producers: Билл Карраро, Майкл Хэкетт, Крис Мур
Director: Джордж Нолфи
Cast: Мэтт Дэймон, Эмили Блант, Энтони Маки, Джон Слэттери, Теренс Стэмп, Майкл Келли, Энтони Руйвивар, Дэвид Бишинс, Джонни Чикко, Брайан Хейли, Сергей Быстрицкий, Наталья Фищук, Дмитрий Курта, Иван Агапов, Артем Карапетян
Studio: Universal Pictures
Rating: 4
Long Description: Волею случая конгрессмен Дэвид Норрис узнает, что мир движется по заранее написанному плану, за исполнением которого следят работающие в неком Бюро Корректировки люди в шляпах, обладающие сверхъестественными способностями. Как назло, план не предусматривает дальнейших пересечений с балериной Элизой, в которую политик влюблен. Дэвид заручается поддержкой одного из агентов Бюро и начинает неравную борьбу с остальными, отстаивая свободу выбора и личное счастье...
Description: Волею случая конгрессмен Дэвид Норрис узнает, что мир движется по заранее написанному плану, за исполнением которого следят работающие в неком Бюро Корректировки люди в шляпах, обладающие сверхъестественными способностями.
Release Date: 2011-03-04T08:00:00Z
Genre: Action & Adventure
Artist: George Nolfi
Name: The Adjustment Bureau

MediaInfo

Код:
General
Complete name                            : /Users/imac/HandBrake/The Adjustment Bureau (1080p HD).m4v
Format                                   : MPEG-4
Codec ID                                 : M4V
File size                                : 7.09 GiB
Duration                                 : 1h 45mn
Overall bit rate mode                    : Variable
Overall bit rate                         : 9 594 Kbps
Movie name                               : The Adjustment Bureau
Performer                                : George Nolfi
Genre                                    : Action & Adventure
Recorded date                            : UTC 2011-03-04 08:00:00
Encoded date                             : UTC 2014-03-05 08:55:50
Tagged date                              : UTC 2014-03-05 09:02:50
Copyright                                : © 2011 MRC II Distribution Company LP. All Rights Reserved.
Cover                                    : Yes
sonm                                     : Adjustment Bureau
desc                                     : Волею случая конгрессмен Дэвид Норрис узнает, что мир движется по заранее написанному плану, за исполнением которого следят работающие в неком Бюро Корректировки люди в шляпах, обладающие сверхъестественными способностями.
ldes                                     : Волею случая конгрессмен Дэвид Норрис узнает, что мир движется по заранее написанному плану, за исполнением которого следят работающие в неком Бюро Корректировки люди в шляпах, обладающие сверхъестественными способностями. Как назло, план не предусматривает дальнейших пересечений с балериной Элизой, в которую политик влюблен. Дэвид заручается поддержкой одного из агентов Бюро и начинает неравную борьбу с остальными, отстаивая свободу выбора и личное счастье...
hdvd                                     : 2
stik                                     : 9
rtng                                     : 0
cnID                                     : 434628870
xid                                      : Apple:vendor_id:2011-450765
iTunEXTC                                 : mpaa|PG-13|300|
iTunMOVI                                 :  /  /  /  /   cast /    /      /       name /       Мэтт Дэймон /      /      /       name /       Эмили Блант /      /      /       name /       Энтони Маки /      /      /       name /       Джон Слэттери /      /      /       name /       Теренс Стэмп /      /      /       name /       Майкл Келли /      /      /       name /       Энтони Руйвивар /      /      /       name /       Дэвид Бишинс /      /      /       name /       Джонни Чикко /      /      /       name /       Брайан Хейли /      /      /       name /       Сергей Быстрицкий /      /      /       name /       Наталья Фищук /      /      /       name /       Дмитрий Курта /      /      /       name /       Иван Агапов /      /      /       name /       Артем Карапетян /      /    /   directors /    /      /       name /       Джордж Нолфи /      /    /   producers /    /      /       name /       Билл Карраро /      /      /       name /       Майкл Хэкетт /      /      /       name /       Крис Мур /      /    /   screenwriters /    /      /       name /       Джордж Нолфи /      /      /       name /       Филип К. Дик /      /    /   studio /   Universal Pictures /  /
Video #1
ID                                       : 1
Format                                   : AVC
Format/Info                              : Advanced Video Codec
Format profile                           : [url=mailto:High@L4.0]High@L4.0[/url]
Format settings, CABAC                   : Yes
Format settings, ReFrames                : 4 frames
Codec ID                                 : avc1
Codec ID/Info                            : Advanced Video Coding
Duration                                 : 1h 45mn
Bit rate mode                            : Variable
Bit rate                                 : 8 000 Kbps
Width                                    : 1 920 pixels
Height                                   : 1 040 pixels
Display aspect ratio                     : 1.85:1
Frame rate mode                          : Variable
Frame rate                               : 23.976 fps
Minimum frame rate                       : 23.810 fps
Maximum frame rate                       : 24.246 fps
Color space                              : YUV
Chroma subsampling                       : 4:2:0
Bit depth                                : 8 bits
Scan type                                : Progressive
Bits/(Pixel*Frame)                       : 0.167
Stream size                              : 5.91 GiB (83%)
Writing library                          : x264 core 130 r2273 b3065e6
Encoding settings                        : cabac=1 / ref=4 / deblock=1:0:0 / analyse=0x3:0x133 / me=umh / subme=10 / psy=1 / psy_rd=1.00:0.00 / mixed_ref=1 / me_range=32 / chroma_me=1 / trellis=2 / 8x8dct=1 / cqm=0 / deadzone=21,11 / fast_pskip=1 / chroma_qp_offset=-2 / threads=12 / lookahead_threads=1 / sliced_threads=0 / nr=0 / decimate=1 / interlaced=0 / bluray_compat=0 / constrained_intra=0 / bframes=4 / b_pyramid=2 / b_adapt=2 / b_bias=0 / direct=3 / weightb=1 / open_gop=0 / weightp=2 / keyint=240 / keyint_min=24 / scenecut=40 / intra_refresh=0 / rc_lookahead=40 / rc=2pass / mbtree=0 / bitrate=8000 / ratetol=1.0 / qcomp=0.60 / qpmin=0 / qpmax=69 / qpstep=4 / cplxblur=20.0 / qblur=0.5 / vbv_maxrate=25000 / vbv_bufsize=25000 / nal_hrd=none / ip_ratio=1.40 / pb_ratio=1.30 / aq=1:1.00
Language                                 : English
Encoded date                             : UTC 2014-03-05 08:55:51
Tagged date                              : UTC 2014-03-05 08:59:40
Color primaries                          : BT.709-5, BT.1361, IEC 61966-2-4, SMPTE RP177
Transfer characteristics                 : BT.709-5, BT.1361
Matrix coefficients                      : BT.709-5, BT.1361, IEC 61966-2-4 709, SMPTE RP177
Video #2
ID                                       : 8
Format                                   : JPEG
Codec ID                                 : jpeg
Duration                                 : 1h 45mn
Bit rate mode                            : Variable
Bit rate                                 : 1 034 bps
Width                                    : 640 pixels
Height                                   : 350 pixels
Display aspect ratio                     : 1.85:1
Frame rate mode                          : Variable
Frame rate                               : 0.003 fps
Minimum frame rate                       : 0.002 fps
Maximum frame rate                       : 0.008 fps
Color space                              : YUV
Chroma subsampling                       : 4:2:0
Bit depth                                : 8 bits
Compression mode                         : Lossy
Bits/(Pixel*Frame)                       : 1.539
Stream size                              : 842 KiB (0%)
Language                                 : English
Encoded date                             : UTC 2014-03-05 08:55:51
Tagged date                              : UTC 2014-03-05 09:00:30
Audio #1
ID                                       : 2
Format                                   : AAC
Format/Info                              : Advanced Audio Codec
Format profile                           : LC
Codec ID                                 : 40
Duration                                 : 1h 45mn
Bit rate mode                            : Variable
Bit rate                                 : 158 Kbps
Maximum bit rate                         : 236 Kbps
Channel(s)                               : 2 channels
Channel positions                        : Front: L R
Sampling rate                            : 48.0 KHz
Compression mode                         : Lossy
Stream size                              : 119 MiB (2%)
Language                                 : Russian
Encoded date                             : UTC 2014-03-05 08:55:51
Tagged date                              : UTC 2014-03-05 09:00:35
Audio #2
ID                                       : 3
Format                                   : AAC
Format/Info                              : Advanced Audio Codec
Format profile                           : LC
Codec ID                                 : 40
Duration                                 : 1h 45mn
Bit rate mode                            : Variable
Bit rate                                 : 158 Kbps
Maximum bit rate                         : 250 Kbps
Channel(s)                               : 2 channels
Channel positions                        : Front: L R
Sampling rate                            : 48.0 KHz
Compression mode                         : Lossy
Stream size                              : 120 MiB (2%)
Language                                 : English
Encoded date                             : UTC 2014-03-05 08:55:51
Tagged date                              : UTC 2014-03-05 08:59:42
Audio #3
ID                                       : 4
Format                                   : AC-3
Format/Info                              : Audio Coding 3
Mode extension                           : CM (complete main)
Format settings, Endianness              : Big
Codec ID                                 : ac-3
Duration                                 : 1h 45mn
Bit rate mode                            : Constant
Bit rate                                 : 640 Kbps
Channel(s)                               : 6 channels
Channel positions                        : Front: L C R, Side: L R, LFE
Sampling rate                            : 48.0 KHz
Bit depth                                : 16 bits
Compression mode                         : Lossy
Stream size                              : 484 MiB (7%)
Language                                 : Russian
Encoded date                             : UTC 2014-03-05 08:55:51
Tagged date                              : UTC 2014-03-05 08:59:25
Audio #4
ID                                       : 5
Format                                   : AC-3
Format/Info                              : Audio Coding 3
Mode extension                           : CM (complete main)
Format settings, Endianness              : Big
Codec ID                                 : ac-3
Duration                                 : 1h 45mn
Bit rate mode                            : Constant
Bit rate                                 : 640 Kbps
Channel(s)                               : 6 channels
Channel positions                        : Front: L C R, Side: L R, LFE
Sampling rate                            : 48.0 KHz
Bit depth                                : 16 bits
Compression mode                         : Lossy
Stream size                              : 484 MiB (7%)
Language                                 : English
Encoded date                             : UTC 2014-03-05 08:55:51
Tagged date                              : UTC 2014-03-05 08:59:25
Text #1
ID                                       : 6
Format                                   : Timed text
Muxing mode                              : sbtl
Codec ID                                 : tx3g
Duration                                 : 1h 38mn
Bit rate mode                            : Variable
Bit rate                                 : 108 bps
Stream size                              : 78.6 KiB (0%)
Language                                 : Russian
Encoded date                             : UTC 2014-03-05 08:55:51
Tagged date                              : UTC 2014-03-05 09:00:32
Text #2
ID                                       : 7
Format                                   : Timed text
Muxing mode                              : sbtl
Codec ID                                 : tx3g
Duration                                 : 1h 38mn
Bit rate mode                            : Variable
Bit rate                                 : 81 bps
Stream size                              : 58.3 KiB (0%)
Language                                 : English
Encoded date                             : UTC 2014-03-05 08:55:51
Tagged date                              : UTC 2014-03-05 09:00:32
Text #3
ID                                       : 9
Format                                   : Apple text
Codec ID                                 : text
Duration                                 : 1h 45mn
Bit rate mode                            : Variable
Bit rate                                 : 1 bps
Stream size                              : 471 Bytes (0%)
Language                                 : English
Encoded date                             : UTC 2014-03-05 09:00:35
Tagged date                              : UTC 2014-03-05 09:00:35
Menu
00:00:00.000                             : Chapter 1
00:06:37.855                             : Chapter 2
00:14:17.564                             : Chapter 3
00:20:58.297                             : Chapter 4
00:28:35.628                             : Chapter 5
00:31:11.575                             : Chapter 6
00:35:22.325                             : Chapter 7
00:38:58.916                             : Chapter 8
00:43:07.080                             : Chapter 9
00:51:35.129                             : Chapter 10
00:58:33.088                             : Chapter 11
01:02:15.059                             : Chapter 12
01:07:32.167                             : Chapter 13
01:12:00.727                             : Chapter 14
01:14:13.568                             : Chapter 15
01:19:47.651                             : Chapter 16
01:24:11.623                             : Chapter 17
01:30:00.680                             : Chapter 18
01:35:53.824                             : Chapter 19
01:38:54.546                             : Chapter 20

x264 лог

Код:
x264 [info]: frame I:1192  Avg QP:16.26  size:190362  PSNR Mean Y:47.14 U:49.21 V:50.32 Avg:47.81 Global:47.01
x264 [info]: frame P:39123 Avg QP:18.86  size: 70887  PSNR Mean Y:45.57 U:48.23 V:49.56 Avg:46.34 Global:45.42
x264 [info]: frame B:111941 Avg QP:21.34  size: 29844  PSNR Mean Y:44.25 U:47.61 V:49.12 Avg:45.16 Global:44.21
x264 [info]: consecutive B-frames:  2.2%  4.3%  8.0% 46.3% 39.1%
x264 [info]: mb I  I16..4: 12.7% 75.3% 12.0%
x264 [info]: mb P  I16..4:  2.2% 10.0%  0.6%  P16..4: 43.5% 18.1% 12.1%  0.1%  0.0%    skip:13.3%
x264 [info]: mb B  I16..4:  0.1%  0.8%  0.0%  B16..8: 46.5%  7.1%  1.7%  direct: 5.1%  skip:38.7%  L0:45.6% L1:49.6% BI: 4.8%
x264 [info]: 8x8 transform intra:78.5% inter:65.8%
x264 [info]: direct mvs  spatial:98.5% temporal:1.5%
x264 [info]: coded y,uvDC,uvAC intra: 80.9% 77.1% 53.1% inter: 26.1% 18.7% 2.5%
x264 [info]: i16 v,h,dc,p: 59% 12%  9% 19%
x264 [info]: i8 v,h,dc,ddl,ddr,vr,hd,vl,hu:  8%  7%  8% 11% 15% 14% 14% 12% 13%
x264 [info]: i4 v,h,dc,ddl,ddr,vr,hd,vl,hu:  9%  7%  5% 11% 15% 14% 14% 12% 14%
x264 [info]: i8c dc,h,v,p: 42% 22% 19% 16%
x264 [info]: Weighted P-Frames: Y:2.2% UV:1.1%
x264 [info]: ref P L0: 50.3%  8.0% 27.5% 12.9%  1.3%  0.0%
x264 [info]: ref B L0: 81.9% 14.0%  4.1%
x264 [info]: ref B L1: 90.5%  9.5%
x264 [info]: SSIM Mean Y:0.9728382 (15.660db)
x264 [info]: PSNR Mean Y:44.608 U:47.783 V:49.240 Avg:45.482 Global:44.508 kb/s:7988.25
Скриншоты: -

Релиз подготовлен для просмотра на Apple TV, iPad, iPhone, iPod Touch.
Для просмотра данного релиза на компьютере с ОС Windows рекомендуется использовать VLC media player

_________________
[Profile] [PM]
Display posts from previous:    

The time now is: Today 22:58

All times are GMT + 3 Hours



You cannot post new topics in this forum
You cannot reply to topics in this forum
You cannot edit your posts in this forum
You cannot delete your posts in this forum
You cannot vote in polls in this forum
You cannot attach files in this forum
You cannot download files in this forum