We returned to the old address EMTREK.ORG
 

Offline

andrew6572

Longevity:
7 years 9 months
Posts:
6000

Фаринелли-кастрат | Farinelli: Il Castrato
Жанр: Soundtrack
Год выпуска: 1994
Страна-производитель диска: France
Издатель (лейбл): Auvidis / Traveling
Номер по каталогу: K 1005
Аудио кодек: FLAC (*.flac)
Тип рипа: tracks+.cue
Битрейт аудио: lossless
Продолжительность: 00:59:53
Источник: net
Наличие сканов в содержимом раздачи: да
Композиторы:
Johann Adolf Hasse, Riccardo Broschi, George Frideric Handel, Giovanni Pergolesi
------------------
Ewa Mallas-Godlewska soprano
Derek Lee Ragin countertenor
---------------
Les Talens Lyriques
Christophe Rousset - дирижёр
Треклист:
1. Son qual nave ch'agitata (08:10) - Riccardo Broschi
2. Alto giove (04:34) - Nicola Porpora
3. Se al labbro mio non credi (04:55) - Riccardo Broschi
4. Ombra fedele anch'io (09:32) - Riccardo Broschi
5. Artaserse (05:58) - Johann-Adolf Hasse
6. Lascia ch'io pianga (03:59) - Georg-Friedrich Haendel
7. Cara Sposa (09:16) - Georg-Friedrich Haendel
8. Rinaldo (03:49) - Georg-Friedrich Haendel
9. Generoso risuegliati o coro (01:28) - Johann-Adolf Hasse
10. Salve Regina (03:44) - Giovanni-Battista Pergolese
11. Alto Giove (04:28) - Nicola Porpora

Лог создания рипа

Exact Audio Copy V1.0 beta 3 from 29. August 2011
EAC extraction logfile from 31. May 2013, 16:10
Various / Farinelli - Il Castrato
Used drive : PLEXTOR DVDR PX-L890SA Adapter: 1 ID: 0
Read mode : Secure
Utilize accurate stream : Yes
Defeat audio cache : Yes
Make use of C2 pointers : No
Read offset correction : 6
Overread into Lead-In and Lead-Out : No
Fill up missing offset samples with silence : Yes
Delete leading and trailing silent blocks : No
Null samples used in CRC calculations : Yes
Used interface : Installed external ASPI interface
Gap handling : Appended to previous track
Used output format : User Defined Encoder
Selected bitrate : 1024 kBit/s
Quality : High
Add ID3 tag : No
Command line compressor : C:\Program Files\Exact Audio Copy\Flac\flac.exe
Additional command line options : -V -8 -T "Genre=%genre%" -T "Artist=%artist%" -T "Title=%title%" -T "Album=%albumtitle%" -T "Date=%year%" -T "Tracknumber=%tracknr%" -T "Comment=%comment%" %source%
TOC of the extracted CD
Track | Start | Length | Start sector | End sector
---------------------------------------------------------
1 | 0:00.00 | 8:15.25 | 0 | 37149
2 | 8:15.25 | 4:38.52 | 37150 | 58051
3 | 12:54.02 | 5:00.23 | 58052 | 80574
4 | 17:54.25 | 9:36.17 | 80575 | 123791
5 | 27:30.42 | 6:02.50 | 123792 | 150991
6 | 33:33.17 | 4:03.15 | 150992 | 169231
7 | 37:36.32 | 9:21.13 | 169232 | 211319
8 | 46:57.45 | 3:54.35 | 211320 | 228904
9 | 50:52.05 | 1:33.05 | 228905 | 235884
10 | 52:25.10 | 3:48.32 | 235885 | 253016
11 | 56:13.42 | 4:28.33 | 253017 | 273149
Track 1
Filename F:\torrent\Farinelli_Il Castrato_OST\score\01 Son Qual Nave Ch'Agitata.wav
Pre-gap length 0:00:02.00
Peak level 93.5 %
Extraction speed 5.2 X
Track quality 99.9 %
Test CRC 2B77A9A9
Copy CRC 2B77A9A9
Accurately ripped (confidence 2) [048A4F5C] (AR v2)
Copy OK
Track 2
Filename F:\torrent\Farinelli_Il Castrato_OST\score\02 Alto Giove.wav
Pre-gap length 0:00:04.40
Peak level 71.7 %
Extraction speed 6.1 X
Track quality 100.0 %
Test CRC 6B18E923
Copy CRC 6B18E923
Accurately ripped (confidence 2) [52A525C4] (AR v2)
Copy OK
Track 3
Filename F:\torrent\Farinelli_Il Castrato_OST\score\03 Se Al Labbro Mio Non Credi.wav
Pre-gap length 0:00:04.45
Peak level 15.8 %
Extraction speed 6.6 X
Track quality 100.0 %
Test CRC 8DF694AA
Copy CRC 8DF694AA
Accurately ripped (confidence 2) [B92BAFFE] (AR v2)
Copy OK
Track 4
Filename F:\torrent\Farinelli_Il Castrato_OST\score\04 Ombra Fedele Anch'Io.wav
Pre-gap length 0:00:04.65
Peak level 88.2 %
Extraction speed 7.7 X
Track quality 100.0 %
Test CRC 0B5FC7CC
Copy CRC 0B5FC7CC
Accurately ripped (confidence 2) [70756387] (AR v2)
Copy OK
Track 5
Filename F:\torrent\Farinelli_Il Castrato_OST\score\05 Artaserse.wav
Pre-gap length 0:00:04.37
Peak level 49.7 %
Extraction speed 8.2 X
Track quality 100.0 %
Test CRC 88AFAAD2
Copy CRC 88AFAAD2
Accurately ripped (confidence 2) [8A748162] (AR v2)
Copy OK
Track 6
Filename F:\torrent\Farinelli_Il Castrato_OST\score\06 Lascia Ch'Io Pianga.wav
Pre-gap length 0:00:04.52
Peak level 56.3 %
Extraction speed 8.3 X
Track quality 100.0 %
Test CRC F31F790B
Copy CRC F31F790B
Accurately ripped (confidence 2) [BC70C356] (AR v2)
Copy OK
Track 7
Filename F:\torrent\Farinelli_Il Castrato_OST\score\07 Cara Sposa.wav
Pre-gap length 0:00:04.32
Peak level 68.3 %
Extraction speed 9.5 X
Track quality 100.0 %
Test CRC 08F9A511
Copy CRC 08F9A511
Accurately ripped (confidence 3) [2F8CF8C8] (AR v2)
Copy OK
Track 8
Filename F:\torrent\Farinelli_Il Castrato_OST\score\08 Rinaldo.wav
Pre-gap length 0:00:05.10
Peak level 31.8 %
Extraction speed 9.2 X
Track quality 100.0 %
Test CRC 10D2076B
Copy CRC 10D2076B
Accurately ripped (confidence 3) [5DE89DF3] (AR v2)
Copy OK
Track 9
Filename F:\torrent\Farinelli_Il Castrato_OST\score\09 Generoso Risuegliati O Core.wav
Pre-gap length 0:00:05.13
Peak level 64.6 %
Extraction speed 7.6 X
Track quality 100.0 %
Test CRC EF0BB2A3
Copy CRC EF0BB2A3
Accurately ripped (confidence 3) [76C236EF] (AR v2)
Copy OK
Track 10
Filename F:\torrent\Farinelli_Il Castrato_OST\score\10 Salve Regina.wav
Pre-gap length 0:00:05.13
Peak level 51.7 %
Extraction speed 8.2 X
Track quality 99.9 %
Test CRC 37347372
Copy CRC 37347372
Accurately ripped (confidence 2) [44AFB24F] (AR v2)
Copy OK
Track 11
Filename F:\torrent\Farinelli_Il Castrato_OST\score\11 Alto Giove.wav
Pre-gap length 0:00:04.35
Peak level 33.1 %
Extraction speed 9.8 X
Track quality 100.0 %
Test CRC ED0A0E05
Copy CRC ED0A0E05
Accurately ripped (confidence 3) [BF857A4B] (AR v2)
Copy OK
All tracks accurately ripped
No errors occurred
End of status report
==== Log checksum 7902A3E3636623AA298DCD724A1A40C2F8D456CD60A76568F43570CD5ACF4F86 ====

Содержание индексной карты (.CUE)

REM GENRE Soundtrack
REM DATE 1994
REM DISCID A00E3A0B
REM COMMENT "ExactAudioCopy v1.0b3"
CATALOG 0000000000000
PERFORMER "Various"
TITLE "Farinelli - Il Castrato"
FILE "01 Son Qual Nave Ch'Agitata.wav" WAVE
TRACK 01 AUDIO
TITLE "Son Qual Nave Ch'Agitata"
PERFORMER "R. Broschi"
ISRC FRZ139320660
INDEX 01 00:00:00
TRACK 02 AUDIO
TITLE "Alto Giove"
PERFORMER "N. Porpora"
ISRC FRZ139320670
INDEX 00 08:10:60
FILE "02 Alto Giove.wav" WAVE
INDEX 01 00:00:00
TRACK 03 AUDIO
TITLE "Se Al Labbro Mio Non Credi"
PERFORMER "R. Broschi "
ISRC FRZ139320680
INDEX 00 04:34:07
FILE "03 Se Al Labbro Mio Non Credi.wav" WAVE
INDEX 01 00:00:00
TRACK 04 AUDIO
TITLE "Ombra Fedele Anch'Io"
PERFORMER "R. Broschi"
ISRC FRZ139320690
INDEX 00 04:55:33
FILE "04 Ombra Fedele Anch'Io.wav" WAVE
INDEX 01 00:00:00
TRACK 05 AUDIO
TITLE "Artaserse"
PERFORMER "J. A. Hasse"
ISRC FRZ139320700
INDEX 00 09:31:55
FILE "05 Artaserse.wav" WAVE
INDEX 01 00:00:00
TRACK 06 AUDIO
TITLE "Lascia Ch'Io Pianga"
PERFORMER "G. F. Haendel"
ISRC FRZ139320710
INDEX 00 05:57:73
FILE "06 Lascia Ch'Io Pianga.wav" WAVE
INDEX 01 00:00:00
TRACK 07 AUDIO
TITLE "Cara Sposa"
PERFORMER "G. F. Haendel"
ISRC FRZ139320720
INDEX 00 03:58:58
FILE "07 Cara Sposa.wav" WAVE
INDEX 01 00:00:00
TRACK 08 AUDIO
TITLE "Rinaldo"
PERFORMER "G. F. Haendel"
ISRC FRZ139320730
INDEX 00 09:16:03
FILE "08 Rinaldo.wav" WAVE
INDEX 01 00:00:00
TRACK 09 AUDIO
TITLE "Generoso Risuegliati O Core"
PERFORMER "J. A. Hasse"
ISRC FRZ139320740
INDEX 00 03:49:22
FILE "09 Generoso Risuegliati O Core.wav" WAVE
INDEX 01 00:00:00
TRACK 10 AUDIO
TITLE "Salve Regina"
PERFORMER "G. B. Pergolesi"
ISRC FRZ139320750
INDEX 00 01:27:67
FILE "10 Salve Regina.wav" WAVE
INDEX 01 00:00:00
TRACK 11 AUDIO
TITLE "Alto Giove"
PERFORMER "N. Porpora"
ISRC FRZ139320760
INDEX 00 03:43:72
FILE "11 Alto Giove.wav" WAVE
INDEX 01 00:00:00

Лог проверки качества

AUDIOCHECKER v2.0 beta (build 457) - by Dester - opdester@freemail.hu
~~~~~~~~~~~~~~~~~~~~~~~~~~~~~~~~~~
-=== НЕ РЕДАКТИРУЙТЕ ЭТОТ ФАЙЛ! ===-
Путь: ...\score
01 -=- 01 Son Qual Nave Ch'Agitata.flac -=- CDDA (100%)
02 -=- 02 Alto Giove.flac -=- CDDA (100%)
03 -=- 03 Se Al Labbro Mio Non Credi.flac -=- CDDA (99%)
04 -=- 04 Ombra Fedele Anch'Io.flac -=- CDDA (62%)
05 -=- 05 Artaserse.flac -=- CDDA (100%)
06 -=- 06 Lascia Ch'Io Pianga.flac -=- CDDA (100%)
07 -=- 07 Cara Sposa.flac -=- CDDA (100%)
08 -=- 08 Rinaldo.flac -=- CDDA (100%)
09 -=- 09 Generoso Risuegliati O Core.flac -=- CDDA (100%)
10 -=- 10 Salve Regina.flac -=- CDDA (100%)
11 -=- 11 Alto Giove.flac -=- CDDA (100%)
Сводка 96,45% CDDA
158555668

_________________
"Любая война – всего лишь трусливое бегство от проблем мирного времени." Томас Манн.
[Profile] [PM]

Offline

брателла

Longevity:
7 months
Posts:
2

прослушаю сделаю обзор
[Profile] [PM]
Display posts from previous:    

The time now is: Today 13:37

All times are GMT + 3 Hours



You cannot post new topics in this forum
You cannot reply to topics in this forum
You cannot edit your posts in this forum
You cannot delete your posts in this forum
You cannot vote in polls in this forum
You cannot attach files in this forum
You cannot download files in this forum