Today is free to download without increasing Download
 

Offline

andrew6572

Longevity:
7 years 1 month
Posts:
6105

Buddhist Music Played By Piano I-VI
Жанр: New Age, Instrumental, Piano, Meditative
Год издания: 1991-1992
Аудиокодек: APE (*.ape)
Тип рипа: image+.cue
Битрейт аудио: lossless
Продолжительность: 06:00:00
Источник (релизер): internet
Наличие сканов в содержимом раздачи: нет

I - Yuan Fu Chao (緣佛抄) (1991)


01. Qi�n Shēng Yu�n & R�n Jiān Yu�n

EAC

EAC 抓取日志文件从2. 十月 2005, 18:18 用于 CD
佛曲钢琴礼赞系列 / 缘佛抄
使用驱动器 :CDWRITERIDE5232 Adapter: 1 ID: 1
读取模式 :不使用 C2,使用精确流, 禁用缓存的安全模式
组合读写偏移校正:0
读取 Lead-In 和 Lead-Out : 否
所用输出模式:内部 WAV 函数
44.100 Hz;16 Bit;立体声
其他选项 :
用静音填充抓取中丢失偏移的采样 : 是
去除首尾静音块 : 否
Win NT 及 2000 本地 Win32 接口
范围状态及错误
已选择范围
文件名 D:\分享\佛曲钢琴礼赞系列\缘佛抄.wav
峰值电平 95.9 %
范围质量 99.9 %
CRC 7FC90932
复制成功
没有错误发生
状态报告结尾

.CUE

PERFORMER "Buddhist Music"
TITLE "Crashing Aeroplanes"
FILE "Buddhist Music Played By Piano I - Yuan Fu Chao.ape" WAVE
TRACK 01 AUDIO
TITLE "前生緣 & 人間願"
INDEX 01 00:00:00

II - Liu Li Fu Zhu (琉璃佛珠) (1991)


01. The Sound Of Bell Emitted In The Evening From An Ancient Temple
02. Praise To Amitabha Buddha
03. The Song Of Three Holy Triratna
04. The Jewelled Hall Of Great Hero
05. The Verse Of Repentance
06. Bowing And Making Vow Through Reciting The Name Of Buddha

EAC

EAC 抓取日志文件从2. 十月 2005, 18:46 用于 CD
杜泰航 / 琉璃佛珠
使用驱动器 :CDWRITERIDE5232 Adapter: 1 ID: 1
读取模式 :不使用 C2,使用精确流, 禁用缓存的安全模式
组合读写偏移校正:0
读取 Lead-In 和 Lead-Out : 否
所用输出模式:内部 WAV 函数
44.100 Hz;16 Bit;立体声
其他选项 :
用静音填充抓取中丢失偏移的采样 : 是
去除首尾静音块 : 否
Win NT 及 2000 本地 Win32 接口
范围状态及错误
已选择范围
文件名 D:\分享\佛曲钢琴礼赞系列\琉璃佛珠\CDImage.wav
峰值电平 100.0 %
范围质量 100.0 %
CRC 9E830FF9
复制成功
没有错误发生
状态报告结尾

.CUE

PERFORMER "Buddhist Music"
TITLE "琉璃佛珠"
FILE "Buddhist Music Played By Piano II - Liu Li Fu Zhu.ape" WAVE
TRACK 01 AUDIO
TITLE "古剎晚鐘 The Sound Of Bell Emitted In The Evening From An Ancient Temple"
INDEX 01 00:00:00
TRACK 02 AUDIO
TITLE "彌陀讚 Praise To Amitabha Buddha"
INDEX 00 09:26:70
INDEX 01 09:29:70
TRACK 03 AUDIO
TITLE "三寶歌 The Song Of Three Holy Triratna"
INDEX 00 21:09:35
INDEX 01 21:12:35
TRACK 04 AUDIO
TITLE "大雄寶殿 The Jewelled Hall Of Great Hero"
INDEX 00 29:22:55
INDEX 01 29:25:55
TRACK 05 AUDIO
TITLE "懺悔文 The Verse Of Repentance"
INDEX 00 39:26:62
INDEX 01 39:29:62
TRACK 06 AUDIO
TITLE "佛號拜願 Bowing And Making Vow Through Reciting The Name Of Buddha"
INDEX 00 50:46:17
INDEX 01 50:49:17

III - Embroidered Buddha Image (绣佛) (1991)


01. Hymn For Sakyamuni
02. Sacrificial Scripture By Bell-Tolling
03. Silence Of The Green Mountain
04. Purifying The Dharmakaya For Buddha
05. Hymn Of Avalokitesvara Bodhisattva
06. Hymn Of Ksitigarbha Bodhisattva

EAC

EAC 抓取日志文件从2. 十月 2005, 21:29 用于 CD
Various / 繡佛
使用驱动器 :CDWRITERIDE5232 Adapter: 1 ID: 1
读取模式 :不使用 C2,使用精确流, 禁用缓存的安全模式
组合读写偏移校正:0
读取 Lead-In 和 Lead-Out : 否
所用输出模式:内部 WAV 函数
44.100 Hz;16 Bit;立体声
其他选项 :
用静音填充抓取中丢失偏移的采样 : 是
去除首尾静音块 : 否
Win NT 及 2000 本地 Win32 接口
范围状态及错误
已选择范围
文件名 D:\分享\佛曲钢琴礼赞系列\繡佛\CDImage.wav
峰值电平 91.1 %
范围质量 100.0 %
CRC F503FB4D
复制成功
没有错误发生
状态报告结尾

.CUE

PERFORMER "Buddhist Music"
TITLE "繡佛"
FILE "Buddhist Music Played By Piano III - Embroidered Buddha Image.ape" WAVE
TRACK 01 AUDIO
TITLE "釋迦牟尼頌"
INDEX 01 00:00:00
TRACK 02 AUDIO
TITLE "叩鐘偈"
INDEX 00 10:22:06
INDEX 01 10:25:00
TRACK 03 AUDIO
TITLE "青山無語"
INDEX 00 19:25:01
INDEX 01 19:28:00
TRACK 04 AUDIO
TITLE "清淨法身佛"
INDEX 00 28:26:04
INDEX 01 28:29:00
TRACK 05 AUDIO
TITLE "觀音頌"
INDEX 00 39:53:01
INDEX 01 39:56:00
TRACK 06 AUDIO
TITLE "地藏頌"
INDEX 00 48:40:01
INDEX 01 48:43:00

IV - Buddhist Splendor (佛彩) (1992)


01. The Buddha Ascending To The Hall
02.The Green Pine On Jiao-Hua Mountain
03. The Waves Besides Po-Tuo Mountain
04. The Buddha's Light On O-Mei Mountain
05.The Sunset At Wu-Tai Mountain
06. The Tune Of Tranquility

EAC

EAC 抓取日志文件从2. 十月 2005, 21:17 用于 CD
Various / 佛彩
使用驱动器 :CDWRITERIDE5232 Adapter: 1 ID: 1
读取模式 :不使用 C2,使用精确流, 禁用缓存的安全模式
组合读写偏移校正:0
读取 Lead-In 和 Lead-Out : 否
所用输出模式:内部 WAV 函数
44.100 Hz;16 Bit;立体声
其他选项 :
用静音填充抓取中丢失偏移的采样 : 是
去除首尾静音块 : 否
Win NT 及 2000 本地 Win32 接口
范围状态及错误
已选择范围
文件名 D:\分享\佛曲钢琴礼赞系列\佛彩\CDImage.wav
峰值电平 99.9 %
范围质量 100.0 %
CRC 23C9C7D8
复制成功
没有错误发生
状态报告结尾

.CUE

PERFORMER "Buddhist Music"
TITLE "佛彩"
FILE "Buddhist Music Played By Piano IV - Buddhist Splendor.ape" WAVE
TRACK 01 AUDIO
TITLE "佛上殿"
INDEX 01 00:00:00
TRACK 02 AUDIO
TITLE "九華蒼松"
INDEX 00 09:31:26
INDEX 01 09:34:25
TRACK 03 AUDIO
TITLE "普陀梵潮"
INDEX 00 19:56:00
INDEX 01 19:59:00
TRACK 04 AUDIO
TITLE "峨嵋佛光"
INDEX 00 29:22:27
INDEX 01 29:25:25
TRACK 05 AUDIO
TITLE "五台夕照"
INDEX 00 36:47:28
INDEX 01 36:50:25
TRACK 06 AUDIO
TITLE "靜虛吟"
INDEX 00 47:39:27
INDEX 01 47:42:25

V - The Theme Of Incense (吟佛香) (1992)


01. The Incense Of Keeping Precepts And Concentration
02. Eight-Sentence Praise Of Buddha
03. Saha, The Earthy World
04. Shuiroyin
05. The Mantra Of Candi Avalokitesvara Bodhisattva
06. The Sound Of Bell Emitted In The Evening From An Ancient Temple

EAC

EAC 抓取日志文件从2. 十月 2005, 21:47 用于 CD
Buddhist Music Played by Piano 5 / 吟佛香
使用驱动器 :CDWRITERIDE5232 Adapter: 1 ID: 1
读取模式 :不使用 C2,使用精确流, 禁用缓存的安全模式
组合读写偏移校正:0
读取 Lead-In 和 Lead-Out : 否
所用输出模式:内部 WAV 函数
44.100 Hz;16 Bit;立体声
其他选项 :
用静音填充抓取中丢失偏移的采样 : 是
去除首尾静音块 : 否
Win NT 及 2000 本地 Win32 接口
范围状态及错误
已选择范围
文件名 D:\分享\佛曲钢琴礼赞系列\吟佛香\CDImage.wav
峰值电平 99.9 %
范围质量 99.9 %
CRC 84AB86B3
复制成功
没有错误发生
状态报告结尾

.CUE

PERFORMER "Buddhist Music"
TITLE "吟佛香"
FILE "Buddhist Music Played By Piano V - The Theme Of Incense.ape" WAVE
TRACK 01 AUDIO
TITLE "戒定真香"
INDEX 01 00:00:00
TRACK 02 AUDIO
TITLE "八句讚"
INDEX 00 09:52:25
INDEX 01 09:55:25
TRACK 03 AUDIO
TITLE "娑婆界"
INDEX 00 18:02:50
INDEX 01 18:05:50
TRACK 04 AUDIO
TITLE "水洛因"
INDEX 00 28:28:25
INDEX 01 28:31:25
TRACK 05 AUDIO
TITLE "準提咒"
INDEX 00 37:24:00
INDEX 01 37:27:00
TRACK 06 AUDIO
TITLE "古剎晚鐘"
INDEX 00 46:49:50
INDEX 01 46:52:50

VI - The Glory Of Buddha (靈山佛影) (1992)


01. Praise To Buddhas In Five Directions
02.The Prajna Paramita Heart Sutra
03. Praise Of Ksitigarbha Budhisattva
04. Worldly Dream
05. Dedications To Buddhas
06. Praise Of Sakyamuni

EAC

EAC 抓取日志文件从2. 十月 2005, 21:58 用于 CD
Buddhist Music Played by Piano 4 / 靈山佛影
使用驱动器 :CDWRITERIDE5232 Adapter: 1 ID: 1
读取模式 :不使用 C2,使用精确流, 禁用缓存的安全模式
组合读写偏移校正:0
读取 Lead-In 和 Lead-Out : 否
所用输出模式:内部 WAV 函数
44.100 Hz;16 Bit;立体声
其他选项 :
用静音填充抓取中丢失偏移的采样 : 是
去除首尾静音块 : 否
Win NT 及 2000 本地 Win32 接口
范围状态及错误
已选择范围
文件名 D:\分享\佛曲钢琴礼赞系列\靈山佛影\CDImage.wav
峰值电平 100.0 %
范围质量 100.0 %
CRC AAAEA8E0
复制成功
没有错误发生
状态报告结尾

.CUE

PERFORMER "Buddhist Music"
TITLE "靈山佛影"
FILE "Buddhist Music Played By Piano VI - The Glory Of Buddha.ape" WAVE
TRACK 01 AUDIO
TITLE "小五方"
INDEX 01 00:00:00
TRACK 02 AUDIO
TITLE "心經"
INDEX 00 11:02:14
INDEX 01 11:05:12
TRACK 03 AUDIO
TITLE "地藏頌"
INDEX 00 23:51:05
INDEX 01 23:54:00
TRACK 04 AUDIO
TITLE "南柯夢"
INDEX 00 34:53:01
INDEX 01 34:56:00
TRACK 05 AUDIO
TITLE "香花燈塗果"
INDEX 00 45:29:00
INDEX 01 45:32:00
TRACK 06 AUDIO
TITLE "釋迦牟尼頌"
INDEX 00 57:23:17
INDEX 01 57:26:12

_________________
"Любая война – всего лишь трусливое бегство от проблем мирного времени." Томас Манн.
[Profile] [PM]

Топик был перенесен из форума Горячие новинки в форум Label Packs (lossless)
Трекер
 
Display posts from previous:    

The time now is: Today 16:09

All times are GMT + 3 Hours



You cannot post new topics in this forum
You cannot reply to topics in this forum
You cannot edit your posts in this forum
You cannot delete your posts in this forum
You cannot vote in polls in this forum
You cannot attach files in this forum
You cannot download files in this forum